Subcategories

Helen Merrill - Bossa Nova In Tokyo (1993)

Posted By: Domestos
Helen Merrill - Bossa Nova In Tokyo (1993)

Helen Merrill - Bossa Nova In Tokyo (1993)
EAC Rip | FLAC (tracks+.cue, log) ~ 199.04 Mb | 35:08 | Cover
Vocal Jazz | Country: USA | Label: JVC Compact Discs - VICJ 23173

The third album recorded in Japan by Helen Merrill with the Sadao Watanabe Quintet featuring Masabumi Kikuchi, Isao Suzuki & Masahiko Togashi, arranger Norio Maeda plus strings ensemble. The band replays the Bossa Nova's greatest hits among others, original compositions from the master Antonio Carlos Jobim as So Danço Samba, How Insensitive or Agua Di Beber, just as some Japanese Pop (Yume Wa Yoru Hiraku, Shinjite Itai) & Jazz standards (Fly Me To The Moon, The Shadow Of Your Smile). All tracks arranged by Norio Maeda (tracks: 1, 3, 6, 8, 11, 12) & Sadao Watanabe (tracks: 2, 4, 5, 7, 9, 10), recorded at Victor Studios, Tokyo.

Track List:
01. Fly Me To The Moon (3:01)
02. The Boy From Ipanema (3:02)
03. The Shadow Of Your Smile (3:02)
04. So Danco Samba (2:35)
05. La Chanson D'Orphee (3:05)
06. Yume Wa Yoru Hiraku (3:07)
07. A Man And A Woman (2:47)
08. How Insensitive (3:11)
09. Johnny Guitar (2:45)
10. Agua Di Beber (2:43)
11. Yesterday (3:00)
12. Sinjite Itai (2:51)

Exact Audio Copy V0.99 prebeta 5 from 4. May 2009

EAC extraction logfile from 27. December 2009, 20:01

Helen Merrill / Bossa Nova in Tokyo

Used drive : TSSTcorpCDDVDW SH-S202N Adapter: 0 ID: 0

Read mode : Secure
Utilize accurate stream : Yes
Defeat audio cache : Yes
Make use of C2 pointers : No

Read offset correction : 6
Overread into Lead-In and Lead-Out : No
Fill up missing offset samples with silence : Yes
Delete leading and trailing silent blocks : No
Null samples used in CRC calculations : Yes
Used interface : Native Win32 interface for Win NT & 2000
Gap handling : Appended to previous track

Used output format : User Defined Encoder
Selected bitrate : 128 kBit/s
Quality : High
Add ID3 tag : No
Command line compressor : C:\Program Files (x86)\Exact Audio Copy\flac.exe
Additional command line options : -8 -V -T "ARTIST=%a" -T "TITLE=%t" -T "ALBUM=%g" -T "DATE=%y" -T "TRACKNUMBER=%n" -T "GENRE=%m" -T "COMMENT=EAC FLAC -8" %s

TOC of the extracted CD

Track | Start | Length | Start sector | End sector
––––––––––––––––––––––––––––-
1 | 0:00.37 | 3:01.08 | 37 | 13619
2 | 3:01.45 | 3:01.50 | 13620 | 27244
3 | 6:03.20 | 3:02.37 | 27245 | 40931
4 | 9:05.57 | 2:34.68 | 40932 | 52549
5 | 11:40.50 | 3:04.62 | 52550 | 66411
6 | 14:45.37 | 3:06.65 | 66412 | 80426
7 | 17:52.27 | 2:47.10 | 80427 | 92961
8 | 20:39.37 | 3:10.63 | 92962 | 107274
9 | 23:50.25 | 2:45.02 | 107275 | 119651
10 | 26:35.27 | 2:42.50 | 119652 | 131851
11 | 29:18.02 | 3:00.15 | 131852 | 145366
12 | 32:18.17 | 2:50.45 | 145367 | 158161

Track 1

Filename X:\Rip\Helen Merrill - Bossa Nova in Tokyo (1993) [FLAC]\01 - Fly Me To The Moon.wav

Pre-gap length 0:00:02.37

Peak level 99.9 %
Track quality 100.0 %
Test CRC E7DCAF05
Copy CRC E7DCAF05
Track not present in AccurateRip database
Copy OK

Track 2

Filename X:\Rip\Helen Merrill - Bossa Nova in Tokyo (1993) [FLAC]\02 - The Boy From Ipanema.wav

Pre-gap length 0:00:02.37

Peak level 83.3 %
Track quality 99.9 %
Test CRC DEEE3C86
Copy CRC DEEE3C86
Track not present in AccurateRip database
Copy OK

Track 3

Filename X:\Rip\Helen Merrill - Bossa Nova in Tokyo (1993) [FLAC]\03 - The Shadow Of Your Smile.wav

Pre-gap length 0:00:01.37

Peak level 80.2 %
Track quality 100.0 %
Test CRC A06CFCF0
Copy CRC A06CFCF0
Track not present in AccurateRip database
Copy OK

Track 4

Filename X:\Rip\Helen Merrill - Bossa Nova in Tokyo (1993) [FLAC]\04 - So Danco Samba.wav

Pre-gap length 0:00:02.36

Peak level 97.7 %
Track quality 100.0 %
Test CRC 4C9526BE
Copy CRC 4C9526BE
Track not present in AccurateRip database
Copy OK

Track 5

Filename X:\Rip\Helen Merrill - Bossa Nova in Tokyo (1993) [FLAC]\05 - La Chanson D'Orphee.wav

Pre-gap length 0:00:02.37

Peak level 75.6 %
Track quality 100.0 %
Test CRC D00D94E5
Copy CRC D00D94E5
Track not present in AccurateRip database
Copy OK

Track 6

Filename X:\Rip\Helen Merrill - Bossa Nova in Tokyo (1993) [FLAC]\06 - Yume Wa Yoru Hiraku.wav

Pre-gap length 0:00:02.36

Peak level 69.7 %
Track quality 100.0 %
Test CRC 33665F37
Copy CRC 33665F37
Track not present in AccurateRip database
Copy OK

Track 7

Filename X:\Rip\Helen Merrill - Bossa Nova in Tokyo (1993) [FLAC]\07 - A Man And A Woman.wav

Pre-gap length 0:00:02.36

Peak level 81.0 %
Track quality 100.0 %
Test CRC F8E4C599
Copy CRC F8E4C599
Track not present in AccurateRip database
Copy OK

Track 8

Filename X:\Rip\Helen Merrill - Bossa Nova in Tokyo (1993) [FLAC]\08 - How Insensitive.wav

Pre-gap length 0:00:02.36

Peak level 81.4 %
Track quality 100.0 %
Test CRC E18E45EC
Copy CRC E18E45EC
Track not present in AccurateRip database
Copy OK

Track 9

Filename X:\Rip\Helen Merrill - Bossa Nova in Tokyo (1993) [FLAC]\09 - Johnny Guitar.wav

Pre-gap length 0:00:02.37

Peak level 76.8 %
Track quality 99.9 %
Test CRC AE19A959
Copy CRC AE19A959
Track not present in AccurateRip database
Copy OK

Track 10

Filename X:\Rip\Helen Merrill - Bossa Nova in Tokyo (1993) [FLAC]\10 - Agua Di Beber.wav

Pre-gap length 0:00:02.36

Peak level 95.0 %
Track quality 100.0 %
Test CRC 9F44EB6D
Copy CRC 9F44EB6D
Track not present in AccurateRip database
Copy OK

Track 11

Filename X:\Rip\Helen Merrill - Bossa Nova in Tokyo (1993) [FLAC]\11 - Yesterday.wav

Pre-gap length 0:00:02.36

Peak level 79.2 %
Track quality 100.0 %
Test CRC DF9C8E62
Copy CRC DF9C8E62
Track not present in AccurateRip database
Copy OK

Track 12

Filename X:\Rip\Helen Merrill - Bossa Nova in Tokyo (1993) [FLAC]\12 - Sinjite Itai.wav

Pre-gap length 0:00:02.36

Peak level 100.0 %
Track quality 100.0 %
Test CRC C09067B6
Copy CRC C09067B6
Track not present in AccurateRip database
Copy OK

None of the tracks are present in the AccurateRip database

No errors occurred

End of status report

All thanks go to the Original ripper (unknown)

More Music in My Blog
Follow My RSS Channel