Subcategories

The Hellacopters - Payin' The Dues (1997)

Posted By: Rehabilly
The Hellacopters - Payin' The Dues (1997)

The Hellacopters - Payin' The Dues
WV+CUE+LOG or mp3 CBR 320 | 28:57 min | 222 or 67 MB
Garage Rock Revival / Garage Punk / Heavy Rock

The Hellacopters reconvened for a second album in 1998, churning out a platter that retained the raw ferocity of their debut while featuring even better songs. Payin' the Dues is a winner from start to finish, but special kudos go out to "You Are Nothin’", "Hey!", "Where the Action Is", and "Soulseller". One has to wonder how huge these guys would be if they were American instead of Swedish. The record did so well in Europe that vocalist/guitarist Nicke Andersson (aka Nicke Hellacopter) decided to quit the security of his day job on the drum stool of death metallers Entombed to concentrate on the Hellacopters full-time. Unfortunately, co-leader Dregen chose to carry on with his main band, Backyard Babies.

~ Ed Rivadavia, all media guide
Tracklist:

01. You Are Nothin'
02. Like No Other Man
03. Looking At Me
04. Riot On The Rocks
05. Hey!
06. Soulseller
07. Where The Action Is
08. Twist Action
09. Colapso Nervioso
10. Psyched Out & Furious

Exact Audio Copy V0.99 prebeta 4 from 23. January 2008

EAC extraction logfile from 7. February 2009, 0:45

The Hellacopters / Payin' The Dues

Used drive : PLEXTOR CD-R PREMIUM2 Adapter: 1 ID: 1

Read mode : Secure
Utilize accurate stream : Yes
Defeat audio cache : Yes
Make use of C2 pointers : No

Read offset correction : 30
Overread into Lead-In and Lead-Out : Yes
Fill up missing offset samples with silence : Yes
Delete leading and trailing silent blocks : No
Null samples used in CRC calculations : Yes
Used interface : Installed external ASPI interface

Used output format : Internal WAV Routines
Sample format : 44.100 Hz; 16 Bit; Stereo


TOC of the extracted CD

Track | Start | Length | Start sector | End sector
––––––––––––––––––––––––––––-
1 | 0:00.00 | 2:38.57 | 0 | 11906
2 | 2:38.57 | 3:14.38 | 11907 | 26494
3 | 5:53.20 | 2:04.12 | 26495 | 35806
4 | 7:57.32 | 1:23.30 | 35807 | 42061
5 | 9:20.62 | 3:20.68 | 42062 | 57129
6 | 12:41.55 | 3:12.45 | 57130 | 71574
7 | 15:54.25 | 2:40.52 | 71575 | 83626
8 | 18:35.02 | 2:03.65 | 83627 | 92916
9 | 20:38.67 | 4:03.65 | 92917 | 111206
10 | 24:42.57 | 4:14.28 | 111207 | 130284


Range status and errors

Selected range

Filename C:\200\HELLACOPTERS, The\1997- Payin' The Dues [Jazz004CD]\The Hellacopters - Payin' The Dues.wav

Peak level 100.0 %
Range quality 100.0 %
Copy CRC EB73071C
Copy OK

No errors occurred


AccurateRip summary

Track 1 accurately ripped (confidence 7) [99CB8BF0]
Track 2 accurately ripped (confidence 8) [82A9DAF8]
Track 3 accurately ripped (confidence 8) [133436CC]
Track 4 accurately ripped (confidence 8) [031C3795]
Track 5 accurately ripped (confidence 8) [70B63094]
Track 6 accurately ripped (confidence 8) [DD829617]
Track 7 accurately ripped (confidence 8) [171272CC]
Track 8 accurately ripped (confidence 8) [88330E84]
Track 9 accurately ripped (confidence 8) [4CCD2AF0]
Track 10 accurately ripped (confidence 8) [CC3C634A]

All tracks accurately ripped

End of status report

all songs written by The Hellacopters
Produced, Recorded and Engineered by The Hellacopters, Andrew Shit and T. Skogsberg
at Sunlight Studio, Stockholm. Mixed by Tomas Skogsberg.

• Nicke Andersson - lead vocals, guitars, piano & percussion
• Andreas "Dregen" Svensson - guitars, backing vocals & percussion
• Kenny Hakansson - electric bass
• Anders Lindstrom (aka Boba Fett) - keyboards
• Matz Robert Eriksson - drums & percussion

additional musicians:
- Ross The Boss - lead guitar on "10"
- Peder Criss - harmonica on "4"
full information see on covers inside.

Release Date: October 5, 1997
Format: Original Recording
Label: White Jazz Records
Catalog No.: Jazz 004CD