Subcategories

The Hellacopters - Supershitty To The Max! (1996) RE-UPLOAD

Posted By: Rehabilly
The Hellacopters - Supershitty To The Max! (1996) RE-UPLOAD

The Hellacopters - Supershitty To The Max!
WV+CUE+LOG or mp3 CBR 320 | 57:19 min | 353 or 109 MB
Garage Rock Revival / Garage Punk / Heavy Rock

Supershitty To The Max! is the Grammies award winning debut album by The Hellacopters, which was recorded all live in only 26 hours at Stockholm's Sunlight studio…

The Hellacopters were a Swedish rock band that was formed in 1994 and disbanded October 26, 2008. They have released six full length albums of their own material, one cover album, two compilations of non-album work, six EPs, and many other official releases. In October 2007 the band officially announced their break up after an extensive European tour and the release of a double disc live album. The band was, together with The Hives, one of the most important Swedish bands in the garage rock revival and one of the most influential rock bands in Sweden.

The Hellacopters - Supershitty To The Max! (1996) RE-UPLOAD

The Hellacopters were originally a side project for Nicke Andersson (drummer with Swedish death metal gods Entombed) and Dregen (guitarist for fellow scandinavian rockers the Backyard Babies). Their mission was to bring the blinding speed and distortion of Motorhead (with a little punk sensibility thrown in for good measure) to the '90s, and this they did with Supershitty to the Max! Opener "(Gotta Get Some Action) Now!" is simply brilliant, roaring like a Harley down the highway, shredding eardrums along the way. Though the pace abates somewhat three songs in, the distortion is on 11 throughout the record, yielding other gems such as "Fire Fire Fire" and "Tab"…

~ Ed Rivadavia, all media guide

Tracklist:

01. (Gotta Get Some Action) Now!
02. 24h Hell
03. Fire Fire Fire
04. Born Broke
05. Bore Me
06. Tab
07. How Could I Care
08. Didn't Stop Us
09. Random Riot
10. Fake Baby
11. Ain't No Time
12. Such A Blast
13. Spock In My Rocket

Exact Audio Copy V0.99 prebeta 4 from 23. January 2008

EAC extraction logfile from 6. February 2009, 20:53

The Hellacopters / Supershitty To The Max!

Used drive : PLEXTOR CD-R PREMIUM2 Adapter: 1 ID: 1

Read mode : Secure
Utilize accurate stream : Yes
Defeat audio cache : Yes
Make use of C2 pointers : No

Read offset correction : 30
Overread into Lead-In and Lead-Out : Yes
Fill up missing offset samples with silence : Yes
Delete leading and trailing silent blocks : No
Null samples used in CRC calculations : Yes
Used interface : Installed external ASPI interface

Used output format : Internal WAV Routines
Sample format : 44.100 Hz; 16 Bit; Stereo


TOC of the extracted CD

Track | Start | Length | Start sector | End sector
––––––––––––––––––––––––––––-
1 | 0:00.00 | 3:16.40 | 0 | 14739
2 | 3:16.40 | 1:33.72 | 14740 | 21786
3 | 4:50.37 | 1:31.38 | 21787 | 28649
4 | 6:22.00 | 4:13.25 | 28650 | 47649
5 | 10:35.25 | 3:18.65 | 47650 | 62564
6 | 13:54.15 | 5:34.45 | 62565 | 87659
7 | 19:28.60 | 3:52.32 | 87660 | 105091
8 | 23:21.17 | 1:46.25 | 105092 | 113066
9 | 25:07.42 | 1:44.58 | 113067 | 120924
10 | 26:52.25 | 2:59.70 | 120925 | 134419
11 | 29:52.20 | 2:56.50 | 134420 | 147669
12 | 32:48.70 | 2:13.25 | 147670 | 157669
13 | 35:02.20 | 22:16.50 | 157670 | 257919


Range status and errors

Selected range

Filename C:\200\HELLACOPTERS, The\1996- Supershitty To The Max! [Jazz001CD]\The Hellacopters - Supershitty To The Max!.wav

Peak level 97.0 %
Range quality 100.0 %
Copy CRC 0E2A8F5A
Copy OK

No errors occurred


AccurateRip summary

Track 1 accurately ripped (confidence 5) [7886194A]
Track 2 accurately ripped (confidence 5) [D12A942F]
Track 3 accurately ripped (confidence 5) [949B7CFA]
Track 4 accurately ripped (confidence 5) [11F8AD32]
Track 5 accurately ripped (confidence 4) [735D30E6]
Track 6 accurately ripped (confidence 5) [694524B6]
Track 7 accurately ripped (confidence 5) [99F7F9CE]
Track 8 accurately ripped (confidence 5) [EC52F2D5]
Track 9 accurately ripped (confidence 5) [0A5A1C73]
Track 10 accurately ripped (confidence 5) [EEF1301D]
Track 11 accurately ripped (confidence 5) [44520106]
Track 12 accurately ripped (confidence 5) [57D2506E]
Track 13 accurately ripped (confidence 4) [CA24F107]

All tracks accurately ripped

End of status report

all songs written by The Hellacopters
Recorded and Mixed by Tomas Skogsberg & The Hellacopters
at Sunlight Studio, Stockholm, 26 Hours in February 1996

• Nicke Andersson - lead vocals, guitar
• Andreas "Dregen" Svensson - guitar, vocals on "8"
• Kenny Hakansson - bass & backing vocals
• Matz Robert Eriksson - drums, vocals on "12"

additional musicians:
- Peder Criss - harmonica
- Hans Ostlund - lead guitar on "11"
- Nick Vahlberg - vocals on "7"

Original Release Date: June 1996
Re-Release Date: July 27, 1997
Format: Original Recording Reissued
Label: White Jazz Records
Catalog No.: Jazz 001CD