Herb Ellis - The Midnight Roll - Complete Sessions (1962) {EJC55603 rel 2013}

Posted By: ruskaval
Herb Ellis - The Midnight Roll - Complete Sessions (1962) {EJC55603 rel 2013}

Herb Ellis - The Midnight Roll - Complete Sessions (1962) {EJC55603 rel 2013}
EAC rip (secure mode) | FLAC (tracks)+CUE+LOG -> 481 Mb | MP3 @320 -> 182 Mb
Full Artwork @ 600 dpi (jpg) -> 213 Mb | 5% repair rar
© 1962, 2013 Essential Jazz Classics | EJC 55603
Jazz / West Coast Jazz / Cool / Guitar

This release contains the outstanding album The Midnight Roll (Epic Stereo BA17034), featuring two All-Star small group formations including Roy Eldridge or Dukes of Dixieland’s Frank Assunto on trumpet, Buddy Tate on tenor sax, Ray Bryant on piano, and on some tracks, the ill-fated bassist Israel Crosby, who is best know for his work with Ahmad Jamal Trio.

Crosby died of a heart attack on August 11, 1962, less than two months after recording this date. All existing tracks from the sessions that were not included on the original LP have been added here as a bonus, as well as an earlier version of Gravy Waltz taped by Ellis in a quartet format the previous year.
Herb Ellis - The Midnight Roll - Complete Sessions (1962) {EJC55603 rel 2013}


PERSONNEL:

HERB ELLIS ALL STARS:

[3-4], [6-9] & [11-15]:
FRANK ASSUNTO, trumpet
BUDDY TATE, tenor sax
RAY BRYANT, piano
HERB ELLIS, guitar
JIMMY ROWSER, bass
GUS JOHNSON, drums

New York, June 12 & 13, 1962.

[1-2], [5], [10] & [16]:
ROY ELDRIDGE, trumpet
BUDDY TATE, tenor sax
RAY BRYANT, piano
HERB ELLIS, guitar
ISRAEL CROSBY, bass
GUS JOHNSON, drums

New York, June 14, 1962

[17] Bonus Track:
VICTOR FELDMAN, vibraphone
HERB ELLIS, guitar
LEROY VINNEGAR, bass
RONNIE ZITO, drums

Los Angeles, October 12, 1961.

INCLUDES 12-PAGE BOOKLET

Herb Ellis - The Midnight Roll - Complete Sessions (1962) {EJC55603 rel 2013}


TRACKS:
01. Broadway
02. Gravy Waltz
03. Poor Darlin’ Nellie
04, Old Folks
05. Roy Showed
06. Things Ain’t What They Used To Be
07. Willow Weep For Me
08. Symphony
09. It Make No Difference Now
10. It Don’t Mean A Thing
11. Harper’s Ferry [John Brown’s Body**
12. Herb’s Here*
13. I Won’t Love You*
14. You’d Better Know It*
15. Too Bad*
16. Alicia*
17. Gravy Waltz [1961 Quartet Version] **
* From the same sessions, but not included on the original LP.

Exact Audio Copy V1.1 from 23. June 2015

EAC extraction logfile from 9. October 2016, 13:31

Herb Ellis / The Midnight Roll: Complete Sessions

Used drive : TSSTcorpCDDVDW SE-208DB Adapter: 1 ID: 2

Read mode : Secure
Utilize accurate stream : Yes
Defeat audio cache : Yes
Make use of C2 pointers : No

Read offset correction : 6
Overread into Lead-In and Lead-Out : No
Fill up missing offset samples with silence : Yes
Delete leading and trailing silent blocks : No
Null samples used in CRC calculations : Yes
Used interface : Native Win32 interface for Win NT & 2000
Gap handling : Appended to previous track

Used output format : User Defined Encoder
Selected bitrate : 1024 kBit/s
Quality : High
Add ID3 tag : No
Command line compressor : C:\Program Files (x86)\FLAC Frontend\tools\flac.exe
Additional command line options : -8 -V -T "ARTIST=%artist%" -T "TITLE=%title%" -T "ALBUM=%albumtitle%" -T "DATE=%year%" -T "TRACKNUMBER=%tracknr%" -T "TOTALTRACKS=%numtracks%" -T "GENRE=%genre%" -T "ALBUMARTIST=%albumartist%" -T "ALBUM ARTIST=%albumartist%" -T "COMMENT=EAC Secure Mode, Test & Copy, AccurateRip, FLAC -8" %source%


TOC of the extracted CD

Track | Start | Length | Start sector | End sector
––––––––––––––––––––––––––––-
1 | 0:00.00 | 4:20.27 | 0 | 19526
2 | 4:20.27 | 3:09.68 | 19527 | 33769
3 | 7:30.20 | 3:43.55 | 33770 | 50549
4 | 11:14.00 | 3:35.71 | 50550 | 66745
5 | 14:49.71 | 4:48.17 | 66746 | 88362
6 | 19:38.13 | 3:59.62 | 88363 | 106349
7 | 23:38.00 | 3:57.14 | 106350 | 124138
8 | 27:35.14 | 3:23.66 | 124139 | 139429
9 | 30:59.05 | 4:02.28 | 139430 | 157607
10 | 35:01.33 | 5:58.54 | 157608 | 184511
11 | 41:00.12 | 5:08.65 | 184512 | 207676
12 | 46:09.02 | 4:57.38 | 207677 | 229989
13 | 51:06.40 | 8:16.24 | 229990 | 267213
14 | 59:22.64 | 4:52.51 | 267214 | 289164
15 | 64:15.40 | 3:45.03 | 289165 | 306042
16 | 68:00.43 | 4:40.70 | 306043 | 327112
17 | 72:41.38 | 5:08.07 | 327113 | 350219


Track 1

Filename D:\_EAC\Herb Ellis - The Midnight Roll - Complete Sessions (1962) [FLAC] {EJC55603 rel 2013}\01 - Broadway.wav

Pre-gap length 0:00:02.00

Peak level 96.8 %
Extraction speed 3.0 X
Track quality 100.0 %
Test CRC 16E63C20
Copy CRC 16E63C20
Accurately ripped (confidence 1) [B5CACDE3] (AR v2)
Copy OK

Track 2

Filename D:\_EAC\Herb Ellis - The Midnight Roll - Complete Sessions (1962) [FLAC] {EJC55603 rel 2013}\02 - Gravy Waltz.wav

Peak level 94.4 %
Extraction speed 2.4 X
Track quality 99.9 %
Test CRC AC3A1E55
Copy CRC AC3A1E55
Accurately ripped (confidence 1) [92F27518] (AR v2)
Copy OK

Track 3

Filename D:\_EAC\Herb Ellis - The Midnight Roll - Complete Sessions (1962) [FLAC] {EJC55603 rel 2013}\03 - Poor Darlin' Nellie.wav

Peak level 100.0 %
Extraction speed 2.7 X
Track quality 99.9 %
Test CRC 932C745B
Copy CRC 932C745B
Accurately ripped (confidence 1) [BA5A941C] (AR v2)
Copy OK

Track 4

Filename D:\_EAC\Herb Ellis - The Midnight Roll - Complete Sessions (1962) [FLAC] {EJC55603 rel 2013}\04 - Old Folks.wav

Peak level 93.4 %
Extraction speed 3.5 X
Track quality 100.0 %
Test CRC DE540057
Copy CRC DE540057
Accurately ripped (confidence 1) [B01E9F0D] (AR v2)
Copy OK

Track 5

Filename D:\_EAC\Herb Ellis - The Midnight Roll - Complete Sessions (1962) [FLAC] {EJC55603 rel 2013}\05 - Roy Showed.wav

Peak level 99.9 %
Extraction speed 3.9 X
Track quality 100.0 %
Test CRC F982011B
Copy CRC F982011B
Accurately ripped (confidence 1) [ED2E6546] (AR v2)
Copy OK

Track 6

Filename D:\_EAC\Herb Ellis - The Midnight Roll - Complete Sessions (1962) [FLAC] {EJC55603 rel 2013}\06 - Things Ain't What They Used To Be.wav

Peak level 97.4 %
Extraction speed 4.0 X
Track quality 100.0 %
Test CRC D17F1C46
Copy CRC D17F1C46
Accurately ripped (confidence 1) [05102D40] (AR v2)
Copy OK

Track 7

Filename D:\_EAC\Herb Ellis - The Midnight Roll - Complete Sessions (1962) [FLAC] {EJC55603 rel 2013}\07 - Willow Weep For Me.wav

Peak level 92.7 %
Extraction speed 4.2 X
Track quality 100.0 %
Test CRC 3E5547EF
Copy CRC 3E5547EF
Accurately ripped (confidence 1) [65B3C7E0] (AR v2)
Copy OK

Track 8

Filename D:\_EAC\Herb Ellis - The Midnight Roll - Complete Sessions (1962) [FLAC] {EJC55603 rel 2013}\08 - Symphony.wav

Peak level 98.2 %
Extraction speed 4.3 X
Track quality 100.0 %
Test CRC B7D0D2F4
Copy CRC B7D0D2F4
Accurately ripped (confidence 1) [3DCD906F] (AR v2)
Copy OK

Track 9

Filename D:\_EAC\Herb Ellis - The Midnight Roll - Complete Sessions (1962) [FLAC] {EJC55603 rel 2013}\09 - It Makes No Difference Now.wav

Peak level 100.0 %
Extraction speed 3.6 X
Track quality 99.9 %
Test CRC B8592387
Copy CRC B8592387
Accurately ripped (confidence 1) [01F763B0] (AR v2)
Copy OK

Track 10

Filename D:\_EAC\Herb Ellis - The Midnight Roll - Complete Sessions (1962) [FLAC] {EJC55603 rel 2013}\10 - It Don't Mean A Thing.wav

Peak level 100.0 %
Extraction speed 4.9 X
Track quality 100.0 %
Test CRC 60CA8081
Copy CRC 60CA8081
Accurately ripped (confidence 1) [B3864C26] (AR v2)
Copy OK

Track 11

Filename D:\_EAC\Herb Ellis - The Midnight Roll - Complete Sessions (1962) [FLAC] {EJC55603 rel 2013}\11 - Harper's Ferry (John Brown's Body).wav

Peak level 100.0 %
Extraction speed 5.1 X
Track quality 100.0 %
Test CRC 8EFA37DC
Copy CRC 8EFA37DC
Accurately ripped (confidence 1) [C27ADC80] (AR v2)
Copy OK

Track 12

Filename D:\_EAC\Herb Ellis - The Midnight Roll - Complete Sessions (1962) [FLAC] {EJC55603 rel 2013}\12 - Herb's Here.wav

Peak level 98.2 %
Extraction speed 5.3 X
Track quality 100.0 %
Test CRC 8C28B568
Copy CRC 8C28B568
Accurately ripped (confidence 1) [26622580] (AR v2)
Copy OK

Track 13

Filename D:\_EAC\Herb Ellis - The Midnight Roll - Complete Sessions (1962) [FLAC] {EJC55603 rel 2013}\13 - I Won't Love You.wav

Peak level 99.0 %
Extraction speed 5.1 X
Track quality 99.9 %
Test CRC 67934C24
Copy CRC 67934C24
Accurately ripped (confidence 1) [F713C2F7] (AR v2)
Copy OK

Track 14

Filename D:\_EAC\Herb Ellis - The Midnight Roll - Complete Sessions (1962) [FLAC] {EJC55603 rel 2013}\14 - You'd Better Know It.wav

Peak level 99.0 %
Extraction speed 5.7 X
Track quality 100.0 %
Test CRC AB2625D0
Copy CRC AB2625D0
Accurately ripped (confidence 1) [B4CA7A1F] (AR v2)
Copy OK

Track 15

Filename D:\_EAC\Herb Ellis - The Midnight Roll - Complete Sessions (1962) [FLAC] {EJC55603 rel 2013}\15 - Too Bad.wav

Peak level 95.9 %
Extraction speed 5.6 X
Track quality 100.0 %
Test CRC 04D1E6D0
Copy CRC 04D1E6D0
Accurately ripped (confidence 1) [2B392A4D] (AR v2)
Copy OK

Track 16

Filename D:\_EAC\Herb Ellis - The Midnight Roll - Complete Sessions (1962) [FLAC] {EJC55603 rel 2013}\16 - Alicia.wav

Peak level 74.1 %
Extraction speed 5.9 X
Track quality 100.0 %
Test CRC F4C0E47F
Copy CRC F4C0E47F
Accurately ripped (confidence 1) [A0F87CF5] (AR v2)
Copy OK

Track 17

Filename D:\_EAC\Herb Ellis - The Midnight Roll - Complete Sessions (1962) [FLAC] {EJC55603 rel 2013}\17 - Gravy Waltz (1961 quartet version) (bonus track).wav

Peak level 70.2 %
Extraction speed 5.1 X
Track quality 99.9 %
Test CRC 5FE90D94
Copy CRC 5FE90D94
Accurately ripped (confidence 1) [E5F28C7D] (AR v2)
Copy OK


All tracks accurately ripped

No errors occurred

End of status report

==== Log checksum 6296F3A12850BB88C9A05792E5058D4F251745F414CB72095AE22CA7E153A747 ====


Herb Ellis - The Midnight Roll - Complete Sessions (1962) {EJC55603 rel 2013}

Herb Ellis - The Midnight Roll - Complete Sessions (1962) {EJC55603 rel 2013}