Subcategories

Hugh Hopper & Matt Howarth - The Stolen Hour (2004) {Burning Shed Reissue 2014}

Posted By: ruskaval
Hugh Hopper & Matt Howarth - The Stolen Hour (2004) {Burning Shed Reissue 2014}

Hugh Hopper & Matt Howarth - The Stolen Hour (2004) {Burning Shed Reissue 2014}
EAC rip (secure mode) | FLAC (tracks)+CUE+LOG -> 289 Mb | MP3 @320 -> 141 Mb | Data -> 7 Mb
Full Artwork @ 600 dpi (png) -> 95 Mb | 5% repair rar
© 2004, 2014 Burning Shed | bshed 0204
Jazz / Experimental Jazz / Experimental Rock / Electronic

Gloriously atmospheric, jagged and intense, 2004's 'The Stolen Hour' was a superb extension of Hugh Hopper's 'Jazzloops' series of explorations written to accompany the distinctive imagery of American comic book artist, Matt Howarth. Assisted by, amongst others, Robert Wyatt (cornet, voice), John Marshall and Didier Malherbe, Hopper updated the Jazz-tinged Minimalist looping he initially developed in the 1960s, evoking the innovative spirit of early Soft Machine, while simultaneously suggesting new possibilities for his music. Matt Howarth's 'The Stolen Hour', the visual inspiration for this landmark in the development of Hopper's truly idiosyncratic talent, is featured as a pdf file on the enhanced CD.
Hugh Hopper & Matt Howarth - The Stolen Hour (2004) {Burning Shed Reissue 2014}


More INFO

Personnel: Hugh Hopper (guitar, bass guitar, rhythm loop, midi programming), Robert Wyatt (cornet, voice loops on "Craig's Distended Train Ride," "An Unregulated Sunset," "Mia's Timely Emergence from the East"), Frank van der Kooy (saxophone on "Complications at Work"), Pierre-Olivier Govin (saxophone on "Craig's Distended Train Ride," "Complications at Work," "Yearning for the Stolen Hour," "The Long Drive," "The Stuff He Sees," "Compatibility," "Sharing the Stolen Hour"), Simon Picard (saxophone on "An Inescapable Encounter with Mrs. Pry," "A Sideways Peek at Dreamtime," "Snide Wisdom Involving the Immateriality of Time"), Jan Ponsford (voice on "A Sideways Peek at Dreamtime"), Didier Malherbe (flute loops on "A Sideways Peek at Dreamtime"), John Marshall (drum loop on "Sharing the Stolen Hour").

tracklist:
01 - Craig's Distended Train Ride
02 - Complications at Work
03 - An Inescapable Encounter with Mrs. Pry
04 - Yearning for the Stolen Hour
05 - The Long Drive
06 - An Unregulated Sunset
07 - A Sideways Peek at Dreamtime
08 - Snide Wisdom Involving the Immateriality of Time
09 - The Stuff He Sees
10 - Mia's Timely Emergence from the East
11 - Compatibility
12 - Sharing the Stolen Hour

Exact Audio Copy V1.1 from 23. June 2015

EAC extraction logfile from 31. May 2016, 11:59

Hugh Hopper / The Stolen Hour

Used drive : HL-DT-STDVDRAM GP50NW41 Adapter: 1 ID: 0

Read mode : Secure
Utilize accurate stream : Yes
Defeat audio cache : Yes
Make use of C2 pointers : No

Read offset correction : 6
Overread into Lead-In and Lead-Out : No
Fill up missing offset samples with silence : Yes
Delete leading and trailing silent blocks : No
Null samples used in CRC calculations : Yes
Used interface : Native Win32 interface for Win NT & 2000
Gap handling : Appended to previous track

Used output format : User Defined Encoder
Selected bitrate : 1024 kBit/s
Quality : High
Add ID3 tag : No
Command line compressor : C:\Program Files (x86)\FLAC Frontend\tools\flac.exe
Additional command line options : -8 -V -T "ARTIST=%artist%" -T "TITLE=%title%" -T "ALBUM=%albumtitle%" -T "DATE=%year%" -T "TRACKNUMBER=%tracknr%" -T "TOTALTRACKS=%numtracks%" -T "GENRE=%genre%" -T "ALBUMARTIST=%albumartist%" -T "ALBUM ARTIST=%albumartist%" -T "COMMENT=EAC Secure Mode, Test & Copy, AccurateRip, FLAC -8" %source%


TOC of the extracted CD

Track | Start | Length | Start sector | End sector
––––––––––––––––––––––––––––-
1 | 0:00.00 | 3:59.69 | 0 | 17993
2 | 3:59.69 | 5:01.19 | 17994 | 40587
3 | 9:01.13 | 5:22.10 | 40588 | 64747
4 | 14:23.23 | 5:54.25 | 64748 | 91322
5 | 20:17.48 | 4:54.08 | 91323 | 113380
6 | 25:11.56 | 4:11.07 | 113381 | 132212
7 | 29:22.63 | 5:52.08 | 132213 | 158620
8 | 35:14.71 | 5:40.29 | 158621 | 184149
9 | 40:55.25 | 5:58.11 | 184150 | 211010
10 | 46:53.36 | 5:58.73 | 211011 | 237933
11 | 52:52.34 | 4:10.09 | 237934 | 256692
12 | 57:02.43 | 4:11.65 | 256693 | 275582
13 | 63:46.33 | 0:26.60 | 286983 | 288992


Track 1

Filename D:\_EAC\Hugh Hopper and Matt Howarth - The Stolen Hour (2004) {Burning Shed Reissue 2014}\01 - Craig's Distended Train Ride.wav

Pre-gap length 0:00:02.00

Peak level 81.3 %
Extraction speed 1.1 X
Track quality 100.0 %
Test CRC 1797C95F
Copy CRC 1797C95F
Accurately ripped (confidence 2) [8E4A3754] (AR v2)
Copy OK

Track 2

Filename D:\_EAC\Hugh Hopper and Matt Howarth - The Stolen Hour (2004) {Burning Shed Reissue 2014}\02 - Complications At Work.wav

Pre-gap length 0:00:02.00

Peak level 95.9 %
Extraction speed 1.3 X
Track quality 100.0 %
Test CRC A7A2D867
Copy CRC A7A2D867
Accurately ripped (confidence 2) [247FD8B3] (AR v2)
Copy OK

Track 3

Filename D:\_EAC\Hugh Hopper and Matt Howarth - The Stolen Hour (2004) {Burning Shed Reissue 2014}\03 - An Inescapable Encounter With Mrs. Pry.wav

Pre-gap length 0:00:02.00

Peak level 93.3 %
Extraction speed 1.5 X
Track quality 100.0 %
Test CRC 1328244B
Copy CRC 1328244B
Accurately ripped (confidence 2) [2CE2AE9F] (AR v2)
Copy OK

Track 4

Filename D:\_EAC\Hugh Hopper and Matt Howarth - The Stolen Hour (2004) {Burning Shed Reissue 2014}\04 - Yearning For The Stolen Hour.wav

Pre-gap length 0:00:02.00

Peak level 94.8 %
Extraction speed 1.6 X
Track quality 100.0 %
Test CRC F26431A8
Copy CRC F26431A8
Accurately ripped (confidence 2) [B7B605F2] (AR v2)
Copy OK

Track 5

Filename D:\_EAC\Hugh Hopper and Matt Howarth - The Stolen Hour (2004) {Burning Shed Reissue 2014}\05 - The Long Drive.wav

Pre-gap length 0:00:02.00

Peak level 64.2 %
Extraction speed 1.6 X
Track quality 99.9 %
Test CRC 0F5DFA05
Copy CRC 0F5DFA05
Accurately ripped (confidence 2) [98A25BF0] (AR v2)
Copy OK

Track 6

Filename D:\_EAC\Hugh Hopper and Matt Howarth - The Stolen Hour (2004) {Burning Shed Reissue 2014}\06 - An Unregulated Sunset.wav

Pre-gap length 0:00:02.00

Peak level 89.7 %
Extraction speed 1.8 X
Track quality 100.0 %
Test CRC 192ACE39
Copy CRC 192ACE39
Accurately ripped (confidence 2) [083ECC79] (AR v2)
Copy OK

Track 7

Filename D:\_EAC\Hugh Hopper and Matt Howarth - The Stolen Hour (2004) {Burning Shed Reissue 2014}\07 - A Sideways Peek At Dreamtime.wav

Pre-gap length 0:00:02.00

Peak level 87.8 %
Extraction speed 2.0 X
Track quality 100.0 %
Test CRC B24580D5
Copy CRC B24580D5
Accurately ripped (confidence 2) [D726A813] (AR v2)
Copy OK

Track 8

Filename D:\_EAC\Hugh Hopper and Matt Howarth - The Stolen Hour (2004) {Burning Shed Reissue 2014}\08 - Snide Wisdom Involving The Immateriality Of Time.wav

Pre-gap length 0:00:02.00

Peak level 94.3 %
Extraction speed 2.1 X
Track quality 100.0 %
Test CRC 48A0219A
Copy CRC 48A0219A
Accurately ripped (confidence 2) [420A0C95] (AR v2)
Copy OK

Track 9

Filename D:\_EAC\Hugh Hopper and Matt Howarth - The Stolen Hour (2004) {Burning Shed Reissue 2014}\09 - The Stuff He Sees.wav

Pre-gap length 0:00:02.00

Peak level 74.5 %
Extraction speed 2.2 X
Track quality 100.0 %
Test CRC 9B59B6AB
Copy CRC 9B59B6AB
Accurately ripped (confidence 2) [BD5F27FD] (AR v2)
Copy OK

Track 10

Filename D:\_EAC\Hugh Hopper and Matt Howarth - The Stolen Hour (2004) {Burning Shed Reissue 2014}\10 - Mia's Timely Emergence From The East.wav

Pre-gap length 0:00:02.00

Peak level 85.0 %
Extraction speed 2.3 X
Track quality 100.0 %
Test CRC 3A6CDEB5
Copy CRC 3A6CDEB5
Accurately ripped (confidence 2) [A5569CDE] (AR v2)
Copy OK

Track 11

Filename D:\_EAC\Hugh Hopper and Matt Howarth - The Stolen Hour (2004) {Burning Shed Reissue 2014}\11 - Compatibility.wav

Pre-gap length 0:00:02.00

Peak level 55.8 %
Extraction speed 2.3 X
Track quality 100.0 %
Test CRC 80F6CF3B
Copy CRC 80F6CF3B
Accurately ripped (confidence 2) [755E4B2C] (AR v2)
Copy OK

Track 12

Filename D:\_EAC\Hugh Hopper and Matt Howarth - The Stolen Hour (2004) {Burning Shed Reissue 2014}\12 - Sharing The Stolen Hour.wav

Pre-gap length 0:00:02.00

Peak level 100.0 %
Extraction speed 2.4 X
Track quality 100.0 %
Test CRC FE1F0C63
Copy CRC FE1F0C63
Accurately ripped (confidence 2) [243CBAAD] (AR v2)
Copy OK


All tracks accurately ripped

No errors occurred

End of status report

==== Log checksum 56F5C00598E785004E0EF7698D11C7B354238AC2AE4F8F8EA4B5CDF452B52920 ====


Hugh Hopper & Matt Howarth - The Stolen Hour (2004) {Burning Shed Reissue 2014}

Hugh Hopper & Matt Howarth - The Stolen Hour (2004) {Burning Shed Reissue 2014}




NEXT -> More Soft Machine & others Japan Cardboard Sleeve (mini LP) Blu-spec CD2 on the way…