Subcategories

Horace Silver - You Gotta Take a Little Love (1969) [RVG Remastered 2007]

Posted By: Bezz
Horace Silver - You Gotta Take a Little Love (1969) [RVG Remastered 2007]

Horace Silver - You Gotta Take a Little Love (1969) [RVG Remastered 2007]
EAC rip | FLAC + CUE + LOG | Full Scans | 240 Mb (Incl. Recovery)
Genre ~ Hard Bop, Soul Jazz, Piano Jazz | Label ~ Blue Note Records

One of the final Horace Silver Quintet Blue Note albums, this somewhat forgotten LP, dedicated to "the Brotherhood of Men," is an instrumental set that introduced six new compositions by the pianist/leader (none of which caught on as standards) along with Bennie Maupin's "Lovely's Daughter." Maupin (on tenor and flute), trumpeter Randy Brecker, bassist John Williams, and drummer Billy Cobham comprise Silver's excellent late-'60s hard bop group. [In 2007 Blue Note reissued You Gotta Take a Little Love in a remastered Rudy Van Gelder edition.] ~ AllMusic


Tracklist

01 You Gotta Take A Little Love
02 The Risin' Sun
03 It's Time
04 Lovely's Daughter
05 Down And Out
06 The Belly Dancer
07 Brain Wave


Personel

Horace Silver (piano);
Bennie Maupin (flute);
Randy Brecker (flugelhorn);
John Williams (bass instrument);
Billy Cobham (drums).


Exact Audio Copy V0.99 prebeta 5 from 4. May 2009

EAC extraction logfile from 20. February 2010, 17:52

Horace Silver / You Gotta Take A Little Love

Used drive : PLEXTOR CD-R PREMIUM2 Adapter: 1 ID: 1

Read mode : Secure
Utilize accurate stream : Yes
Defeat audio cache : Yes
Make use of C2 pointers : No

Read offset correction : 30
Overread into Lead-In and Lead-Out : Yes
Fill up missing offset samples with silence : Yes
Delete leading and trailing silent blocks : No
Null samples used in CRC calculations : Yes
Used interface : Installed external ASPI interface
Gap handling : Appended to previous track

Used output format : User Defined Encoder
Selected bitrate : 32 kBit/s
Quality : High
Add ID3 tag : No
Command line compressor : C:\Programmi\FLAC\flac.exe
Additional command line options : -8 -V -T "ARTIST=%a" -T "TITLE=%t" -T "ALBUM=%g" -T "DATE=%y" -T "TRACKNUMBER=%n" -T "GENRE=%m" -T "COMMENT=EAC FLAC -8" %s


TOC of the extracted CD

Track | Start | Length | Start sector | End sector
––––––––––––––––––––––––––––-
1 | 0:00.00 | 5:24.63 | 0 | 24362
2 | 5:24.63 | 4:37.05 | 24363 | 45142
3 | 10:01.68 | 6:42.26 | 45143 | 75318
4 | 16:44.19 | 4:14.60 | 75319 | 94428
5 | 20:59.04 | 4:30.58 | 94429 | 114736
6 | 25:29.62 | 7:25.71 | 114737 | 148182
7 | 32:55.58 | 6:14.63 | 148183 | 176295


Track 1

Filename D:\My Rip\01 - You Gotta Take A Little Love.wav

Pre-gap length 0:00:02.00

Peak level 97.9 %
Track quality 100.0 %
Test CRC B029EA63
Copy CRC B029EA63
Cannot be verified as accurate (confidence 7) [552CCCCE], AccurateRip returned [8E60047A]
Copy OK

Track 2

Filename D:\My Rip\02 - The Risin' Sun.wav

Pre-gap length 0:00:03.20

Peak level 97.9 %
Track quality 100.0 %
Test CRC 8A99AA1C
Copy CRC 8A99AA1C
Cannot be verified as accurate (confidence 8) [8F84939E], AccurateRip returned [EC7C608E]
Copy OK

Track 3

Filename D:\My Rip\03 - It's Time.wav

Pre-gap length 0:00:03.01

Peak level 97.9 %
Track quality 100.0 %
Test CRC CAD93F61
Copy CRC CAD93F61
Cannot be verified as accurate (confidence 8) [DE6B5B94], AccurateRip returned [40EECAA0]
Copy OK

Track 4

Filename D:\My Rip\04 - Lovely's Daughter.wav

Pre-gap length 0:00:03.57

Peak level 95.5 %
Track quality 100.0 %
Test CRC 06C1B49E
Copy CRC 06C1B49E
Cannot be verified as accurate (confidence 8) [BFB49B90], AccurateRip returned [064DBCF4]
Copy OK

Track 5

Filename D:\My Rip\05 - Down And Out.wav

Pre-gap length 0:00:02.16

Peak level 97.9 %
Track quality 100.0 %
Test CRC 08FE198E
Copy CRC 08FE198E
Cannot be verified as accurate (confidence 7) [C8BDF63F], AccurateRip returned [248C321F]
Copy OK

Track 6

Filename D:\My Rip\06 - The Belly Dancer.wav

Pre-gap length 0:00:03.34

Peak level 97.9 %
Track quality 99.9 %
Test CRC E0E0D6A6
Copy CRC E0E0D6A6
Cannot be verified as accurate (confidence 7) [8B8E0848], AccurateRip returned [15195584]
Copy OK

Track 7

Filename D:\My Rip\07 - Brain Wave.wav

Pre-gap length 0:00:03.85

Peak level 97.9 %
Track quality 100.0 %
Test CRC FC796F93
Copy CRC FC796F93
Cannot be verified as accurate (confidence 7) [653BA5EE], AccurateRip returned [FF733932]
Copy OK


No tracks could be verified as accurate
You may have a different pressing from the one(s) in the database

No errors occurred

End of status report



Horace Silver - You Gotta Take a Little Love (1969) [RVG Remastered 2007]


Horace Silver - You Gotta Take a Little Love (1969) [RVG Remastered 2007]



Special thanks to the original uploader, stones2621!