Subcategories

Hugh Masekela - The Lasting Impressions of Ooga Booga (1965)

Posted By: intothe
Hugh Masekela - The Lasting Impressions of Ooga Booga (1965)

Hugh Masekela - The Lasting Impressions of Ooga Booga (1965)
Jazz | EAC rip (FLAC+CUE+LOG) + MP3 (320k/s) | 392 + 182 MB | full scans
Verve (1996) | 78:43 | RAR with 5% recovery


EAC extraction logfile from 23. July 2009, 14:17

Hugh Masekela / The Lasting Impressions of Ooga Booga

Used drive : _NEC DVD_RW ND-3500AG Adapter: 0 ID: 0

Read mode : Secure
Utilize accurate stream : Yes
Defeat audio cache : Yes
Make use of C2 pointers : No

Read offset correction : 48
Overread into Lead-In and Lead-Out : No
Fill up missing offset samples with silence : Yes
Delete leading and trailing silent blocks : No
Null samples used in CRC calculations : Yes
Used interface : Native Win32 interface for Win NT & 2000

Used output format : User Defined Encoder
Selected bitrate : 768 kBit/s
Quality : High
Add ID3 tag : No
Command line compressor : C:\Program Files\Exact Audio Copy\FLAC\FLAC.EXE
Additional command line options : -6 -V -T "ARTIST=%a" -T "TITLE=%t" -T "ALBUM=%g" -T "DATE=%y" -T "TRACKNUMBER=%n" -T "GENRE=%m" -T "COMMENT=%e" %s -o %d


TOC of the extracted CD

Track | Start | Length | Start sector | End sector
––––––––––––––––––––––––––––-
1 | 0:00.00 | 8:05.47 | 0 | 36421
2 | 8:05.47 | 6:38.08 | 36422 | 66279
3 | 14:43.55 | 5:22.17 | 66280 | 90446
4 | 20:05.72 | 5:29.50 | 90447 | 115171
5 | 25:35.47 | 5:25.53 | 115172 | 139599
6 | 31:01.25 | 7:43.20 | 139600 | 174344
7 | 38:44.45 | 4:04.22 | 174345 | 192666
8 | 42:48.67 | 7:00.38 | 192667 | 224204
9 | 49:49.30 | 4:41.05 | 224205 | 245284
10 | 54:30.35 | 7:42.37 | 245285 | 279971
11 | 62:12.72 | 5:06.38 | 279972 | 302959
12 | 67:19.35 | 4:39.70 | 302960 | 323954
13 | 71:59.30 | 6:49.07 | 323955 | 354636


Range status and errors

Selected range

Filename J:\eMusic\Rip\Hugh Masekela - The lasting Impressions of Ooga Booga.wav

Peak level 100.0 %
Range quality 99.9 %
Test CRC E92FEC5E
Copy CRC E92FEC5E
Copy OK

No errors occurred


AccurateRip summary

Track 1 cannot be verified as accurate (confidence 2) [64EE434F], AccurateRip returned [ABC65034]
Track 2 cannot be verified as accurate (confidence 2) [E05C8941], AccurateRip returned [2EA8CD2A]
Track 3 cannot be verified as accurate (confidence 2) [6446608A], AccurateRip returned [4291F0D6]
Track 4 cannot be verified as accurate (confidence 2) [AB5EAB88], AccurateRip returned [6CFEFB03]
Track 5 cannot be verified as accurate (confidence 2) [ED77FCCF], AccurateRip returned [FB04F810]
Track 6 cannot be verified as accurate (confidence 2) [92671303], AccurateRip returned [3F07449A]
Track 7 cannot be verified as accurate (confidence 2) [10D66B9F], AccurateRip returned [61120D84]
Track 8 cannot be verified as accurate (confidence 2) [08C03668], AccurateRip returned [5A031929]
Track 9 cannot be verified as accurate (confidence 2) [B47C63F4], AccurateRip returned [4DD194CA]
Track 10 cannot be verified as accurate (confidence 2) [A7901DA8], AccurateRip returned [10EDE18C]
Track 11 cannot be verified as accurate (confidence 2) [144868AA], AccurateRip returned [D7A603F1]
Track 12 cannot be verified as accurate (confidence 2) [E3D3D477], AccurateRip returned [B64F218C]
Track 13 not present in database

12 track(s) could not be verified as accurate
1 track(s) not present in the AccurateRip database

No tracks could be verified as accurate
You may have a different pressing from the one(s) in the database

End of status report


In patching together a program of Hugh Masekela's MGM recordings onto a single overstuffed CD, Verve took the original The Americanization of Ooga Booga album, leapfrogged over its successor, Next Album, and coupled it with the third MGM LP, The Lasting Impressions of Hugh Masekela. That made good sense since the two albums originate from the same live date at the Village Gate, recorded when the trumpeter was still in the process of making an impression in the U.S. Masekela is full of wild, sputtering, high-rolling exuberance, developing some of his familiar signature trumpet riffs, freely exploring South African rhythms, harmonic sequences, and chants, and mixing them with soul-jazz at a time when hardly anyone else would bother (the mixture of township jive and jazz works especially well on "U-Dwi"). He also ties into Brazil with a fine rendition of Jorge Ben's "Mas Que Nada" and assimilates Coltrane into his bloodstream with a tribute called "Mixolydia." In general, the Americanization tracks are the picks of the crop (Impressions, after all, had been compiled in 1968 to cash in on Masekela's surprise number one single, "Grazing in the Grass"). With the rhythm section of Larry Willis on piano, Harold Dotson on bass, and Henry Jenkins on drums, this music still holds up marvelously today. - by Richard S. Ginell, AMG

Tracks:
1. Bajabula Bonke (Miriam Makeba) 8:05
2. Dzinorabiro (Miriam Makeba) 6:38
3. Unhlanhia (Miriam Makeba) 5:22
4. Cantelope Island (Herbie Hancock) 5:29
5. U-dwi (Hugh Masekela) 5:25
6. Masquenada (Jorge Ben) 7:43
7. Abangoma (Miriam Makeba) 4:04
8. Mixloydia (Hugh Masekela) 7:00
9. Con Mucho Caarino (Larry Willis) 4:41
10. Where Are You Going? (Hugh Masekela) 7:42
11. Morolo (Hugh Masekela) 5:06
12. Bo Masekela (Caiphus Semenya) 4:39
13. Unohilo (Alan Salinga) 6:49

Personnel:
Hugh Masekela (Trumpet and Vocals)
Larry Willis (Piano)
Harold Dotson (Double Bass)
Henry Jenkins (Drums)

Recorded live at Village Gate, NYC

FLAC
MP3