Subcategories

Husky - Circle The Wagons (2006)

Posted By: Necromandus
Husky - Circle The Wagons (2006)

Husky - Circle The Wagons (2006)
EAC Rip | WV, IMG+CUE+LOG | 285 MB | MP3 CBR 320 Kbps | 130 MB | Complete Scans | 35 MB
Psyhedelic Stoner/Desert Rock | Label: Self Release | Catalog Number: HUSKY01 | RAR 3% Rec. | RS.com

"Husky's more of a psychedelic jam band type of deal, one that takes the Southern style playing and filters it through a prism of Krautrock. I’ve listened to this album a number of times and each time have discovered a new facet to their songs, whether it’s in the pulsating drive of “Patriarch,” the banjo picking in the title track, the low-end groove of “Under the Frisco Sun,” or the subtle Hammond on “The New Husky Dawn.” Like all good jam bands, there’s a natural, organic fluidity to what Husky does. If you’re into Pharaoh Overlord, Slacks!, Queens of the Stone Age, Clutch, Clearlight, or the Allman Brothers, you’re certain to dig this as much as I did."

~ StonerRock.com
Tracklist:

1. Steam Engine - 5:26
2. Patriarch - 4:14
3. Circle the Wagons - 3:14
4. Stroll Through the Holler - 5:26
5. 318 (Comin' on) - 1:38
6. 318 - 5:49
7. Under the Frisco Sun - 3:14
8. The New Husky Dawn - 3:34
9. Dalton - 4:10
10. Chasing the Dragon - 2:18
11. Indian - 12:46

Exact Audio Copy V0.99 prebeta 4 from 23. January 2008

EAC extraction logfile from 28. May 2009, 12:59

Husky / Circle The Wagons

Used drive : SONY DVD RW AW-G170A Adapter: 0 ID: 0

Read mode : Secure
Utilize accurate stream : Yes
Defeat audio cache : Yes
Make use of C2 pointers : No

Read offset correction : 48
Overread into Lead-In and Lead-Out : No
Fill up missing offset samples with silence : Yes
Delete leading and trailing silent blocks : No
Null samples used in CRC calculations : Yes
Used interface : Installed external ASPI interface

Used output format : Internal WAV Routines
Sample format : 44.100 Hz; 16 Bit; Stereo


TOC of the extracted CD

Track | Start | Length | Start sector | End sector
––––––––––––––––––––––––––––-
1 | 0:00.00 | 5:26.27 | 0 | 24476
2 | 5:26.27 | 4:14.19 | 24477 | 43545
3 | 9:40.46 | 3:14.22 | 43546 | 58117
4 | 12:54.68 | 5:25.67 | 58118 | 82559
5 | 18:20.60 | 1:38.06 | 82560 | 89915
6 | 19:58.66 | 5:49.16 | 89916 | 116106
7 | 25:48.07 | 3:14.11 | 116107 | 130667
8 | 29:02.18 | 3:34.18 | 130668 | 146735
9 | 32:36.36 | 4:09.59 | 146736 | 165469
10 | 36:46.20 | 2:18.26 | 165470 | 175845
11 | 39:04.46 | 12:46.25 | 175846 | 233320


Range status and errors

Selected range

Filename D:\Music\Husky - Circle The Wagons.wav

Peak level 100.0 %
Range quality 100.0 %
Copy CRC DB45C295
Copy OK

No errors occurred


AccurateRip summary

Track 1 not present in database
Track 2 not present in database
Track 3 not present in database
Track 4 not present in database
Track 5 not present in database
Track 6 not present in database
Track 7 not present in database
Track 8 not present in database
Track 9 not present in database
Track 10 not present in database
Track 11 not present in database

None of the tracks are present in the AccurateRip database

End of status report

auCDtect: CD records authenticity detector, version 0.8.2
Copyright © 2004 Oleg Berngardt. All rights reserved.
Copyright © 2004 Alexander Djourik. All rights reserved.
––––––––––––––––––––––––––––––
Processing file: [Husky - Circle The Wagons.wav]
Detected average hi-boundary frequency: 2.037225e+004 Hz
Detected average lo-boundary frequency: 1.312717e+004 Hz
Detected average hi-cut frequency: 2.129583e+004 Hz
Detected average lo-cut frequency: 1.337320e+004 Hz
Maximum probablis boundary frequency: 2.189100e+004 Hz
Coefficient of nonlinearity of a phase: 3.139062e-001
First order smothness: 3.539919e-001
Second order smothness: 6.995940e-001

––––––––––––––––––––––––––––––
This track looks like CDDA with probability 100%

––––––––––––––––––––––––––––––
Final Conclusion:
––––––––––––––––––––––––––––––
These tracks looks like CDDA with probability 100%


EAC wavcrc32 v0.22 © ]DichlofoS[ Systems, 2007
thanx to: BakLAN, siro and other beta-testers/contributors!
file opened ok
RIFF header checked ok
please wait while couning checksums…
processing 137192748 samples…
file closed ok
–- used in EAC:
generic: grabbing, "no use…" off [all bytes] : DB45C295.
generic: grabbing, "no use…" on [word nulsamples l/r] : 62FE0F04.
waveditor [word nulsamples l] : 245ED15F.
–- no used in EAC, only for reference:
byte ignore zeros : 9D01F0FB.
dword nulsamples : 2F9CA72B.
–-
time elapsed: 8782 ms

Husky ape:
Mark Hadden - bass
Phil Strickland - guitar, keys
Nate Wilkinson - drums, percussion

Recorded and mixed at Our Damp & Musty Studio, Charlotte, NC
Prodused by Phil Strickland. Mastered by Jamie King.