Iced Earth - Incorruptible (2017)

Posted By: delpotro
Iced Earth - Incorruptible (2017)

Iced Earth - Incorruptible (2017)
EAC Rip | FLAC (image+log+.cue) | 00:54:37 | 418 Mb
Power, Thrash Metal | Label: Century Media Records Ltd.

Iced Earth return with a new album and their third studio release with vocalist Stu Block, who filled the shoes of popular vocalist Matt Barlow. This will be first album since 2004's "The Glorious Burden" to not feature any tracks in the "Something Wicked" storyline, which tells the tale of the band's mascot Set Abominae, created by lead guitarist/songwriter Jon Schaffer.
Tracklist:
1. Great Heathen Army
2. Black Flag
3. Raven Wing
4. The Veil
5. Seven Headed Whore
6. The Relic (Part 1)
7. Ghost Dance (Awaken The Ancestors)
8. Brothers
9. Defiance
10. Clear The Way (December 13th, 1862)

Exact Audio Copy V1.1 from 23. June 2015

EAC extraction logfile from 19. June 2017, 12:33

Iced Earth / Incorruptible

Used drive : HP DVD Writer 1170d Adapter: 1 ID: 1

Read mode : Secure
Utilize accurate stream : Yes
Defeat audio cache : Yes
Make use of C2 pointers : No

Read offset correction : 6
Overread into Lead-In and Lead-Out : No
Fill up missing offset samples with silence : Yes
Delete leading and trailing silent blocks : No
Null samples used in CRC calculations : Yes
Used interface : Native Win32 interface for Win NT & 2000

Used output format : User Defined Encoder
Selected bitrate : 1024 kBit/s
Quality : High
Add ID3 tag : No
Command line compressor : C:\Program Files (x86)\Exact Audio Copy\Flac\flac.exe
Additional command line options : -V -8 -T "Date=%year%" -T "Genre=%genre%" %source%


TOC of the extracted CD

Track | Start | Length | Start sector | End sector
––––––––––––––––––––––––––––-
1 | 0:00.00 | 5:19.16 | 0 | 23940
2 | 5:19.16 | 4:56.48 | 23941 | 46188
3 | 10:15.64 | 6:25.60 | 46189 | 75123
4 | 16:41.49 | 4:47.52 | 75124 | 96700
5 | 21:29.26 | 3:00.13 | 96701 | 110213
6 | 24:29.39 | 4:59.57 | 110214 | 132695
7 | 29:29.21 | 6:35.11 | 132696 | 162331
8 | 36:04.32 | 4:54.21 | 162332 | 184402
9 | 40:58.53 | 4:08.71 | 184403 | 203073
10 | 45:07.49 | 9:30.06 | 203074 | 245829


Range status and errors

Selected range

Filename C:\EAC\Ungern666\Iced Earth - Incorruptible.wav

Peak level 100.0 %
Extraction speed 7.0 X
Range quality 100.0 %
Test CRC E526FC27
Copy CRC E526FC27
Copy OK

No errors occurred


AccurateRip summary

Track 1 not present in database
Track 2 not present in database
Track 3 not present in database
Track 4 not present in database
Track 5 not present in database
Track 6 not present in database
Track 7 not present in database
Track 8 not present in database
Track 9 not present in database
Track 10 not present in database

None of the tracks are present in the AccurateRip database

End of status report

–– CUETools DB Plugin V2.1.6

[CTDB TOCID: _m.EPXZ7sLpLfmX7R15Ml7vMfgM-] found
Submit result: _m.EPXZ7sLpLfmX7R15Ml7vMfgM- has been confirmed
Track | CTDB Status
1 | (30/30) Accurately ripped
2 | (30/30) Accurately ripped
3 | (30/30) Accurately ripped
4 | (30/30) Accurately ripped
5 | (30/30) Accurately ripped
6 | (30/30) Accurately ripped
7 | (30/30) Accurately ripped
8 | (30/30) Accurately ripped
9 | (30/30) Accurately ripped
10 | (30/30) Accurately ripped


==== Log checksum F623770A485EB482080A61C57E7D5278594E185A69645C7B404E1F1199209A31 ====

Thanks to the Original ripper ungern666 !