Subcategories

Iggy Pop - Brick by Brick (1990)

Posted By: gonzalo76
Iggy Pop - Brick by Brick (1990)

Iggy Pop - Brick by Brick
EAC rip | FLAC, IMG+CUE, LOG -> 401 MB | Full Scans 300 dpi -> 29 MB | RAR 3% Rec. | RS+HF
Hard Rock | Label: Virgin | Catalog Number: CDVUS 19, 0777 7 86173 2 7 | Year: 1990



Album Review:

While Don Was is best known for his work with mutant funkateers Was (Not Was), he was also a Motor City boy with fond memories of the Stooges' glory days, and when he was hired to produce an album for Iggy Pop, Was said, "The guy is incredibly intelligent, writes great lyrics, is a great singer, and I just wanted to get that across." And he did: Brick by Brick refined Iggy's gifts without watering them down, adding a polish that focused his talents rather than blurring them. Working with a mixture of L.A. session heavyweights (Waddy Wachtel, David Lindley) and rock stars paying their respects (Slash and Duff McKagan from Guns n' Roses, Kate Pierson from the B-52's), Brick by Brick leans to tough, guitar-based hard rock, leavened with a few more pop-oriented tunes that still speak of a hard-nosed lyrical approach. But the triumph here is Iggy's; he's rarely sung better on record, finding a middle ground between precision and abandon that honors both and surrenders to neither, and as a lyricist he reached a new level of maturity that proved he could expand his boundaries without loosing touch with his roots. On Brick by Brick, Iggy's dominant theme is the cultural and moral decay of modern America, and finding the strength to rise above it and reach a place in the world. That might sound a bit grand for Iggy, but as a man who sent himself to Hell and back (and learned a few things in the process), he expresses his ideas with plenty of piss, vinegar, and hard-bitten wit. Smart, tough, and impressive on all counts, Brick by Brick was Iggy Pop's strongest work since Lust for Life, and marked a new high point in his career as a songwriter. –by Mark Deming, allmusic.com.


Album Details:

Artist: Iggy Pop
Album: Brick by Brick
Label: Virgin Records America, Inc. (Europe)
Catalogue #: CDVUS 19, 0777 7 86173 2 7
Matrix #: 786173 CDM01 / 1-2-22-NL
Bar Code: 0 077778 617327 >
Format: CD
Type: Album
Country: Europe (Made in Holland)
Release Date: 1990
Number of Discs: 1
Language: English
Time: 57:29
Rating: 4.5 stars (allmusic.com)
Genre: Pop/Rock
Styles: Hard Rock, Detroit Rock, Album Rock, Dance-Rock, Proto-Punk, Contemporary Pop/Rock


Tracklist:

01. Home - 4:01
02. Main Street Eyes - 3:42
03. I Won't Crap Out - 4:03
04. Candy - 4:14 (vocals duet with Kate Pierson)
05. Butt Town - 3:34
06. The Undefeated - 5:05
07. Moonlight Lady - 3:31
08. Something Wild - 4:02
09. Neon Forest - 7:06
10. Starry Night - 4:02 (vocals duet with John Hiatt)
11. Pussy Power - 2:47
12. My Baby Wants To Rock & Roll - 4:46
13. Brick By Brick - 3:30
14. Livin' On The Edge Of The Night - 3:08

Total Playtime: 57:29


Credits:

Acoustic Guitar, Guitar [Electric] - Iggy Pop , Waddy Wachtel
Artwork By [Design] - Steve J. Gerdes
Artwork By [Illustration] - Charles Burns
Artwork By [Painting] - David Wojnarowicz
Bass - Charley Drayton , Duff McKagan
Drums - Kenny*
Engineer [Assistant] - Clark Germaine* , Danny Bosworth* , Eric Rudd , Martin Schmelzle
Guitar [Lead] - Slash (3)
Keyboards - Jamie Muhoberac
Lead Vocals - Iggy Pop
Photography - Michael Lavine
Producer - Don Was
Recorded By, Mixed By - Ed Cherney
Violin, Mandolin - David Lindley


Lineage:

Silver CD -> EAC (Secure Mode / Offset Corrected) -> Test & Copy Image & Create CUE Sheet -> Uncompressed -> WAV (1411 Kbit/s / 44100 Hz / 16 Bits / 2 Channels) -> FLAC frontend -> FLAC (compression level 8) -> AvaxHome


Extra info:

- Codec used for lossless compression: libFLAC 1.2.1 20070917.
- Samplerate: 44100 Hz Stereo / Bitrate: 16 bits.
- Full Scans in 300 dpi, jpg format in highest quality.
- EAC extraction LOG file included.
- Cuesheet files included (WAV & FLAC).
- MD5 checksums included.
- All tracks accurately ripped.



Exact Audio Copy V0.99 prebeta 5 from 4. May 2009

EAC extraction logfile from 19. November 2009, 16:26

Iggy Pop / Brick By Brick

Used drive : ATAPI DVD A DH20A4P Adapter: 1 ID: 0

Read mode : Secure
Utilize accurate stream : Yes
Defeat audio cache : Yes
Make use of C2 pointers : No

Read offset correction : 6
Overread into Lead-In and Lead-Out : No
Fill up missing offset samples with silence : Yes
Delete leading and trailing silent blocks : No
Null samples used in CRC calculations : Yes
Used interface : Native Win32 interface for Win NT & 2000

Used output format : Internal WAV Routines
Sample format : 44.100 Hz; 16 Bit; Stereo


TOC of the extracted CD

Track | Start | Length | Start sector | End sector
––––––––––––––––––––––––––––-
1 | 0:00.00 | 4:01.25 | 0 | 18099
2 | 4:01.25 | 3:41.40 | 18100 | 34714
3 | 7:42.65 | 4:02.62 | 34715 | 52926
4 | 11:45.52 | 4:14.18 | 52927 | 71994
5 | 15:59.70 | 3:33.62 | 71995 | 88031
6 | 19:33.57 | 5:05.03 | 88032 | 110909
7 | 24:38.60 | 3:30.45 | 110910 | 126704
8 | 28:09.30 | 4:01.40 | 126705 | 144819
9 | 32:10.70 | 7:05.42 | 144820 | 176736
10 | 39:16.37 | 4:01.60 | 176737 | 194871
11 | 43:18.22 | 2:47.08 | 194872 | 207404
12 | 46:05.30 | 4:46.20 | 207405 | 228874
13 | 50:51.50 | 3:29.50 | 228875 | 244599
14 | 54:21.25 | 3:07.50 | 244600 | 258674


Range status and errors

Selected range

Filename E:\AvaxHome\Iggy Pop - Brick By Brick.wav

Peak level 100.0 %
Range quality 100.0 %
Test CRC AA952116
Copy CRC AA952116
Copy OK

No errors occurred


AccurateRip summary

Track 1 accurately ripped (confidence 28) [FF6FDB1F]
Track 2 accurately ripped (confidence 30) [3297A325]
Track 3 accurately ripped (confidence 30) [67A10FD9]
Track 4 accurately ripped (confidence 31) [CCCA309D]
Track 5 accurately ripped (confidence 29) [C003B681]
Track 6 accurately ripped (confidence 30) [328705BF]
Track 7 accurately ripped (confidence 29) [4D5A96A9]
Track 8 accurately ripped (confidence 29) [1056A26F]
Track 9 accurately ripped (confidence 28) [B40256D3]
Track 10 accurately ripped (confidence 30) [3A2B459D]
Track 11 accurately ripped (confidence 29) [5BAE0EE1]
Track 12 accurately ripped (confidence 29) [99331970]
Track 13 accurately ripped (confidence 28) [02D5E1BC]
Track 14 accurately ripped (confidence 29) [EE8CD7C1]

All tracks accurately ripped

End of status report


[Verification date: 19/11/2009 19:15:03]
[Disc ID: 001de5c8-0140a355-bb0d790e]
Track [ CRC ] Status
01 [ff6fdb1f] (28/78) Accurately ripped
02 [3297a325] (30/80) Accurately ripped
03 [67a10fd9] (30/81) Accurately ripped
04 [ccca309d] (31/82) Accurately ripped
05 [c003b681] (29/80) Accurately ripped
06 [328705bf] (30/81) Accurately ripped
07 [4d5a96a9] (29/80) Accurately ripped
08 [1056a26f] (29/79) Accurately ripped
09 [b40256d3] (28/78) Accurately ripped
10 [3a2b459d] (30/81) Accurately ripped
11 [5bae0ee1] (29/79) Accurately ripped
12 [99331970] (29/80) Accurately ripped
13 [02d5e1bc] (28/78) Accurately ripped
14 [ee8cd7c1] (29/79) Accurately ripped
Offsetted by -1520:
01 [7597b2fd] (06/78) Partial match
02 [036c577e] (06/80) Accurately ripped
03 [3bcbca97] (06/81) Accurately ripped
04 [74443e7a] (06/82) Accurately ripped
05 [78f9b783] (06/80) Accurately ripped
06 [0baa8c3b] (06/81) Accurately ripped
07 [04058cae] (06/80) Accurately ripped
08 [4f1c79a5] (06/79) Accurately ripped
09 [d145331d] (06/78) Accurately ripped
10 [ae94ea9d] (06/81) Accurately ripped
11 [eb91d0b5] (06/79) Accurately ripped
12 [ed9b0d81] (06/80) Accurately ripped
13 [d61f5de1] (06/78) Accurately ripped
14 [01755c08] (06/79) Accurately ripped
Offsetted by -923:
01 [2424e141] (42/78) Partial match
02 [b785060c] (42/80) Accurately ripped
03 [bc36ec5f] (43/81) Accurately ripped
04 [9bceaf9d] (43/82) Accurately ripped
05 [b065e983] (43/80) Accurately ripped
06 [9ce06c08] (43/81) Accurately ripped
07 [8c0463d4] (43/80) Accurately ripped
08 [fd1d43a9] (42/79) Accurately ripped
09 [fd43795e] (42/78) Accurately ripped
10 [abb29dc1] (43/81) Accurately ripped
11 [6ee74ccc] (42/79) Accurately ripped
12 [0b47b57a] (43/80) Accurately ripped
13 [dc8c9f47] (42/78) Accurately ripped
14 [572f33a3] (42/79) Accurately ripped
Offsetted by -748:
01 [217d5bd6] (02/78) Partial match
02 [7ba68b25] (02/80) Accurately ripped
03 [8161f994] (02/81) Accurately ripped
04 [9a1ed818] (02/82) Accurately ripped
05 [22bcf744] (02/80) Accurately ripped
06 [aa4f16c8] (02/81) Accurately ripped
07 [11e48429] (02/80) Accurately ripped
08 [9e1d1a5f] (02/79) Accurately ripped
09 [dc7d36be] (02/78) Accurately ripped
10 [70ed83b3] (02/81) Accurately ripped
11 [34e1f07c] (02/79) Accurately ripped
12 [224a6ba8] (02/80) Accurately ripped
13 [4d80a577] (02/78) Accurately ripped
14 [51c7736a] (02/79) Accurately ripped

Track [ CRC32 ] [W/O NULL] [ LOG ]
– [AA952116] [680F7593] CRC32
01 [C1F80395] [B66EB73F]
02 [34B8D533] [BB52223B]
03 [8C252B7A] [38237805]
04 [0A61F389] [2F98C683]
05 [BC53DC74] [548410B2]
06 [A5E1D55A] [697C3E29]
07 [BE9D08A4] [61FB4E23]
08 [3509062D] [8B21CC2A]
09 [4D5DE341] [2321F3B0]
10 [4AB4F1E2] [4DB51FFC]
11 [AE17D046] [0CA9C2F4]
12 [02C77AC7] [600EC574]
13 [640D0595] [46FA736B]
14 [F6A03E03] [D8EB8827]





Iggy Pop - Brick by Brick (1990)

RapidShare

Part 1 | Part 2 | Part 3 | Part 4 | Part 5

HotFile

Part 1 | Part 2 | Part 3 | Part 4 | Part 5

––-
pass: www.AvaxHome.ru_by_gonzalo76



Please, no mirrors !
To keep this post longer alive, please don't post the links and pass in other sites.
Other users will be thankful for that !
In case you encounter dead links, please send me a PM !


Thank you very much.
Gonzalo



Iggy Pop - Brick by Brick (1990)