Subcategories

Iiro Rantala & Ulf Wakenius - Good Stuff (2017)

Posted By: Domestos
Iiro Rantala & Ulf Wakenius - Good Stuff (2017)

Iiro Rantala & Ulf Wakenius - Good Stuff (2017)
EAC Rip | FLAC (tracks+.cue, log) ~ 195.45 Mb | 44:34 | Cover
Contemporary Jazz, Modern Creative Jazz | Label: ACT - ACT 9851-1

Vienna, Rome, Seoul… Iiro Rantala and Ulf Wakenius are musicians who travel the world, always on tour as leaders of their own projects. So it was something of a fluke that this duo was able to come into existence at all. The idea first emerged in October 2015, when Rantala and Wakenius stopped off at the Philharmonie in Berlin. Siggi Loch, curator of the “Jazz at Berlin Philharmonic” concert series, had brought them together on stage for the “Tears for Esbjörn” concert. “We were part of a larger ensemble on that occasion”, Rantala remembers, “but it was clear to both of us straight away that we would want to form a duo.” This has to be seen as a very smart move, given the rarity of the piano-guitar duo in jazz – a fine exception being that of Brad Mehldau with Pat Metheny.

Thereafter, whenever gaps could be found in both of their crammed diaries, they would meet to do concerts together. “Each of us would bring some pieces to play”, says Wakenius, “but because we always had so little time in the run-up, we were more or less rehearsing live on stage.” It is precisely this way of approaching the music – with spontaneity, inquisitiveness and a complete lack of preconceived ideas – that gives the duo its fabulous energy. It is worth noting that almost all of the tracks on this album are first takes.

After a much-acclaimed concert at Jazz Baltica in summer 2016, it was evident that this music needed to be recorded. Siggi Loch invited the pair to his gallery in Berlin, where the now famous Alfred Brendel Steinway “D” was awaiting Rantala’s arrival. Each track of the album captures the mood of a different city. These are places which the musicians visit regularly, where they often play, and to which they feel a special connection: “Vienna” sounds as if Mozart could have written it – if he were a jazz musician living now. “Seoul” combines traditional Korean music with the 21st century urban metropolis. “Helsinki”, says Rantala of his home town, “is a relaxed, groovy place.” That’s also where the Finnish artist Jiri Geller is living, who has done the CD artwork. He is just as much at home as the musicians themselves when it comes to reconciling the contradictions between seriousness or concentration and playfulness, flippancy – or just going for an effect.

Puccini's aria “Nessun Dorma” references Milan as an important centre of Italian opera, whereas Georges Bizet’s “Carmen” takes place in Seville, and the Don José - Micaëla duet from it has been arranged by Rantala as gently swaying jazz ballad, in which both piano and guitar sing from the heart. “Berlin”, as portrayed by Ulf Wakenius, is in a state of flux. The city that never sleeps is propelled here by an unrelenting pulse from the guitar; the melody over it is catchy yet elusive. In John Coltrane’s “Giant Steps” both instrumentalists show their dazzling virtuosity. “What A Wonderful World” that was made famous by Louis Armstrong is a summarization of this musical tour of cities: “Every place is lifted by its music and is therefore unique. We've hunted down these specific sounds.”

Rantala and Wakenius always play Stevie Wonder’s “Sir Duke” as the encore at their concerts, and audiences love it. That track was a must for the album, as was “Love The Stuff/Ain‘t No Mountain High Enough” from Stuff, the 70's and 80's jazz-funk band with Richard Tee, Cornell Dupree and Steve Gadd, a group which both men revere. That legendary band also inspired the choice of album title: “Good Stuff”. “The tracks bring together influences and composers that have left their mark on us,” says Wakenius.

He and Rantala have indeed brought together great things, but what they go on to make of these materials and inspirations: that’s the real good stuff.

Iiro Rantala / piano
Ulf Wakenius / guitar

Track List:
01. Vienna [03:32]
02. Carmen - Micaela and Don Jose [04:07]
03. Helsinki [04:13]
04. Palma [03:44]
05. Seoul [03:19]
06. Nessun Dorma [03:38]
07. Sir Duke [03:16]
08. Berlin [03:49]
09. What a Wonderful World [04:33]
10. Rome [03:48]
11. Giant Steps [02:46]
12. Love the Stuff / Ain't No Mountain Enough [03:44]

Exact Audio Copy V1.3 from 2. September 2016

EAC extraction logfile from 2. December 2017, 18:23

Iiro Rantala and Ulf Wakenius / Good Stuff

Used drive : TSSTcorpCDDVDW SH-S223L Adapter: 1 ID: 0

Read mode : Secure
Utilize accurate stream : Yes
Defeat audio cache : Yes
Make use of C2 pointers : No

Read offset correction : 6
Overread into Lead-In and Lead-Out : No
Fill up missing offset samples with silence : Yes
Delete leading and trailing silent blocks : No
Null samples used in CRC calculations : Yes
Used interface : Native Win32 interface for Win NT & 2000
Gap handling : Appended to previous track

Used output format : User Defined Encoder
Selected bitrate : 1024 kBit/s
Quality : High
Add ID3 tag : No
Command line compressor : C:\Program Files (x86)\Exact Audio Copy\Flac\flac.exe
Additional command line options : -8 -e -p -V -T "ARTIST=%artist%" -T "TITLE=%title%" -T "ALBUM=%albumtitle%" -T "DATE=%year%" -T "TRACKNUMBER=%tracknr%" -T "GENRE=%genre%" -T "PERFORMER=%albuminterpret%" -T "COMPOSER=%composer%" %haslyrics%–tag-from-file=LYRICS="%lyricsfile%"%haslyrics% -T "ALBUMARTIST=%albumartist%" -T "DISCNUMBER=%cdnumber%" -T "TOTALDISCS=%totalcds%" -T "TOTALTRACKS=%numtracks%" -T "COMMENT=%comment%" %source% -o %dest%

TOC of the extracted CD

Track | Start | Length | Start sector | End sector
––––––––––––––––––––––––––––-
1 | 0:00.00 | 3:32.26 | 0 | 15925
2 | 3:32.26 | 4:07.27 | 15926 | 34477
3 | 7:39.53 | 4:13.69 | 34478 | 53521
4 | 11:53.47 | 3:44.63 | 53522 | 70384
5 | 15:38.35 | 3:19.15 | 70385 | 85324
6 | 18:57.50 | 3:38.16 | 85325 | 101690
7 | 22:35.66 | 3:16.63 | 101691 | 116453
8 | 25:52.54 | 3:49.22 | 116454 | 133650
9 | 29:42.01 | 4:33.04 | 133651 | 154129
10 | 34:15.05 | 3:48.73 | 154130 | 171302
11 | 38:04.03 | 2:46.24 | 171303 | 183776
12 | 40:50.27 | 3:44.19 | 183777 | 200595

Track 1

Filename C:\EAC\Iiro Rantala & Ulf Wakenius - Good Stuff (2017) [FLAC]\01 - Vienna.wav

Pre-gap length 0:00:02.00

Peak level 94.6 %
Extraction speed 4.1 X
Track quality 100.0 %
Test CRC 4DA02A50
Copy CRC 4DA02A50
Track not present in AccurateRip database
Copy OK

Track 2

Filename C:\EAC\Iiro Rantala & Ulf Wakenius - Good Stuff (2017) [FLAC]\02 - Carmen - Micaela and Don Jose.wav

Peak level 84.9 %
Extraction speed 4.7 X
Track quality 100.0 %
Test CRC 420A68F5
Copy CRC 420A68F5
Track not present in AccurateRip database
Copy OK

Track 3

Filename C:\EAC\Iiro Rantala & Ulf Wakenius - Good Stuff (2017) [FLAC]\03 - Helsinki.wav

Peak level 93.5 %
Extraction speed 5.1 X
Track quality 100.0 %
Test CRC C3ED9B26
Copy CRC C3ED9B26
Track not present in AccurateRip database
Copy OK

Track 4

Filename C:\EAC\Iiro Rantala & Ulf Wakenius - Good Stuff (2017) [FLAC]\04 - Palma.wav

Peak level 91.7 %
Extraction speed 5.5 X
Track quality 100.0 %
Test CRC C50B27E0
Copy CRC C50B27E0
Track not present in AccurateRip database
Copy OK

Track 5

Filename C:\EAC\Iiro Rantala & Ulf Wakenius - Good Stuff (2017) [FLAC]\05 - Seoul.wav

Peak level 93.0 %
Extraction speed 4.5 X
Track quality 99.9 %
Test CRC A84C9CCA
Copy CRC A84C9CCA
Track not present in AccurateRip database
Copy OK

Track 6

Filename C:\EAC\Iiro Rantala & Ulf Wakenius - Good Stuff (2017) [FLAC]\06 - Nessun Dorma.wav

Peak level 92.0 %
Extraction speed 6.0 X
Track quality 100.0 %
Test CRC ACB15E39
Copy CRC ACB15E39
Track not present in AccurateRip database
Copy OK

Track 7

Filename C:\EAC\Iiro Rantala & Ulf Wakenius - Good Stuff (2017) [FLAC]\07 - Sir Duke.wav

Peak level 92.9 %
Extraction speed 4.8 X
Track quality 99.9 %
Test CRC 30B2099C
Copy CRC 30B2099C
Track not present in AccurateRip database
Copy OK

Track 8

Filename C:\EAC\Iiro Rantala & Ulf Wakenius - Good Stuff (2017) [FLAC]\08 - Berlin.wav

Peak level 92.3 %
Extraction speed 6.7 X
Track quality 100.0 %
Test CRC A7322672
Copy CRC A7322672
Track not present in AccurateRip database
Copy OK

Track 9

Filename C:\EAC\Iiro Rantala & Ulf Wakenius - Good Stuff (2017) [FLAC]\09 - What a Wonderful World.wav

Peak level 92.0 %
Extraction speed 7.0 X
Track quality 100.0 %
Test CRC A607EA00
Copy CRC A607EA00
Track not present in AccurateRip database
Copy OK

Track 10

Filename C:\EAC\Iiro Rantala & Ulf Wakenius - Good Stuff (2017) [FLAC]\10 - Rome.wav

Peak level 92.6 %
Extraction speed 7.2 X
Track quality 100.0 %
Test CRC 66C72A1D
Copy CRC 66C72A1D
Track not present in AccurateRip database
Copy OK

Track 11

Filename C:\EAC\Iiro Rantala & Ulf Wakenius - Good Stuff (2017) [FLAC]\11 - Giant Steps.wav

Peak level 92.3 %
Extraction speed 5.4 X
Track quality 99.9 %
Test CRC 6292133A
Copy CRC 6292133A
Track not present in AccurateRip database
Copy OK

Track 12

Filename C:\EAC\Iiro Rantala & Ulf Wakenius - Good Stuff (2017) [FLAC]\12 - Love the Stuff , Ain't No Mountain Enough.wav

Peak level 93.9 %
Extraction speed 7.6 X
Track quality 100.0 %
Test CRC 07CEFC78
Copy CRC 07CEFC78
Track not present in AccurateRip database
Copy OK

None of the tracks are present in the AccurateRip database

No errors occurred

End of status report

–– CUETools DB Plugin V2.1.6

[CTDB TOCID: fdGt2i5KLpNTKiaU.WcEDmcEhhg-] found
Submit result: fdGt2i5KLpNTKiaU.WcEDmcEhhg- has been confirmed
Track | CTDB Status
1 | (12/12) Accurately ripped
2 | (12/12) Accurately ripped
3 | (12/12) Accurately ripped
4 | (12/12) Accurately ripped
5 | (12/12) Accurately ripped
6 | (12/12) Accurately ripped
7 | (12/12) Accurately ripped
8 | (12/12) Accurately ripped
9 | (12/12) Accurately ripped
10 | (12/12) Accurately ripped
11 | (12/12) Accurately ripped
12 | (12/12) Accurately ripped

==== Log checksum 6789B7D960FBD56DAD76117FC8668F8CA4477D98C25184DBF0E72AC3EAFE3771 ====

All thanks go to the Original ripper (unknown)

More Music in My Blog
Follow My RSS Channel