Subcategories

IQU & Friends - Teenage Dream (2000) {K Records} **[RE-UP]**

Posted By: TestTickles
IQU & Friends - Teenage Dream (2000) {K Records} **[RE-UP]**

IQU And Friends - Teenage Dream (2000) {K Records}
EAC Rip | FLAC with CUE and log | scans | 311 mb
MP3 CBR 320kbps | RAR | 116 mb
Genre: electronica, electro, downtempo, experimental, remixes

The American based trio IQU were once called ICU. A name change made them IQU. This is a CD EP of one of their songs performed by them, and remixed by friends and fans. Electronica music with a bit of an Oriental flavour. Enjoy this.
There's over fifty minutes of music on this-here EP: the original "Teenage Dream", six remixes and a pair of bonus remixes of "Can't You Even Remember That?". Some serious value for money there. Admittedly, seven mixes of a single track sounds like a recipe for tedium, but "Teenage Dream" is a great song, employing a throbbing beat, odd little Oriental-scale runs, samples of chanting Asian children and filmstrip-style narration, upright bass rhythm, tinkly keyboard lines and an unexpectedly blaring guitar. The six remixes – the most notable of which is supplied by Belle and Sebastian offshoot Looper – cut and paste and drag and drop quite liberally but never lose the song's engaging oddness. "Can't you even remember that" offers a spooky theremin-like melody that changes the pace quite ably. Trust me, you'll find this far more interesting than the average multiple-remix EP.

IQU & Friends - Teenage Dream (2000) {K Records} **[RE-UP]**

1. Teenage Dream (Original Version) (8:03)
2. Teenage Dream (Looper Mix) (3:58)
3. Teenage Dream (Meek Remix) (4:12)
4. Teenage Dream (Norowareta Mix) (4:28)
5. Teenage Dream (Tokyo And Kids Dubbreaks Mix) (8:03)
6. Teenage Dream (A Dream Like I Never Had Before Mix) (4:21)
7. Teenage Dream (Bad Blood Mix) (5:17)
8. Can't You Even Remember That? (Q>C Mix) (6:19)
9. Can't You Even Remember That? (Sonic Mix) (5:54)

IQU & Friends - Teenage Dream (2000) {K Records} **[RE-UP]**


Exact Audio Copy V1.1 from 23. June 2015

EAC extraction logfile from 20. September 2016, 12:07

IQU / Teenage Dream

Used drive : TEAC DVD-ROM DV-28SW Adapter: 1 ID: 0

Read mode : Secure
Utilize accurate stream : Yes
Defeat audio cache : Yes
Make use of C2 pointers : No

Read offset correction : 6
Overread into Lead-In and Lead-Out : No
Fill up missing offset samples with silence : Yes
Delete leading and trailing silent blocks : No
Null samples used in CRC calculations : Yes
Used interface : Native Win32 interface for Win NT & 2000
Gap handling : Appended to previous track

Used output format : Internal WAV Routines
Sample format : 44.100 Hz; 16 Bit; Stereo


TOC of the extracted CD

Track | Start | Length | Start sector | End sector
––––––––––––––––––––––––––––-
1 | 0:00.00 | 8:03.07 | 0 | 36231
2 | 8:03.07 | 3:58.05 | 36232 | 54086
3 | 12:01.12 | 4:12.63 | 54087 | 73049
4 | 16:14.00 | 4:28.02 | 73050 | 93151
5 | 20:42.02 | 8:03.03 | 93152 | 129379
6 | 28:45.05 | 4:21.60 | 129380 | 149014
7 | 33:06.65 | 5:17.00 | 149015 | 172789
8 | 38:23.65 | 6:19.35 | 172790 | 201249
9 | 44:43.25 | 5:54.05 | 201250 | 227804


Track 1

Filename C:\My Documents\My FLAC\IQU And Friends - Teenage Dream (2000) [FLAC] {K Records}\01 - Teenage Dream (Original Version).wav

Pre-gap length 0:00:02.00

Peak level 97.7 %
Extraction speed 3.2 X
Track quality 100.0 %
Test CRC 8B1DD2A7
Copy CRC 8B1DD2A7
Accurately ripped (confidence 1) [5F8A2880] (AR v2)
Copy OK

Track 2

Filename C:\My Documents\My FLAC\IQU And Friends - Teenage Dream (2000) [FLAC] {K Records}\02 - Teenage Dream (Looper Mix).wav

Pre-gap length 0:00:01.42

Peak level 97.7 %
Extraction speed 2.0 X
Track quality 99.9 %
Test CRC 1DC61DE8
Copy CRC 1DC61DE8
Accurately ripped (confidence 1) [4CD79B79] (AR v2)
Copy OK

Track 3

Filename C:\My Documents\My FLAC\IQU And Friends - Teenage Dream (2000) [FLAC] {K Records}\03 - Teenage Dream (Meek Remix).wav

Pre-gap length 0:00:01.42

Peak level 97.7 %
Extraction speed 3.6 X
Track quality 100.0 %
Test CRC FA524EDD
Copy CRC FA524EDD
Accurately ripped (confidence 1) [54D47FB3] (AR v2)
Copy OK

Track 4

Filename C:\My Documents\My FLAC\IQU And Friends - Teenage Dream (2000) [FLAC] {K Records}\04 - Teenage Dream (Norowareta Mix).wav

Pre-gap length 0:00:01.43

Peak level 97.7 %
Extraction speed 4.0 X
Track quality 100.0 %
Test CRC 051D86AE
Copy CRC 051D86AE
Accurately ripped (confidence 1) [B78DD0A9] (AR v2)
Copy OK

Track 5

Filename C:\My Documents\My FLAC\IQU And Friends - Teenage Dream (2000) [FLAC] {K Records}\05 - Teenage Dream (Tokyo And Kids Dubbreaks Mix).wav

Pre-gap length 0:00:01.42

Peak level 97.7 %
Extraction speed 4.2 X
Track quality 99.9 %
Test CRC 2A79FAFF
Copy CRC 2A79FAFF
Accurately ripped (confidence 1) [C2F0B8EE] (AR v2)
Copy OK

Track 6

Filename C:\My Documents\My FLAC\IQU And Friends - Teenage Dream (2000) [FLAC] {K Records}\06 - Teenage Dream (A Dream Like I Never Had Before Mix).wav

Pre-gap length 0:00:01.43

Peak level 97.7 %
Extraction speed 4.6 X
Track quality 100.0 %
Test CRC 10D508DF
Copy CRC 10D508DF
Accurately ripped (confidence 1) [ED346C86] (AR v2)
Copy OK

Track 7

Filename C:\My Documents\My FLAC\IQU And Friends - Teenage Dream (2000) [FLAC] {K Records}\07 - Teenage Dream (Bad Blood Mix).wav

Pre-gap length 0:00:01.43

Peak level 97.7 %
Extraction speed 4.9 X
Track quality 100.0 %
Test CRC 05A75FEB
Copy CRC 05A75FEB
Accurately ripped (confidence 1) [850FDFD8] (AR v2)
Copy OK

Track 8

Filename C:\My Documents\My FLAC\IQU And Friends - Teenage Dream (2000) [FLAC] {K Records}\08 - Can't You Even Remember That (Q]C Mix).wav

Pre-gap length 0:00:01.43

Peak level 97.7 %
Extraction speed 4.7 X
Track quality 99.9 %
Test CRC 56B0D92B
Copy CRC 56B0D92B
Accurately ripped (confidence 1) [FCA5485A] (AR v2)
Copy OK

Track 9

Filename C:\My Documents\My FLAC\IQU And Friends - Teenage Dream (2000) [FLAC] {K Records}\09 - Can't You Even Remember That (Sonic Mix).wav

Pre-gap length 0:00:01.43

Peak level 97.7 %
Extraction speed 5.5 X
Track quality 100.0 %
Test CRC CCD06096
Copy CRC CCD06096
Accurately ripped (confidence 1) [089F9B62] (AR v2)
Copy OK


All tracks accurately ripped

No errors occurred

End of status report

–– CUETools DB Plugin V2.1.6

[CTDB TOCID: dUe.eUs8rCUEj0ZvUvVuZzaT.28-] found
Submit result: dUe.eUs8rCUEj0ZvUvVuZzaT.28- has been confirmed
Track | CTDB Status
1 | (1/1) Accurately ripped
2 | (1/1) Accurately ripped
3 | (1/1) Accurately ripped
4 | (1/1) Accurately ripped
5 | (1/1) Accurately ripped
6 | (1/1) Accurately ripped
7 | (1/1) Accurately ripped
8 | (1/1) Accurately ripped
9 | (1/1) Accurately ripped


==== Log checksum 3B9E01F4BB3A7F8D4FE5327F454056B6F55DAB5998DE2B2C4E8A16F34FCAF5CD ====

Nitroflare (FLAC)
Nitroflare (MP3)