Subcategories

Antonio Vivaldi - The four seasons & Violin concertos with Itzhak Perlman (2006)

Posted By: Speedyclick
Antonio Vivaldi - The four seasons & Violin concertos with Itzhak Perlman (2006)

Antonio Vivaldi - The four seasons & Violin concertos with Itzhak Perlman (2006)
EAC Rip | FLAC (tracks & cue & log) & mp3 @ 320 kbps | tracks: 21 | Covers | 1:13:05 | ~ 381 Mb & 177 Mb
Label: EMI | 5% recovery record | Classical, violin, orchestra

One of the best known and most beloved classical works of all times, Vivaldi's "The Four Seasons", plus some less known but wonderful violin concertos, are performed by the charismatic violin virtuoso Itzhak Perlman, backed by the London Philharmonic and Israel Philharmonic Orchestras. Perlman's playing is touching and the result is soul stirring. Enjoy a masterpiece in lossless.

TRACKLIST
01-03. Violin Concerto, for violin, strings & continuo in E major (‘La Primavera,’ The Four Seasons; ‘Il cimento’ No. 1), Op.8/1, RV 269
04-06. Violin Concerto, for violin, strings & continuo in G minor (‘L'estate,’ The Four Seasons; ‘Il cimento’ No. 2), Op. 8/2, RV 315
07-09. Violin Concerto, for violin, strings & continuo in F major (‘L'autunno,’ The Four Seasons; ‘Il cimento’ No. 3), Op.8/3, RV 293
10-12. Violin Concerto, for violin, strings & continuo in F minor (‘L'inverno,’ The Four Seasons; ‘Il cimento’ No. 4), Op. 8/4, RV 297
13-15. Violin Concerto, for violin, strings & continuo in C minor (‘Il sospetto’), RV 199
16-18. Violin Concerto, for violin, strings & continuo in A minor (‘L'estro armonico’ No. 6), Op. 3/6, RV 356
19-21. Violin Concerto, for violin, strings & continuo in A major (‘La stravaganza’ No. 5) Op. 4/5, RV 347

Violin: Itzhak Perlman
London Philharmonic Orchestra (01-12)
Israel Philharmonic Orchestra (13-21)

Exact Audio Copy V0.99 prebeta 5 from 4. May 2009

EAC extraction logfile from 10. December 2009, 12:37

Antonio Vivaldi / The Four Seasons And Violin Concertos

Used drive : HL-DT-STDVD-RAM GH22NP20 Adapter: 1 ID: 1

Read mode : Secure
Utilize accurate stream : Yes
Defeat audio cache : Yes
Make use of C2 pointers : No

Read offset correction : 102
Overread into Lead-In and Lead-Out : No
Fill up missing offset samples with silence : Yes
Delete leading and trailing silent blocks : No
Null samples used in CRC calculations : Yes
Used interface : Installed external ASPI interface
Gap handling : Appended to previous track

Used output format : User Defined Encoder
Selected bitrate : 1024 kBit/s
Quality : High
Add ID3 tag : No
Command line compressor : C:\Program Files\Exact Audio Copy\FLAC\FLAC.EXE
Additional command line options : -3 -V -T "ARTIST=%a" -T "TITLE=%t" -T "ALBUM=%g" -T "DATE=%y" -T "TRACKNUMBER=%n" -T "GENRE=%m" -T "COMMENT=%e" %s -o %d
Use compression offset : 48


TOC of the extracted CD

Track | Start | Length | Start sector | End sector
––––––––––––––––––––––––––––-
1 | 0:00.33 | 3:22.57 | 33 | 15239
2 | 3:23.15 | 2:42.73 | 15240 | 27462
3 | 6:06.13 | 4:49.10 | 27463 | 49147
4 | 10:55.23 | 6:14.65 | 49148 | 77262
5 | 17:10.13 | 2:44.72 | 77263 | 89634
6 | 19:55.10 | 3:06.03 | 89635 | 103587
7 | 23:01.13 | 5:21.70 | 103588 | 127732
8 | 28:23.08 | 3:07.20 | 127733 | 141777
9 | 31:30.28 | 3:20.42 | 141778 | 156819
10 | 34:50.70 | 3:36.03 | 156820 | 173022
11 | 38:26.73 | 2:32.15 | 173023 | 184437
12 | 40:59.13 | 3:29.20 | 184438 | 200132
13 | 44:28.33 | 3:57.10 | 200133 | 217917
14 | 48:25.43 | 2:54.00 | 217918 | 230967
15 | 51:19.43 | 2:29.55 | 230968 | 242197
16 | 53:49.23 | 3:22.40 | 242198 | 257387
17 | 57:11.63 | 2:39.20 | 257388 | 269332
18 | 59:51.08 | 2:52.35 | 269333 | 282267
19 | 62:43.43 | 4:00.00 | 282268 | 300267
20 | 66:43.43 | 2:45.65 | 300268 | 312707
21 | 69:29.33 | 3:34.25 | 312708 | 328782


Track 1

Filename C:\New Folder\01. Concerto No. 1 in E, RV 269 'Spring' - I. Allegro.wav

Pre-gap length 0:00:02.33

Peak level 62.5 %
Track quality 100.0 %
Copy CRC 062B856F
Accurately ripped (confidence 3) [EC97BC81]
Copy OK

Track 2

Filename C:\New Folder\02. Concerto No. 1 in E, RV 269 'Spring' - II. Largo.wav

Peak level 15.3 %
Track quality 100.0 %
Copy CRC 6D880FF1
Accurately ripped (confidence 3) [A7C67E5B]
Copy OK

Track 3

Filename C:\New Folder\03. Concerto No. 1 in E, RV 269 'Spring' - III. Allegro.wav

Peak level 54.0 %
Track quality 100.0 %
Copy CRC 4D7675E9
Accurately ripped (confidence 3) [4E1A9FE6]
Copy OK

Track 4

Filename C:\New Folder\04. Concerto No. 2 in G Minor, RV 315 'Summer' - I. Allegro non molto.wav

Peak level 81.1 %
Track quality 100.0 %
Copy CRC 70B3B504
Accurately ripped (confidence 3) [8E0F36A6]
Copy OK

Track 5

Filename C:\New Folder\05. Concerto No. 2 in G Minor, RV 315 'Summer' - II-. Adagio.wav

Peak level 61.9 %
Track quality 100.0 %
Copy CRC 92996423
Accurately ripped (confidence 3) [50484DEC]
Copy OK

Track 6

Filename C:\New Folder\06. Concerto No. 2 in G Minor, RV 315 'Summer' - III. Presto.wav

Peak level 94.3 %
Track quality 100.0 %
Copy CRC 381841A8
Accurately ripped (confidence 3) [F2DA5E3D]
Copy OK

Track 7

Filename C:\New Folder\07. Concerto No. 3 in F, RV 293 'Autumn' - I. Allegro.wav

Peak level 59.4 %
Track quality 100.0 %
Copy CRC 7749ADE0
Accurately ripped (confidence 3) [72494529]
Copy OK

Track 8

Filename C:\New Folder\08. Concerto No. 3 in F, RV 293 'Autumn' - II. Adagio molto.wav

Peak level 7.6 %
Track quality 99.9 %
Copy CRC 8992A012
Accurately ripped (confidence 3) [C8CBDDB8]
Copy OK

Track 9

Filename C:\New Folder\09. Concerto No. 3 in F, RV 293 'Autumn' - III. Allegro.wav

Peak level 84.4 %
Track quality 99.9 %
Copy CRC A6674F0E
Accurately ripped (confidence 3) [80C197DC]
Copy OK

Track 10

Filename C:\New Folder\10. Concerto No. 4 in F Minor, RV 297 'Winter' - I. Allegro non molto.wav

Peak level 85.4 %
Track quality 100.0 %
Copy CRC B2075563
Accurately ripped (confidence 3) [602160B3]
Copy OK

Track 11

Filename C:\New Folder\11. Concerto No. 4 in F Minor, RV 297 'Winter' - II. Largo.wav

Peak level 33.7 %
Track quality 100.0 %
Copy CRC 8604C018
Accurately ripped (confidence 3) [8CBD57B2]
Copy OK

Track 12

Filename C:\New Folder\12. Concerto No. 4 in F Minor, RV 297 'Winter' - III. Allegro.wav

Peak level 71.3 %
Track quality 100.0 %
Copy CRC 7CC84E92
Accurately ripped (confidence 3) [82B0708B]
Copy OK

Track 13

Filename C:\New Folder\13. Violin Concerto in C minor, RV 199 'Il sospetto' (ed. Malipiero) - I. Allegro.wav

Peak level 99.6 %
Track quality 100.0 %
Copy CRC AD232094
Accurately ripped (confidence 3) [13744798]
Copy OK

Track 14

Filename C:\New Folder\14. Violin Concerto in C minor, RV 199 'Il sospetto' (ed. Malipiero) - II. Andante.wav

Peak level 40.3 %
Track quality 99.9 %
Copy CRC C7A98B28
Accurately ripped (confidence 3) [5B4DBB8D]
Copy OK

Track 15

Filename C:\New Folder\15. Violin Concerto in C minor, RV 199 'Il sospetto' (ed. Malipiero) - III. Allegro.wav

Peak level 84.5 %
Track quality 99.9 %
Copy CRC 41D6AC87
Accurately ripped (confidence 3) [F1B156EC]
Copy OK

Track 16

Filename C:\New Folder\16. Violin Concerto in A minor, RV 356 (ed. Malipiero) - I. Allegro.wav

Peak level 97.7 %
Track quality 100.0 %
Copy CRC 1B5D2633
Accurately ripped (confidence 3) [FF7FFD94]
Copy OK

Track 17

Filename C:\New Folder\17. Violin Concerto in A minor, RV 356 (ed. Malipiero) - II. Largo.wav

Peak level 27.2 %
Track quality 100.0 %
Copy CRC 79E35DEA
Accurately ripped (confidence 3) [769F91C0]
Copy OK

Track 18

Filename C:\New Folder\18. Violin Concerto in A minor, RV 356 (ed. Malipiero) - II. Presto.wav

Peak level 97.7 %
Track quality 100.0 %
Copy CRC D0818315
Accurately ripped (confidence 3) [31C6BC7A]
Copy OK

Track 19

Filename C:\New Folder\19. Violin Concerto in A, RV 347 (ed. Malipiero) - I. Allegro.wav

Peak level 97.7 %
Track quality 100.0 %
Copy CRC 4DF9BF96
Accurately ripped (confidence 3) [9E4D4AA5]
Copy OK

Track 20

Filename C:\New Folder\20. Violin Concerto in A, RV 347 (ed. Malipiero) - II. Largo.wav

Peak level 35.8 %
Track quality 100.0 %
Copy CRC C537CB64
Accurately ripped (confidence 3) [EBA0E644]
Copy OK

Track 21

Filename C:\New Folder\21. Violin Concerto in A, RV 347 (ed. Malipiero) - III. Allegro.wav

Peak level 89.0 %
Track quality 100.0 %
Copy CRC 3B249C86
Cannot be verified as accurate (confidence 21) [E3CFFA1A], AccurateRip returned [5DA9AA02]
Copy OK


20 track(s) accurately ripped
1 track(s) could not be verified as accurate

Some tracks could not be verified as accurate

No errors occurred

End of status report

All credits and thanks to the initial ripper / uploader alekow