Subcategories

Charles Ives - Symphonies Nos. 1 & 4 / Central Park in the Dark [Part 1/2] (2006) {Hybrid-SACD // EAC Rip}

Posted By: luckburz
Charles Ives - Symphonies Nos. 1 & 4 / Central Park in the Dark [Part 1/2] (2006) {Hybrid-SACD // EAC Rip}

Charles Ives - Symphonies Nos. 1 & 4 / Central Park in the Dark
Dallas Symphony Orchestra / Andrew Litton
EAC+LOG+CUE | FLAC: 287 MB | Full Artwork | 5% Recovery Info
Label/Cat#: Hyperion # SACDA67540 | Country/Year: UK 2006
Genre: Classical | Style: Modernism

MD5 [X] CUE [X] LOG [X] INFO TEXT [X] ARTWORK [X]

selfrip [X] not my rip []

Charles Ives - Symphonies Nos. 1 & 4 / Central Park in the Dark [Part 1/2] (2006) {Hybrid-SACD // EAC Rip}


Exact Audio Copy V1.0 beta 3 from 29. August 2011

EAC extraction logfile from 1. October 2012, 14:41

Dallas Symphony Orchestra / Andrew Litton / Ives: Symphonies Nos 2 & 3

Used drive : PIONEER BD-RW BDR-206 Adapter: 0 ID: 2

Read mode : Secure
Utilize accurate stream : Yes
Defeat audio cache : Yes
Make use of C2 pointers : No

Read offset correction : 667
Overread into Lead-In and Lead-Out : No
Fill up missing offset samples with silence : Yes
Delete leading and trailing silent blocks : No
Null samples used in CRC calculations : Yes
Used interface : Native Win32 interface for Win NT & 2000

Used output format : User Defined Encoder
Selected bitrate : 1024 kBit/s
Quality : High
Add ID3 tag : Yes
Command line compressor : C:\Program Files\FLAC\flac.exe
Additional command line options : -5 -T "Artist=%artist%" -T "Title=%title%" -T "Album=%albumtitle%" -T "Date=%year%" -T "Tracknumber=%tracknr%" -T "Genre=%genre%" %source% -o %dest%


TOC of the extracted CD

Track | Start | Length | Start sector | End sector
––––––––––––––––––––––––––––-
1 | 0:00.00 | 11:40.62 | 0 | 52561
2 | 11:40.62 | 8:31.33 | 52562 | 90919
3 | 20:12.20 | 4:18.21 | 90920 | 110290
4 | 24:30.41 | 12:59.15 | 110291 | 168730
5 | 37:29.56 | 3:14.60 | 168731 | 183340
6 | 40:44.41 | 10:55.37 | 183341 | 232502
7 | 51:40.03 | 8:01.35 | 232503 | 268612
8 | 59:41.38 | 8:55.34 | 268613 | 308771
9 | 68:36.72 | 9:46.35 | 308772 | 352756


Range status and errors

Selected range

Filename F:\=== VINYL RIPS ===\=== EAC===\X FRESH RIP\Ives- DSO, Litton - Symphonies Nos 2 & 3.wav

Peak level 99.9 %
Extraction speed 8.2 X
Range quality 99.9 %
Test CRC 2D98538C
Copy CRC 2D98538C
Copy OK

No errors occurred


AccurateRip summary

Track 1 accurately ripped (confidence 10) [C35A5B74] (AR v1)
Track 2 accurately ripped (confidence 10) [EE59340A] (AR v1)
Track 3 accurately ripped (confidence 10) [7FF0A2C5] (AR v1)
Track 4 accurately ripped (confidence 10) [A9C2842A] (AR v1)
Track 5 accurately ripped (confidence 10) [D53330D4] (AR v1)
Track 6 accurately ripped (confidence 10) [1F06563E] (AR v1)
Track 7 accurately ripped (confidence 9) [5517E8C6] (AR v1)
Track 8 accurately ripped (confidence 10) [B26742FC] (AR v1)
Track 9 accurately ripped (confidence 10) [6ADBABB7] (AR v1)

All tracks accurately ripped

End of status report

–– CUETools DB Plugin V2.1.3

[CTDB TOCID: Ng64ogU4Xb3flsn4ypC5s9zgT_Y-] found, Submit result: Ng64ogU4Xb3flsn4ypC5s9zgT_Y- has been confirmed
[457bb992] (1/1) Accurately ripped


==== Log checksum DA086D715700A9F1FC942822FFADC49F4762C332A95C829C998E228F62BD1BD4 ====

foobar2000 1.1.11 / Dynamic Range Meter 1.1.1
log date: 2012-10-10 11:44:51

––––––––––––––––––––––––––––––––––––––––
Analyzed: Dallas Symphony Orchestra, Andrew Litton / Ives Symphonies 1 & 4, Central Park in the Dark (1)
Dallas Symphony Orchestra, Andrew Litton, David Matthews (cor anglais) / Ives Symphonies 1 & 4, Central Park in the Dark (2)
Dallas Symphony Orchestra, Andrew Litton / Ives Symphonies 1 & 4, Central Park in the Dark (3-4)
? / ? (5)
Dallas Symphony Orchestra, Andrew Litton, Danail Rachev (assistant conductor), William Wolfram (piano) / Ives Symphonies 1 & 4, Central Park in the Dark (6-7)
? / ? (8)
Dallas Symphony Orchestra, Andrew Litton / Ives Symphonies 1 & 4, Central Park in the Dark (9)
––––––––––––––––––––––––––––––––––––––––

DR Peak RMS Duration Track
––––––––––––––––––––––––––––––––––––––––
DR14 -5.41 dB -25.86 dB 11:36 01-Symphony No.1 - I. Allegro (con moto)
DR13 -9.02 dB -28.81 dB 8:29 02-Symphony No.1 - II. Adagio molto (sostenuto)
DR13 -12.90 dB -30.81 dB 4:17 03-Symphony No.1 - III. Scherzo (Vivace)
DR15 -4.04 dB -25.08 dB 12:50 04-Symphony No.1 - IV. Allegro molto
DR14 -8.47 dB -29.04 dB 3:15 ?-Dallas Symphony Orchestra Dallas Symphony Chorus Andrew - Ives Symphonies 1 & 4, Central Park in the Dark
DR13 -4.30 dB -23.21 dB 10:52 06-Symphony No.4 - II. Allegretto
DR12 -12.07 dB -29.58 dB 8:01 07-Symphony No.4 - III. Fugue. Andante moderato con moto
DR12 -4.59 dB -23.08 dB 8:46 ?-Dallas Symphony Orchestra Dallas Symphony Chorus Andrew - Ives Symphonies 1 & 4, Central Park in the Dark
DR20 -5.42 dB -33.62 dB 9:46 09-Central Park in the Dark
––––––––––––––––––––––––––––––––––––––––

Number of tracks: 9
Official DR value: DR14

Samplerate: 2822400 Hz / PCM Samplerate: 176400 Hz
Channels: 2
Bits per sample: 24
Bitrate: 5645 kbps
Codec: DSD64
================================================================================



CD Info:

Charles Ives - Symphonies Nos. 1 & 4 / Central Park in the Dark

Dallas Symphony Orchestra / Andrew Litton

Label: Hyperion
Catalog#: SACDA67540
Format: Hybrid-SACD, Album, Stereo, Multichannel
Country: UK
Released: 2006
Genre: Classical

Tracklist:

1 - No. 1 - 1. Allegro (con moto) 11:41
2 - No. 1 - 2. Adagio molto (sostenuto) 8:31
3 - No. 1 - 3. Scherzo: Vivace 4:18
4 - No. 1 - 4. Allegro molto 12:59
5 - No. 4 - 1. Prelude: Maestoso 3:15
6 - No. 4 - 2. Comedy: Allegretto 10:55
7 - No. 4 - 3. Fugue: Andante moderato con moto 8:01
8 - No. 4 - 4. Very slowly (Largo maestoso) 8:55
9 - Central Park in the Dark 9:46

Recorded live in concerts at the Eugene McDermott Concert Hall, Morton H Meyerson Symphony Center, Dallas, on 12-15 January 2006 (Symphony No. 1, Central Park in the Dark) & 19-22 January 2006 (Symphony No. 4)

Charles Ives - Symphonies Nos. 1 & 4 / Central Park in the Dark [Part 1/2] (2006) {Hybrid-SACD // EAC Rip}


The Symphonies of Charles Ives are considered the first "American" symphonies.
It may be so, but Ives was an extremely ecclectic musician, and in his symphonies the language is quite varied in it´s influences, and also very forward looking.
The 2 works in this disc are quite contrasted: a very conservative Nr.1 and a very avant-garde nr. 4. Both, nevertheless, display clearly the diverse language of Ives, which has an accuarte ear for textures, polyrythms and tonal combinations.

Both works get excellent readings from Andrew Litton and the Dallas Orchestra. A clear baton, which is essential for this complex music, guides the listener through this very complex works.

The sound is top-notch. Very clear, spacious and captures ideally the tonal intricacies of these rewarding works.
Charles Ives - Symphonies Nos. 1 & 4 / Central Park in the Dark [Part 1/2] (2006) {Hybrid-SACD // EAC Rip}
SA-CD.net
Charles Ives - Symphonies Nos. 1 & 4 / Central Park in the Dark [Part 1/2] (2006) {Hybrid-SACD // EAC Rip}

// classical music \\
// all of my uploads \\
________________

Download:

Filepost FLAC
Filepost Artwork
________________