Subcategories

Charles Ives - Symphonies Nos. 2 & 3 / General William Booth [Part 2/2] (2006) {Hybrid-SACD // EAC Rip}

Posted By: luckburz
Charles Ives - Symphonies Nos. 2 & 3 / General William Booth [Part 2/2] (2006) {Hybrid-SACD // EAC Rip}

Charles Ives - Symphonies Nos. 2 & 3 / General William Booth enters into Heaven
Dallas Symphony Orchestra / Andrew Litton
EAC+LOG+CUE | FLAC: 276 MB | Full Artwork | 5% Recovery Info
Label/Cat#: Hyperion # SACDA67525 | Country/Year: UK 2006
Genre: Classical | Style: Modernism

MD5 [X] CUE [X] LOG [X] INFO TEXT [X] ARTWORK [X]

selfrip [X] not my rip []

Charles Ives - Symphonies Nos. 2 & 3 / General William Booth [Part 2/2] (2006) {Hybrid-SACD // EAC Rip}


Exact Audio Copy V1.0 beta 3 from 29. August 2011

EAC extraction logfile from 1. October 2012, 15:38

Dallas Symphony Orchestra, Andrew Litton / Ives: Symphonies 2 & 3

Used drive : PIONEER BD-RW BDR-206 Adapter: 0 ID: 2

Read mode : Secure
Utilize accurate stream : Yes
Defeat audio cache : Yes
Make use of C2 pointers : No

Read offset correction : 667
Overread into Lead-In and Lead-Out : No
Fill up missing offset samples with silence : Yes
Delete leading and trailing silent blocks : No
Null samples used in CRC calculations : Yes
Used interface : Native Win32 interface for Win NT & 2000

Used output format : User Defined Encoder
Selected bitrate : 1024 kBit/s
Quality : High
Add ID3 tag : Yes
Command line compressor : C:\Program Files\FLAC\flac.exe
Additional command line options : -5 -T "Artist=%artist%" -T "Title=%title%" -T "Album=%albumtitle%" -T "Date=%year%" -T "Tracknumber=%tracknr%" -T "Genre=%genre%" %source% -o %dest%


TOC of the extracted CD

Track | Start | Length | Start sector | End sector
––––––––––––––––––––––––––––-
1 | 0:00.00 | 6:07.69 | 0 | 27593
2 | 6:07.69 | 11:32.47 | 27594 | 79540
3 | 17:40.41 | 9:29.68 | 79541 | 122283
4 | 27:10.34 | 2:47.37 | 122284 | 134845
5 | 29:57.71 | 10:00.36 | 134846 | 179881
6 | 39:58.32 | 8:20.11 | 179882 | 217392
7 | 48:18.43 | 7:24.38 | 217393 | 250730
8 | 55:43.06 | 8:27.68 | 250731 | 288823
9 | 64:10.74 | 5:13.52 | 288824 | 312350


Range status and errors

Selected range

Filename F:\=== VINYL RIPS ===\=== EAC===\X FRESH RIP\Ives- DSO, Litton - Symphonies 2 & 3.wav

Peak level 100.0 %
Extraction speed 8.0 X
Range quality 100.0 %
Test CRC FCB001BF
Copy CRC FCB001BF
Copy OK

No errors occurred


AccurateRip summary

Track 1 accurately ripped (confidence 9) [8940D3F6] (AR v1)
Track 2 accurately ripped (confidence 9) [6561F216] (AR v1)
Track 3 accurately ripped (confidence 9) [09CA8022] (AR v1)
Track 4 accurately ripped (confidence 9) [C7BFEAD8] (AR v1)
Track 5 accurately ripped (confidence 9) [74ABF0F4] (AR v1)
Track 6 accurately ripped (confidence 9) [2755B72B] (AR v1)
Track 7 accurately ripped (confidence 9) [ADADAE56] (AR v1)
Track 8 accurately ripped (confidence 9) [12538A5D] (AR v1)
Track 9 accurately ripped (confidence 9) [CD1A1B75] (AR v1)

All tracks accurately ripped

End of status report

–– CUETools DB Plugin V2.1.3

[CTDB TOCID: ofDat6e4aUKHM6CpRD8RCu_ew8k-] found, Submit result: ofDat6e4aUKHM6CpRD8RCu_ew8k- has been confirmed
[092d116f] (1/1) Accurately ripped


==== Log checksum 711D4390448AB65EEEC316D8C5109E2B0418A3ECB8D8E94F642A8C3E05620FD9 ====

foobar2000 1.1.11 / Dynamic Range Meter 1.1.1
log date: 2012-10-10 19:00:54

––––––––––––––––––––––––––––––––––––––––
Analyzed: Dallas Symphony Orchestra, Andrew Litton / Ives Symphonies 2 & 3, General William Booth Enters Into Heaven (1-8)
Dallas Symphony Orchestra, Dallas Symphony Chorus, Andrew Litton, Donnie Ray Albert (baritone) / Ives Symphonies 2 & 3, General William Booth Enters Into Heaven (9)
––––––––––––––––––––––––––––––––––––––––

DR Peak RMS Duration Track
––––––––––––––––––––––––––––––––––––––––
DR13 -6.51 dB -26.56 dB 6:08 01-Symphony No.2 - I. Andante moderato
DR14 -2.85 dB -22.01 dB 11:30 02-Symphony No.2 - II. Allegro molto (Con spirito)
DR14 -5.78 dB -26.30 dB 9:29 03-Symphony No.2 - III. Andante cantabile
DR12 -6.45 dB -22.55 dB 2:47 04-Symphony No.2 - IV. Lento maestoso
DR13 -2.86 dB -21.21 dB 9:50 05-Symphony No.2 - V. Allegro molto vivace
DR13 -4.82 dB -24.60 dB 8:13 06-Symphony No.3 (Camp Meeting) - I. Old Folks Gatherin'
DR13 -5.07 dB -24.00 dB 7:22 07-Symphony No.3 (Camp Meeting) - II. Children's Day
DR13 -5.21 dB -24.65 dB 8:15 08-Symphony No.3 (Camp Meeting) - III. Communion
DR14 -3.96 dB -25.26 dB 5:14 09-General William Booth Enters Into Heaven
––––––––––––––––––––––––––––––––––––––––

Number of tracks: 9
Official DR value: DR13

Samplerate: 2822400 Hz / PCM Samplerate: 176400 Hz
Channels: 2
Bits per sample: 24
Bitrate: 5645 kbps
Codec: DSD64
================================================================================



CD Info:

Charles Ives - Symphonies Nos. 2 & 3 / General William Booth enters into Heaven

Dallas Symphony Orchestra / Andrew Litton

Label: Hyperion
Catalog#: SACDA67525
Format: Hybrid-SACD, Album, Stereo, Multichannel
Country: UK
Released: 2006
Genre: Classical

Tracklist:

1 - No. 2 - 1. Andante moderato 6:08
2 - No. 2 - 2. Allegro molto (con spirito) 11:33
3 - No. 2 - 3. Adagio cantabile 9:30
4 - No. 2 - 4. Lento maestoso 2:47
5 - No. 2 - 5. Allegro molto vivace 10:00
6 - No. 3 [The Camp Meeting] - 1. Old Folks Gatherin': Andante maestoso 8:20
7 - No. 3 [The Camp Meeting] - 2. Children's Day: Allegro 7:25
8 - No. 3 [The Camp Meeting] - 3. Communion: Largo 8:28
9 - General Booth enters into Heaven 5:14

Recorded live in concerts at the Eugene McDermott Concert Hall, Morton H Meyerson Symphony Center, Dallas, on 23-26 September 2004 (Symphony No. 3) , 6-9 January 2005 (Symphony No. 2) and 19-22 January 2006 (General William Booth enters into Heaven)

Charles Ives - Symphonies Nos. 2 & 3 / General William Booth [Part 2/2] (2006) {Hybrid-SACD // EAC Rip}


Review #1
I suppose with one hour to go to to another year I am reviewing a composer that equates to my equivelant of Schoenberg !.Totally mystyfing.Easily recognizable but ?…I had hoped for sym, 1-2 of which I am more familiar but turned out to be delighted with this disc.So much so I will risk another few bob on the companion disc.The 4th I can ignore.
Recording quality is up with the best.Even interpretation (which was difficult to spell in my current state) was better than previous versions.Safe bet for anyone who likes classical music and wants to take half a chance.notes and everything else first class..no compaints except Why did it take so long to get such music on high quality…. BUY I am not goiung to be so gernerous next year in marking…

Review #2
Another great disc of Ives symphonies.
Both are very rewarding works and show Ives at his most inventive. The European influence in these works seems to me very clear, and Ives manages to absorb this idiom and at the same time be forward looking and original.
As with the companion disc, Litton seems to me a conductor fully inmersed in Ives complex world of sound. His Dallas orchestra is quite excellent, and the recordings are faultless.
Charles Ives - Symphonies Nos. 2 & 3 / General William Booth [Part 2/2] (2006) {Hybrid-SACD // EAC Rip}
SA-CD.net
Charles Ives - Symphonies Nos. 2 & 3 / General William Booth [Part 2/2] (2006) {Hybrid-SACD // EAC Rip}

// classical music \\
// all of my uploads \\

________________

Download:

Filepost FLAC
Filepost Artwork
________________