Subcategories

Ivy – In The Clear (2005)

Posted By: muddboogers
Ivy – In The Clear (2005)

Ivy – In The Clear (2005)
EAC | FLAC Image with CUE & LOG | 43:26 mins | Scans | RAR 3% Recovery | 308 MB
Indie Rock / Indie Pop | 2005 Nettwerk America #0 6700 30398 2 6

Ivy follow up 2001's Long Distance with their sophisticated fourth album, In the Clear. The ten-song set shines with smooth synth beats, breezy acoustic guitars, and elegant string arrangements. It's refined and focused, but also sexy and intimate. The band's airy softness turns dark, and it's an inviting listen. Dominique Durand's honeyed, warm vocals are as seductive as ever, especially on skin-tight tracks such as "Four in the Morning" and "Keep Moving." "Tess Don't Tell" is classic Ivy. Andy Chase's post-punk-influenced background fits Adam Schlesinger's pop roots so nicely on this track, and it's playful in mood without going overboard. Ivy didn't overdo things in the studio. It's an album that breathes easy while also one that struts in slow motion. The dreamy, piano-laden opener, "Nothing but the Sky," is testament to that. Slow-building pastel-colored melodies mixed between cool, chilled rock moments capture the essence of In the Clear. It's most definitely an impressive culmination of Ivy's career to date. ~ Tim Sendra, allmusic.com
In The Clear @ Discogs
The Band Ivy

Tracklist:
1. Nothing But the Sky
2. Thinking About You
3. Keep Moving
4. Tess Don't Tell
5. Four in the Morning
6. Corners of Your Mind
7. Clear My Head
8. I've Got You Memorized
9. Ocean City Girl
10. Feel So Free

Exact Audio Copy V1.0 beta 2 from 29. April 2011

EAC extraction logfile from 5. August 2011, 19:47

Ivy / In The Clear

Used drive : TDK CDRW4800B Adapter: 2 ID: 1

Read mode : Secure
Utilize accurate stream : Yes
Defeat audio cache : Yes
Make use of C2 pointers : No

Read offset correction : 6
Overread into Lead-In and Lead-Out : No
Fill up missing offset samples with silence : Yes
Delete leading and trailing silent blocks : No
Null samples used in CRC calculations : Yes
Used interface : Native Win32 interface for Win NT & 2000

Used output format : Internal WAV Routines
Sample format : 44.100 Hz; 16 Bit; Stereo


TOC of the extracted CD

Track | Start | Length | Start sector | End sector
––––––––––––––––––––––––––––-
1 | 0:00.00 | 5:12.27 | 0 | 23426
2 | 5:12.27 | 4:13.24 | 23427 | 42425
3 | 9:25.51 | 4:43.55 | 42426 | 63705
4 | 14:09.31 | 4:35.04 | 63706 | 84334
5 | 18:44.35 | 5:10.44 | 84335 | 107628
6 | 23:55.04 | 2:49.11 | 107629 | 120314
7 | 26:44.15 | 3:30.08 | 120315 | 136072
8 | 30:14.23 | 3:48.69 | 136073 | 153241
9 | 34:03.17 | 4:24.51 | 153242 | 173092
10 | 38:27.68 | 4:58.61 | 173093 | 195503


Range status and errors

Selected range

Filename E:\[# AvaxHome #]\Ivy - In The Clear.wav

Peak level 100.0 %
Extraction speed 8.3 X
Range quality 100.0 %
Test CRC 4A921964
Copy CRC 4A921964
Copy OK

No errors occurred


AccurateRip summary

Track 1 accurately ripped (confidence 4) [A774C8B3] (AR v2)
Track 2 accurately ripped (confidence 4) [437D5CF1] (AR v2)
Track 3 accurately ripped (confidence 3) [550D81C8] (AR v2)
Track 4 accurately ripped (confidence 4) [1F9766BE] (AR v2)
Track 5 accurately ripped (confidence 4) [61C26AD2] (AR v2)
Track 6 accurately ripped (confidence 4) [252098C3] (AR v2)
Track 7 accurately ripped (confidence 4) [F8A4B424] (AR v2)
Track 8 accurately ripped (confidence 4) [E96EA0F8] (AR v2)
Track 9 accurately ripped (confidence 4) [A0A5EE37] (AR v2)
Track 10 accurately ripped (confidence 3) [A0BA5C7B] (AR v2)

All tracks accurately ripped

End of status report

==== Log checksum 5D7CF65D2D819FF584D00DAACE644E587E21B8488DF1993147E08FB06898836D ====