Subcategories

Jackie McLean with The Great Jazz Trio - New Wine in Old Bottles (1978) [Reissued 2007]

Posted By: Bezz
Jackie McLean with The Great Jazz Trio - New Wine in Old Bottles (1978) [Reissued 2007]

Jackie McLean with The Great Jazz Trio - New Wine in Old Bottles (1978) [Reissued 2007]
EAC rip | FLAC + CUE + LOG | Full Scans | 260 Mb (Incl. Recovery)
Genre ~ Jazz, Cool, Hard Bop, Post-Bop | Label ~ Test of Time Records

It was an inspired idea to match alto saxophonist Jackie McLean with the Great Jazz Trio, a regularly working unit on record and in concert led by the outstanding pianist Hank Jones, joined by two first call players, bassist Ron Carter and drummer Tony Williams. Although the word "again" is added to McLean's two originals, the barnburner "Appointment in Ghana" and "Little Melonae," they aren't very different from earlier recordings in concept. McLean also shines in ballad settings of "It Never Entered My Mind" and "'Round Midnight." Jones' advanced playing may be a eye-opener for some fans who do not realize how advanced and wide ranging a pianist he is. Like many fine recordings made for the Japanese label East Wind, these 1978 sessions pairing Jackie McLean with the Great Jazz Trio have long been out of print and fetched high prices from collectors. ~ AllMusic


Tracks List

01 - Appointment In Ghana Again (Jackie McLean) 5:48
02 - It Never Entered My Mind (Hart, Rodgers) 6:36
03 - 'Round About Midnight (Hanighen, Williams, Monk) 9:05
04 - Little Melonae Again (Jackie McLean) 5:52
05 - Bein' Green (Joe Raposo) 6:21
06 - Confirmation (Charlie Parker) 6:17

Total Time: 40:20


Personel

Jackie McLean (Alto Saxophone);
Ron Carter (Bass);
Tony Williams (Drums);
Hank Jones (Piano).


Exact Audio Copy V1.0 beta 1 from 15. November 2010

EAC extraction logfile from 29. March 2011, 17:18

Jackie McLean With The Great Jazz Trio / New Wine In Old Bottles

Used drive : HL-DT-STDVD-RAM GSA-H55N Adapter: 0 ID: 2

Read mode : Secure
Utilize accurate stream : Yes
Defeat audio cache : Yes
Make use of C2 pointers : No

Read offset correction : 102
Overread into Lead-In and Lead-Out : Yes
Fill up missing offset samples with silence : Yes
Delete leading and trailing silent blocks : No
Null samples used in CRC calculations : Yes
Used interface : Installed external ASPI interface
Gap handling : Appended to previous track

Used output format : User Defined Encoder
Selected bitrate : 128 kBit/s
Quality : High
Add ID3 tag : No
Command line compressor : G:\Program Files\Exact Audio Copy\Encoder\flac.exe
Additional command line options : -V -8 -T "Genre=%m" -T "Artist=%a" -T "Title=%t" -T "Album=%g" -T "Date=%y" -T "Tracknumber=%n" -T "Comment=EAC1.0b1 -8" %s


TOC of the extracted CD

Track | Start | Length | Start sector | End sector
––––––––––––––––––––––––––––-
1 | 0:00.00 | 5:50.10 | 0 | 26259
2 | 5:50.10 | 6:42.37 | 26260 | 56446
3 | 12:32.47 | 9:07.43 | 56447 | 97514
4 | 21:40.15 | 5:54.65 | 97515 | 124129
5 | 27:35.05 | 6:25.10 | 124130 | 153014
6 | 34:00.15 | 6:19.60 | 153015 | 181499


Track 1

Filename F:\WAV\01 - Appointment In Ghana Again.wav

Pre-gap length 0:00:02.00

Peak level 84.6 %
Extraction speed 4.6 X
Track quality 100.0 %
Test CRC 2E2CE69E
Copy CRC 2E2CE69E
Accurately ripped (confidence 1) [AE4C901B]
Copy OK

Track 2

Filename F:\WAV\02 - It Never Entered My Mind.wav

Pre-gap length 0:00:00.09

Peak level 48.4 %
Extraction speed 5.4 X
Track quality 100.0 %
Test CRC 44EC1CEE
Copy CRC 44EC1CEE
Accurately ripped (confidence 1) [D8C2B0F7]
Copy OK

Track 3

Filename F:\WAV\03 - 'Round About Midnight.wav

Pre-gap length 0:00:00.21

Peak level 42.0 %
Extraction speed 5.9 X
Track quality 99.9 %
Test CRC AEC17ACB
Copy CRC AEC17ACB
Accurately ripped (confidence 1) [2C4D2B17]
Copy OK

Track 4

Filename F:\WAV\04 - Little Melonae Again.wav

Pre-gap length 0:00:00.12

Peak level 95.2 %
Extraction speed 6.7 X
Track quality 100.0 %
Test CRC EA7EDDA6
Copy CRC EA7EDDA6
Accurately ripped (confidence 1) [98CCBEEB]
Copy OK

Track 5

Filename F:\WAV\05 - Bein' Green.wav

Pre-gap length 0:00:00.44

Peak level 51.6 %
Extraction speed 7.2 X
Track quality 100.0 %
Test CRC 299C8D4E
Copy CRC 299C8D4E
Accurately ripped (confidence 1) [6D7A74AC]
Copy OK

Track 6

Filename F:\WAV\06 - Confirmation.wav

Pre-gap length 0:00:00.72

Peak level 99.0 %
Extraction speed 3.1 X
Track quality 100.0 %
Test CRC BB6E2BF0
Copy CRC BB6E2BF0
Accurately ripped (confidence 1) [34E1896C]
Copy OK


All tracks accurately ripped

No errors occurred

End of status report

==== Log checksum 205444FBF83CBEA6934DA25D90A3452EB831D674DF07C1A2C42061D4CBCF39D4 ====



Jackie McLean with The Great Jazz Trio - New Wine in Old Bottles (1978) [Reissued 2007]


Jackie McLean with The Great Jazz Trio - New Wine in Old Bottles (1978) [Reissued 2007]



Special thanks to the original ripper!


FILESONIC links

Part 1 | Part 2 | Part 3


FILESERVE links

Part 1 | Part 2 | Part 3


BITSHARE links

Part 1 | Part 2 | Part 3


Welcome to my blog for more wonderful music


PLEASE DO NOT PROVIDE MIRROR LINKS!