Jacques Brel - Coffret intégral: "Boîte à bonbons" (16CD, 2003)

Posted By: Speedyclick
Jacques Brel - Coffret intégral: "Boîte à bonbons" (16CD, 2003)

Jacques Brel - Coffret intégral: "Boîte à bonbons" (16CD, 2003)
EAC Rips | FLAC (tracks & cue & log) & mp3 @ 320 kbps | tracks: 226 | Front covers & Full booklet Scans | 11:55:49 | ~ 4,13 Gb & 1,65 Gb
Label: Barclay-Universal | 5% recovery record | Remastered original recordings | Chanson

Superb compilation of the complete recorded works of Jacques Brel, released in 2003 to mark the 25th anniversary of his death. The box set includes 15 albums remastered from the original records, with covers identical to the originals, plus a 16th bonus CD with 28 titles never recorded before, from the archives of Brel's family. Included you will find an amazing 100p booklet in pdf format, with rare material for every song and a lot of great photos from Jacques Brel's life and performances. Enjoy a collector's masterpiece in excellent sound quality.

Jacques Brel - Coffret intégral: "Boîte à bonbons" (16CD, 2003)

CD01: Grand Jacques (1955) (37:12 | ~ 143 Mb & 88 Mb)

TRACKLIST
01. La haine
02. Grand Jacques
03. Il pleut (les carreaux)
04. Le diable (ca va)
05. Il peut pleuvoir
06. Il nous faut regarder
07. Le fou du roi
08. C'est comme ca
09. Sur la place
10. S'il te faut
11. La bastille
12. Priere paienne
13. Il y a
14. La foire
15. Sur la place
Jacques Brel - Coffret intégral: "Boîte à bonbons" (16CD, 2003)

CD02: Quand On N'a Que L'amour (1957) (28:57 | ~ 122 Mb & 69 Mb)

TRACKLIST
01. Quand on n'a que l'amour
02. Qu'avons-nous fait, bonnes gens-
03. Les pieds dans le ruisseau
04. Pardons
05. La bourree du celibataire
06. L'air de la betise
07. Saint-Pierre
08. J'en appelle
09. Heureux
10. Les bles
11. Quand on n'a que l'amour
Jacques Brel - Coffret intégral: "Boîte à bonbons" (16CD, 2003)

CD03: Au printemps (1958) (34:09 | ~ 118 Mb & 81 Mb)

TRACKLIST
01. Demain l'on se marie (la chanson des fiances)
02. Au printemps
03. Je ne sais pas
04. Le colonel
05. Dors ma mie
06. La lumiere jaillira
07. Dites, si c'etait vrai (poeme)
08. L'homme dans la cite-
09. Litanies pour un retour
10. Voici
11. Voir
12. L'aventure
13. Dites, si c'etait vrai (poeme)
Jacques Brel - Coffret intégral: "Boîte à bonbons" (16CD, 2003)

CD04: La Valse à Mille Temps (1959) (30:43 | ~ 194 Mb & 72 Mb)

TRACKLIST
01. La valse a mille temps
02. Seul
03. La dame patronnesse
04. Je t'aime
05. Ne me quitte pas
06. Les flamandes
07. Isabelle
08. La mort
09. La tendresse
10. La colombe
Jacques Brel - Coffret intégral: "Boîte à bonbons" (16CD, 2003)

CD05: Marieke (1961) (46:23 | ~ 262 Mb & 109 Mb)

TRACKLIST
01. Marieke
02. Le moribond
03. Vivre debout
04. On n'oublie rien
05. Clara
06. Le prochain amour
07. L'ivrogne
08. Les prenoms de Paris
09. Les singes
10. Marieke (version flamande)
11. Laat me niet alleen (ne me quitte pas)
12. De apen (les singes)
13. Men vergeet niets
14. Le prochain amour
Jacques Brel - Coffret intégral: "Boîte à bonbons" (16CD, 2003)

CD06: Enregistrement Public à l'Olympia 61 (1961) (48:13 | ~ 315 Mb & 114 Mb)

TRACKLIST
01. Introduction - Les prenoms de Paris
02. Les bourgeois
03. Les paumes du petit matin
04. Les Flamandes
05. La statue
06. Zangra
07. Marieke
08. Les biches
09. Madeleine
10. Les singes
11. L'ivrogne
12. La valse a mille temps
13. Ne me quitte pas
14. Le moribond
15. Quand on n'a que l'amour
Jacques Brel - Coffret intégral: "Boîte à bonbons" (16CD, 2003)

CD07: Les Bourgeois (1962) (45:59 | ~ 291 Mb & 107 Mb)

TRACKLIST
01. Les bourgeois
02. Les paumes du petit matin
03. Le plat pays
04. Zangra
05. Une ile
06. Madeleine
07. Bruxelles
08. Chanson sans parole
09. Les biches
10. Le Caporal Casse-Pompon
11. La statue
12. Rosa
13. Il neige sur Liege (bonus)
14. Pourquoi faut-il que les hommes s'ennuient (bonus)
Jacques Brel - Coffret intégral: "Boîte à bonbons" (16CD, 2003)

CD08: Les Bonbons (1963 - 1964) (47:52 | ~ 294 Mb & 111 Mb)

TRACKLIST
01. Les bonbons
02. Les vieux
03. La parlote
04. Le dernier repas
05. Titine
06. Au suivant
07. Les toros
08. La Fanette
09. J'aimais
10. Les filles et les chiens
11. Les bigotes
12. Les fenetres
13. Quand maman reviendra
14. Les amants de coeur
Jacques Brel - Coffret intégral: "Boîte à bonbons" (16CD, 2003)

CD09: Enregistrement Public à l'Olympia 64 (1964) (48:12 | ~ 268 Mb & 125 Mb)

TRACKLIST
01. Amsterdam
02. Les timides
03. Le dernier repas
04. Les jardins du casino
05. Les vieux
06. Les Toros
07. Tango funebre
08. Le plat pays
09. Les bonbons
10. Mathilde
11. Les bigotes
12. Les bourgeois
13. Jef
14. Au suivant
15. Madeleine
Jacques Brel - Coffret intégral: "Boîte à bonbons" (16CD, 2003)

CD10: Ces Gens-Là (1966) (49:40 | ~ 311 Mb & 116 Mb)

TRACKLIST
01. Ces gens-la
02. Jef
03. La chanson de Jacky
04. Les bergers
05. Le tango funebre
06. Fernand
07. Mathilde
08. L'age idiot
09. Grand-mere
10. Les desesperes
11. Mijn vlakke land (Le plat pays)
12. Rosa (version flamande)
13. De burgerij (Les bourgeois)
14. De nuttelozen van de nacht (Les paumes du petit matin)
Jacques Brel - Coffret intégral: "Boîte à bonbons" (16CD, 2003)

CD11: Jacques Brel 67 (1967) (39:46 | ~ 263 Mb & 93 Mb)

TRACKLIST
01. Mon enfance
02. Le cheval
03. Mon pere disait
04. La… La… la
05. Les coeurs tendres (du film 'Un iodot a Paris')
06. Fils de…
07. Les bonbons 67
08. La chanson des vieux amants
09. A jeun
10. Le gaz
11. Les moutons
Jacques Brel - Coffret intégral: "Boîte à bonbons" (16CD, 2003)

CD12: J'arrive (1968) (41:29 | ~ 267 Mb & 98 Mb)

TRACKLIST
01. J'arrive
02. Vesoul
03. L'Ostendaise
04. Je suis un soir d'ete
05. Regarde bien, petit
06. Comment tuer l'amant de sa femme quand on a ete eleve comme moi dans la tradition
07. L'eclusier
08. Un enfant
09. La biere
10. La chanson de Van Horst (du film 'Le bar de la fourche')
11. L'enfance (du film 'Le Far West')
Jacques Brel - Coffret intégral: "Boîte à bonbons" (16CD, 2003)

CD13: L'homme de la Mancha (1968) (45:26 | ~ 297 Mb & 106 Mb)

TRACKLIST
01. L'Homme De La Mancha
02. Un animal
03. Dulcinea
04. Vraiment je ne pense qu'A  lui
05. Le casque d'or de Mambrino
06. Chacun sa Dulcinea
07. Pourquoi fait-il toutes ces choses
08. La quete
09. Sans amour
10. Gloria
11. Aldonza
12. Le chevalier aux miroirs
13. La mort
Jacques Brel - Coffret intégral: "Boîte à bonbons" (16CD, 2003)

CD14: Ne Me Quitte Pas (1972) (38:51 | ~ 266 Mb & 91 Mb)

TRACKLIST
01. Ne me quitte pas
02. Marieke
03. On n'oublie rien
04. Les Flamandes
05. Les prenoms de Paris
06. Quand on n'a que l'amour
07. Les biches
08. Le prochain amour
09. Le moribond
10. La valse a mille temps
11. Je ne sais pas
Jacques Brel - Coffret intégral: "Boîte à bonbons" (16CD, 2003)

CD15: Les Marquises (1977) (1:07:37 | ~ 409 Mb & 157 Mb)

TRACKLIST
01. Jaures
02. La ville s'endormait
03. Vieillir
04. Le bon Dieu
05. Les F…
06. Orly
07. Les remparts de Varsovie
08. Voir un ami pleurer
09. Knokke-Le-Zoute Tango
10. Jojo
11. Le lion
12. Les Marquises
13. Sans exigences
14. Avec elegance
15. Mai 40
16. L'amour est mort
17. La cathedrale
Jacques Brel - Coffret intégral: "Boîte à bonbons" (16CD, 2003)

CD16: Bonus CD (2003) (1:05:20 | ~ 404 Mb & 152 Mb)

TRACKLIST
01. A deux
02. Dites, si c'etait vrai (poeme)
03. Les gens
04. La haine
05. Departs
06. Le diable 'Ca va'
07. Qu'avons nous fait, bonnes gens-
08. L'ange dechu
09. Les pieds dans le ruisseau
10. La Bastille
11. Ce qu'il nous faut (ce qu'il vous faut)
12. L'accordeon de la vie
13. Je suis l'ombre des chansons
14. S'il te faut
15. Ballade
16. L'orage
17. Les paves
18. Le fou du roi
19. La foire
20. Sur la place
21. Il peut pleuvoir
22. Les deux fauteuils
23. Les enfants du roi
24. Le troubadour
25. Il nous faut regarder
26. C'est comme ca
27. Si tu revenais
28. Le pendu

Exact Audio Copy V0.99 prebeta 4 from 23. January 2008

EAC extraction logfile from 27. May 2010, 10:18

Jacques Brel / Grand Jacques [Velours Box Set Remaster 2003]

Used drive : PLEXTOR DVDR PX-750A Adapter: 7 ID: 0

Read mode : Secure
Utilize accurate stream : Yes
Defeat audio cache : Yes
Make use of C2 pointers : No

Read offset correction : 102
Overread into Lead-In and Lead-Out : No
Fill up missing offset samples with silence : Yes
Delete leading and trailing silent blocks : No
Null samples used in CRC calculations : Yes
Used interface : Native Win32 interface for Win NT & 2000
Gap handling : Appended to previous track

Used output format : User Defined Encoder
Selected bitrate : 1024 kBit/s
Quality : High
Add ID3 tag : No
Command line compressor : C:\Program Files\FLAC\flac.exe
Additional command line options : -V -8 -T "artist=%a" -T "title=%t" -T "album=%g" -T "date=%y" -T "tracknumber=%n" -T "genre=%m" %s


TOC of the extracted CD

Track | Start | Length | Start sector | End sector
––––––––––––––––––––––––––––-
1 | 0:00.00 | 1:56.62 | 0 | 8761
2 | 1:56.62 | 1:51.15 | 8762 | 17101
3 | 3:48.02 | 2:37.25 | 17102 | 28901
4 | 6:25.27 | 2:27.50 | 28902 | 39976
5 | 8:53.02 | 1:45.50 | 39977 | 47901
6 | 10:38.52 | 2:25.10 | 47902 | 58786
7 | 13:03.62 | 1:58.30 | 58787 | 67666
8 | 15:02.17 | 2:09.73 | 67667 | 77414
9 | 17:12.15 | 2:51.57 | 77415 | 90296
10 | 20:03.72 | 2:08.48 | 90297 | 99944
11 | 22:12.45 | 3:00.10 | 99945 | 113454
12 | 25:12.55 | 2:36.52 | 113455 | 125206
13 | 27:49.32 | 2:22.55 | 125207 | 135911
14 | 30:12.12 | 3:24.13 | 135912 | 151224
15 | 33:36.25 | 3:36.45 | 151225 | 167469


Track 1

Filename f:\Torrent\FLAC\Jacques Brel\Grand Jacques [Velours Box Set Remaster 2003]\01 - La haine.wav

Pre-gap length 0:00:02.00

Peak level 97.5 %
Track quality 100.0 %
Test CRC 6C83E719
Copy CRC 6C83E719
Copy OK

Track 2

Filename f:\Torrent\FLAC\Jacques Brel\Grand Jacques [Velours Box Set Remaster 2003]\02 - Grand Jacques.wav

Pre-gap length 0:00:02.80

Peak level 100.0 %
Track quality 100.0 %
Test CRC 7D0AD887
Copy CRC 7D0AD887
Copy OK

Track 3

Filename f:\Torrent\FLAC\Jacques Brel\Grand Jacques [Velours Box Set Remaster 2003]\03 - Il pleut (les carreaux).wav

Pre-gap length 0:00:03.33

Peak level 86.7 %
Track quality 100.0 %
Test CRC EE9B2E8F
Copy CRC EE9B2E8F
Copy OK

Track 4

Filename f:\Torrent\FLAC\Jacques Brel\Grand Jacques [Velours Box Set Remaster 2003]\04 - Le diable (ηa va).wav

Pre-gap length 0:00:03.06

Peak level 97.9 %
Track quality 100.0 %
Test CRC CD6A66A7
Copy CRC CD6A66A7
Copy OK

Track 5

Filename f:\Torrent\FLAC\Jacques Brel\Grand Jacques [Velours Box Set Remaster 2003]\05 - Il peut pleuvoir.wav

Pre-gap length 0:00:02.69

Peak level 86.0 %
Track quality 100.0 %
Test CRC 9777D35E
Copy CRC 9777D35E
Copy OK

Track 6

Filename f:\Torrent\FLAC\Jacques Brel\Grand Jacques [Velours Box Set Remaster 2003]\06 - Il nous faut regarder.wav

Pre-gap length 0:00:03.00

Peak level 95.8 %
Track quality 99.9 %
Test CRC 071550F2
Copy CRC 071550F2
Copy OK

Track 7

Filename f:\Torrent\FLAC\Jacques Brel\Grand Jacques [Velours Box Set Remaster 2003]\07 - Le fou du roi.wav

Pre-gap length 0:00:02.89

Peak level 83.3 %
Track quality 99.9 %
Test CRC A392A9C4
Copy CRC A392A9C4
Copy OK

Track 8

Filename f:\Torrent\FLAC\Jacques Brel\Grand Jacques [Velours Box Set Remaster 2003]\08 - C'est comme ηa.wav

Pre-gap length 0:00:02.89

Peak level 85.3 %
Track quality 100.0 %
Test CRC BA4A42C1
Copy CRC BA4A42C1
Copy OK

Track 9

Filename f:\Torrent\FLAC\Jacques Brel\Grand Jacques [Velours Box Set Remaster 2003]\09 - Sur la place.wav

Pre-gap length 0:00:03.50

Peak level 97.8 %
Track quality 100.0 %
Test CRC 7F0D9E10
Copy CRC 7F0D9E10
Copy OK

Track 10

Filename f:\Torrent\FLAC\Jacques Brel\Grand Jacques [Velours Box Set Remaster 2003]\10 - S'il te faut.wav

Pre-gap length 0:00:03.00

Peak level 89.1 %
Track quality 100.0 %
Test CRC 5DDCB40A
Copy CRC 5DDCB40A
Copy OK

Track 11

Filename f:\Torrent\FLAC\Jacques Brel\Grand Jacques [Velours Box Set Remaster 2003]\11 - La bastille.wav

Pre-gap length 0:00:03.30

Peak level 98.6 %
Track quality 100.0 %
Test CRC A41A8643
Copy CRC A41A8643
Copy OK

Track 12

Filename f:\Torrent\FLAC\Jacques Brel\Grand Jacques [Velours Box Set Remaster 2003]\12 - Priθre paοenne.wav

Pre-gap length 0:00:03.10

Peak level 100.0 %
Track quality 100.0 %
Test CRC A3789C9D
Copy CRC A3789C9D
Copy OK

Track 13

Filename f:\Torrent\FLAC\Jacques Brel\Grand Jacques [Velours Box Set Remaster 2003]\13 - Il y a.wav

Pre-gap length 0:00:03.02

Peak level 97.2 %
Track quality 100.0 %
Test CRC 4503DC8D
Copy CRC 4503DC8D
Copy OK

Track 14

Filename f:\Torrent\FLAC\Jacques Brel\Grand Jacques [Velours Box Set Remaster 2003]\14 - La foire.wav

Pre-gap length 0:00:02.73

Peak level 97.9 %
Track quality 100.0 %
Test CRC A4C2AA2B
Copy CRC A4C2AA2B
Copy OK

Track 15

Filename f:\Torrent\FLAC\Jacques Brel\Grand Jacques [Velours Box Set Remaster 2003]\15 - Sur la place.wav

Pre-gap length 0:00:01.93

Peak level 97.7 %
Track quality 100.0 %
Test CRC 36DDD1B7
Copy CRC 36DDD1B7
Copy OK

No errors occurred

End of status report

Exact Audio Copy V0.99 prebeta 4 from 23. January 2008

EAC extraction logfile from 27. May 2010, 13:31

Jacques Brel / Quand On N'a Que L'amour [Velours Box Set Remaster 2003]

Used drive : PLEXTOR DVDR PX-750A Adapter: 7 ID: 0

Read mode : Secure
Utilize accurate stream : Yes
Defeat audio cache : Yes
Make use of C2 pointers : No

Read offset correction : 102
Overread into Lead-In and Lead-Out : No
Fill up missing offset samples with silence : Yes
Delete leading and trailing silent blocks : No
Null samples used in CRC calculations : Yes
Used interface : Native Win32 interface for Win NT & 2000
Gap handling : Appended to previous track

Used output format : User Defined Encoder
Selected bitrate : 1024 kBit/s
Quality : High
Add ID3 tag : No
Command line compressor : C:\Program Files\FLAC\flac.exe
Additional command line options : -V -8 -T "artist=%a" -T "title=%t" -T "album=%g" -T "date=%y" -T "tracknumber=%n" -T "genre=%m" %s


TOC of the extracted CD

Track | Start | Length | Start sector | End sector
––––––––––––––––––––––––––––-
1 | 0:00.00 | 2:27.32 | 0 | 11056
2 | 2:27.32 | 1:49.70 | 11057 | 19301
3 | 4:17.27 | 2:53.68 | 19302 | 32344
4 | 7:11.20 | 2:21.45 | 32345 | 42964
5 | 9:32.65 | 2:28.05 | 42965 | 54069
6 | 12:00.70 | 4:27.62 | 54070 | 74156
7 | 16:28.57 | 2:21.68 | 74157 | 84799
8 | 18:50.50 | 2:47.22 | 84800 | 97346
9 | 21:37.72 | 2:54.63 | 97347 | 110459
10 | 24:32.60 | 1:52.07 | 110460 | 118866
11 | 26:24.67 | 2:32.58 | 118867 | 130324


Track 1

Filename f:\Torrent\FLAC\Jacques Brel\Quand On N'a Que L'amour [Velours Box Set Remaster 2003]\01 - Quand on n'a que l'amour.wav

Pre-gap length 0:00:02.00

Peak level 98.3 %
Track quality 99.9 %
Test CRC E5284416
Copy CRC E5284416
Copy OK

Track 2

Filename f:\Torrent\FLAC\Jacques Brel\Quand On N'a Que L'amour [Velours Box Set Remaster 2003]\02 - Qu'avons-nous fait, bonnes gens .wav

Pre-gap length 0:00:03.13

Peak level 87.7 %
Track quality 99.9 %
Test CRC B957D8A1
Copy CRC B957D8A1
Copy OK

Track 3

Filename f:\Torrent\FLAC\Jacques Brel\Quand On N'a Que L'amour [Velours Box Set Remaster 2003]\03 - Les pieds dans le ruisseau.wav

Pre-gap length 0:00:02.76

Peak level 73.7 %
Track quality 100.0 %
Test CRC 57813566
Copy CRC 57813566
Copy OK

Track 4

Filename f:\Torrent\FLAC\Jacques Brel\Quand On N'a Que L'amour [Velours Box Set Remaster 2003]\04 - Pardons.wav

Pre-gap length 0:00:01.46

Peak level 87.4 %
Track quality 100.0 %
Test CRC 36BA4C90
Copy CRC 36BA4C90
Copy OK

Track 5

Filename f:\Torrent\FLAC\Jacques Brel\Quand On N'a Que L'amour [Velours Box Set Remaster 2003]\05 - La bourrιe du cιlibataire.wav

Pre-gap length 0:00:02.90

Peak level 87.5 %
Track quality 99.9 %
Test CRC D0819CF4
Copy CRC D0819CF4
Copy OK

Track 6

Filename f:\Torrent\FLAC\Jacques Brel\Quand On N'a Que L'amour [Velours Box Set Remaster 2003]\06 - L'air de la bκtise.wav

Pre-gap length 0:00:02.93

Peak level 97.5 %
Track quality 100.0 %
Test CRC 65EF63C0
Copy CRC 65EF63C0
Copy OK

Track 7

Filename f:\Torrent\FLAC\Jacques Brel\Quand On N'a Que L'amour [Velours Box Set Remaster 2003]\07 - Saint-Pierre.wav

Pre-gap length 0:00:03.62

Peak level 87.4 %
Track quality 100.0 %
Test CRC CE778046
Copy CRC CE778046
Copy OK

Track 8

Filename f:\Torrent\FLAC\Jacques Brel\Quand On N'a Que L'amour [Velours Box Set Remaster 2003]\08 - J'en appelle.wav

Pre-gap length 0:00:03.33

Peak level 98.2 %
Track quality 100.0 %
Test CRC 549CC855
Copy CRC 549CC855
Copy OK

Track 9

Filename f:\Torrent\FLAC\Jacques Brel\Quand On N'a Que L'amour [Velours Box Set Remaster 2003]\09 - Heureux.wav

Pre-gap length 0:00:02.93

Peak level 98.2 %
Track quality 100.0 %
Test CRC D487C77C
Copy CRC D487C77C
Copy OK

Track 10

Filename f:\Torrent\FLAC\Jacques Brel\Quand On N'a Que L'amour [Velours Box Set Remaster 2003]\10 - Les blιs.wav

Pre-gap length 0:00:03.33

Peak level 87.8 %
Track quality 100.0 %
Test CRC B4B7491A
Copy CRC B4B7491A
Copy OK

Track 11

Filename f:\Torrent\FLAC\Jacques Brel\Quand On N'a Que L'amour [Velours Box Set Remaster 2003]\11 - Quand on n'a que l'amour.wav

Pre-gap length 0:00:04.29

Peak level 98.2 %
Track quality 99.9 %
Test CRC 7B55806F
Copy CRC 7B55806F
Copy OK

No errors occurred

End of status report

Exact Audio Copy V0.99 prebeta 4 from 23. January 2008

EAC extraction logfile from 27. May 2010, 12:50

Jacques Brel / Au printemps [Velours Box Set Remaster 2003]

Used drive : PLEXTOR DVDR PX-750A Adapter: 7 ID: 0

Read mode : Secure
Utilize accurate stream : Yes
Defeat audio cache : Yes
Make use of C2 pointers : No

Read offset correction : 102
Overread into Lead-In and Lead-Out : No
Fill up missing offset samples with silence : Yes
Delete leading and trailing silent blocks : No
Null samples used in CRC calculations : Yes
Used interface : Native Win32 interface for Win NT & 2000
Gap handling : Appended to previous track

Used output format : User Defined Encoder
Selected bitrate : 1024 kBit/s
Quality : High
Add ID3 tag : No
Command line compressor : C:\Program Files\FLAC\flac.exe
Additional command line options : -V -8 -T "artist=%a" -T "title=%t" -T "album=%g" -T "date=%y" -T "tracknumber=%n" -T "genre=%m" %s


TOC of the extracted CD

Track | Start | Length | Start sector | End sector
––––––––––––––––––––––––––––-
1 | 0:00.00 | 2:35.27 | 0 | 11651
2 | 2:35.27 | 2:43.38 | 11652 | 23914
3 | 5:18.65 | 3:10.65 | 23915 | 38229
4 | 8:29.55 | 3:14.27 | 38230 | 52806
5 | 11:44.07 | 3:47.48 | 52807 | 69879
6 | 15:31.55 | 3:00.27 | 69880 | 83406
7 | 18:32.07 | 1:37.33 | 83407 | 90714
8 | 20:09.40 | 2:26.35 | 90715 | 101699
9 | 22:36.00 | 2:13.35 | 101700 | 111709
10 | 24:49.35 | 2:47.42 | 111710 | 124276
11 | 27:37.02 | 2:23.43 | 124277 | 135044
12 | 30:00.45 | 2:39.60 | 135045 | 147029
13 | 32:40.30 | 1:28.60 | 147030 | 153689


Track 1

Filename f:\Torrent\FLAC\Jacques Brel\Au printemps [Velours Box Set Remaster 2003]\01 - Demain l'on se marie (la chanson des fiancιs).wav

Pre-gap length 0:00:02.00

Peak level 97.4 %
Track quality 100.0 %
Test CRC 416DB89F
Copy CRC 416DB89F
Copy OK

Track 2

Filename f:\Torrent\FLAC\Jacques Brel\Au printemps [Velours Box Set Remaster 2003]\02 - Au printemps.wav

Pre-gap length 0:00:02.66

Peak level 89.1 %
Track quality 100.0 %
Test CRC 6B2C2766
Copy CRC 6B2C2766
Copy OK

Track 3

Filename f:\Torrent\FLAC\Jacques Brel\Au printemps [Velours Box Set Remaster 2003]\03 - Je ne sais pas.wav

Pre-gap length 0:00:03.10

Peak level 98.8 %
Track quality 100.0 %
Test CRC 145ED685
Copy CRC 145ED685
Copy OK

Track 4

Filename f:\Torrent\FLAC\Jacques Brel\Au printemps [Velours Box Set Remaster 2003]\04 - Le colonel.wav

Pre-gap length 0:00:02.73

Peak level 98.5 %
Track quality 100.0 %
Test CRC 83F57639
Copy CRC 83F57639
Copy OK

Track 5

Filename f:\Torrent\FLAC\Jacques Brel\Au printemps [Velours Box Set Remaster 2003]\05 - Dors ma mie.wav

Pre-gap length 0:00:02.80

Peak level 99.1 %
Track quality 100.0 %
Test CRC 71EC8219
Copy CRC 71EC8219
Copy OK

Track 6

Filename f:\Torrent\FLAC\Jacques Brel\Au printemps [Velours Box Set Remaster 2003]\06 - La lumiθre jaillira.wav

Pre-gap length 0:00:03.90

Peak level 98.3 %
Track quality 100.0 %
Test CRC 36EE2D29
Copy CRC 36EE2D29
Copy OK

Track 7

Filename f:\Torrent\FLAC\Jacques Brel\Au printemps [Velours Box Set Remaster 2003]\07 - Dites, si c'ιtait vrai (poθme).wav

Pre-gap length 0:00:02.86

Peak level 70.0 %
Track quality 100.0 %
Test CRC 83AD20D2
Copy CRC 83AD20D2
Copy OK

Track 8

Filename f:\Torrent\FLAC\Jacques Brel\Au printemps [Velours Box Set Remaster 2003]\08 - L'homme dans la citι .wav

Pre-gap length 0:00:02.97

Peak level 99.2 %
Track quality 100.0 %
Test CRC 48B7ADA9
Copy CRC 48B7ADA9
Copy OK

Track 9

Filename f:\Torrent\FLAC\Jacques Brel\Au printemps [Velours Box Set Remaster 2003]\09 - Litanies pour un retour.wav

Pre-gap length 0:00:03.20

Peak level 98.7 %
Track quality 99.9 %
Test CRC 54FB0728
Copy CRC 54FB0728
Copy OK

Track 10

Filename f:\Torrent\FLAC\Jacques Brel\Au printemps [Velours Box Set Remaster 2003]\10 - Voici.wav

Pre-gap length 0:00:03.73

Peak level 98.7 %
Track quality 100.0 %
Test CRC B04DBFE2
Copy CRC B04DBFE2
Copy OK

Track 11

Filename f:\Torrent\FLAC\Jacques Brel\Au printemps [Velours Box Set Remaster 2003]\11 - Voir.wav

Pre-gap length 0:00:03.06

Peak level 97.5 %
Track quality 100.0 %
Test CRC 078F8499
Copy CRC 078F8499
Copy OK

Track 12

Filename f:\Torrent\FLAC\Jacques Brel\Au printemps [Velours Box Set Remaster 2003]\12 - L'aventure.wav

Pre-gap length 0:00:03.00

Peak level 83.4 %
Track quality 100.0 %
Test CRC 8068A00A
Copy CRC 8068A00A
Copy OK

Track 13

Filename f:\Torrent\FLAC\Jacques Brel\Au printemps [Velours Box Set Remaster 2003]\13 - Dites, si c'ιtait vrai (poθme).wav

Pre-gap length 0:00:03.46

Peak level 95.8 %
Track quality 100.0 %
Test CRC AA8F9144
Copy CRC AA8F9144
Copy OK

No errors occurred

End of status report

Exact Audio Copy V0.99 prebeta 4 from 23. January 2008

EAC extraction logfile from 27. May 2010, 12:47

Jacques Brel / La Valse ΰ Mille Temps [Velours Box Set Remaster 2003]

Used drive : PIONEER DVD-RW DVR-109 Adapter: 0 ID: 0

Read mode : Secure
Utilize accurate stream : Yes
Defeat audio cache : Yes
Make use of C2 pointers : No

Read offset correction : 48
Overread into Lead-In and Lead-Out : No
Fill up missing offset samples with silence : Yes
Delete leading and trailing silent blocks : No
Null samples used in CRC calculations : Yes
Used interface : Native Win32 interface for Win NT & 2000
Gap handling : Appended to previous track

Used output format : User Defined Encoder
Selected bitrate : 1024 kBit/s
Quality : High
Add ID3 tag : No
Command line compressor : C:\Program Files\FLAC\flac.exe
Additional command line options : -V -8 -T "artist=%a" -T "title=%t" -T "album=%g" -T "date=%y" -T "tracknumber=%n" -T "genre=%m" %s


TOC of the extracted CD

Track | Start | Length | Start sector | End sector
––––––––––––––––––––––––––––-
1 | 0:00.00 | 3:52.00 | 0 | 17399
2 | 3:52.00 | 3:31.05 | 17400 | 33229
3 | 7:23.05 | 2:39.27 | 33230 | 45181
4 | 10:02.32 | 2:22.05 | 45182 | 55836
5 | 12:24.37 | 3:52.40 | 55837 | 73276
6 | 16:17.02 | 2:37.70 | 73277 | 85121
7 | 18:54.72 | 3:14.65 | 85122 | 99736
8 | 22:09.62 | 2:54.10 | 99737 | 112796
9 | 25:03.72 | 2:39.65 | 112797 | 124786
10 | 27:43.62 | 2:59.55 | 124787 | 138266


Track 1

Filename f:\Torrent\FLAC\Jacques Brel\La Valse ΰ Mille Temps [Velours Box Set Remaster 2003]\01 - La valse ΰ  mille temps.wav

Pre-gap length 0:00:02.00

Peak level 93.5 %
Track quality 100.0 %
Test CRC E86A0340
Copy CRC E86A0340
Copy OK

Track 2

Filename f:\Torrent\FLAC\Jacques Brel\La Valse ΰ Mille Temps [Velours Box Set Remaster 2003]\02 - Seul.wav

Pre-gap length 0:00:03.04

Peak level 100.0 %
Track quality 100.0 %
Test CRC 455ECD36
Copy CRC 455ECD36
Copy OK

Track 3

Filename f:\Torrent\FLAC\Jacques Brel\La Valse ΰ Mille Temps [Velours Box Set Remaster 2003]\03 - La dame patronnesse.wav

Pre-gap length 0:00:02.90

Peak level 97.8 %
Track quality 100.0 %
Test CRC 8A84EBBE
Copy CRC 8A84EBBE
Copy OK

Track 4

Filename f:\Torrent\FLAC\Jacques Brel\La Valse ΰ Mille Temps [Velours Box Set Remaster 2003]\04 - Je t'aime.wav

Pre-gap length 0:00:03.06

Peak level 97.8 %
Track quality 100.0 %
Test CRC 41F98B04
Copy CRC 41F98B04
Copy OK

Track 5

Filename f:\Torrent\FLAC\Jacques Brel\La Valse ΰ Mille Temps [Velours Box Set Remaster 2003]\05 - Ne me quitte pas.wav

Pre-gap length 0:00:03.16

Peak level 100.0 %
Track quality 100.0 %
Test CRC B5B50BCA
Copy CRC B5B50BCA
Copy OK

Track 6

Filename f:\Torrent\FLAC\Jacques Brel\La Valse ΰ Mille Temps [Velours Box Set Remaster 2003]\06 - Les flamandes.wav

Pre-gap length 0:00:03.13

Peak level 98.0 %
Track quality 100.0 %
Test CRC 832CB987
Copy CRC 832CB987
Copy OK

Track 7

Filename f:\Torrent\FLAC\Jacques Brel\La Valse ΰ Mille Temps [Velours Box Set Remaster 2003]\07 - Isabelle.wav

Pre-gap length 0:00:02.49

Peak level 98.1 %
Track quality 100.0 %
Test CRC 7C5D14C4
Copy CRC 7C5D14C4
Copy OK

Track 8

Filename f:\Torrent\FLAC\Jacques Brel\La Valse ΰ Mille Temps [Velours Box Set Remaster 2003]\08 - La mort.wav

Pre-gap length 0:00:03.62

Peak level 97.4 %
Track quality 100.0 %
Test CRC 566F06AD
Copy CRC 566F06AD
Copy OK

Track 9

Filename f:\Torrent\FLAC\Jacques Brel\La Valse ΰ Mille Temps [Velours Box Set Remaster 2003]\09 - La tendresse.wav

Pre-gap length 0:00:03.66

Peak level 87.4 %
Track quality 100.0 %
Test CRC BFA456BE
Copy CRC BFA456BE
Copy OK

Track 10

Filename f:\Torrent\FLAC\Jacques Brel\La Valse ΰ Mille Temps [Velours Box Set Remaster 2003]\10 - La colombe.wav

Pre-gap length 0:00:03.46

Peak level 82.6 %
Track quality 100.0 %
Test CRC 8739A880
Copy CRC 8739A880
Copy OK

No errors occurred

End of status report

Exact Audio Copy V0.99 prebeta 4 from 23. January 2008

EAC extraction logfile from 27. May 2010, 15:44

Jacques Brel / Marieke [Velours Box Set Remaster 2003]

Used drive : PLEXTOR DVDR PX-750A Adapter: 7 ID: 0

Read mode : Secure
Utilize accurate stream : Yes
Defeat audio cache : Yes
Make use of C2 pointers : No

Read offset correction : 102
Overread into Lead-In and Lead-Out : No
Fill up missing offset samples with silence : Yes
Delete leading and trailing silent blocks : No
Null samples used in CRC calculations : Yes
Used interface : Native Win32 interface for Win NT & 2000
Gap handling : Appended to previous track

Used output format : User Defined Encoder
Selected bitrate : 1024 kBit/s
Quality : High
Add ID3 tag : No
Command line compressor : C:\Program Files\FLAC\flac.exe
Additional command line options : -V -8 -T "artist=%a" -T "title=%t" -T "album=%g" -T "date=%y" -T "tracknumber=%n" -T "genre=%m" %s


TOC of the extracted CD

Track | Start | Length | Start sector | End sector
––––––––––––––––––––––––––––-
1 | 0:00.00 | 2:46.30 | 0 | 12479
2 | 2:46.30 | 3:09.17 | 12480 | 26671
3 | 5:55.47 | 3:03.00 | 26672 | 40396
4 | 8:58.47 | 3:07.60 | 40397 | 54481
5 | 12:06.32 | 3:01.23 | 54482 | 68079
6 | 15:07.55 | 3:33.57 | 68080 | 84111
7 | 18:41.37 | 4:04.68 | 84112 | 102479
8 | 22:46.30 | 2:39.72 | 102480 | 114476
9 | 25:26.27 | 3:06.10 | 114477 | 128436
10 | 28:32.37 | 2:52.08 | 128437 | 141344
11 | 31:24.45 | 4:29.07 | 141345 | 161526
12 | 35:53.52 | 3:01.55 | 161527 | 175156
13 | 38:55.32 | 3:03.45 | 175157 | 188926
14 | 41:59.02 | 4:24.60 | 188927 | 208786


Track 1

Filename f:\Torrent\FLAC\Jacques Brel\Marieke [Velours Box Set Remaster 2003]\01 - Marieke.wav

Pre-gap length 0:00:02.00

Peak level 96.7 %
Track quality 100.0 %
Test CRC 3376CE7C
Copy CRC 3376CE7C
Copy OK

Track 2

Filename f:\Torrent\FLAC\Jacques Brel\Marieke [Velours Box Set Remaster 2003]\02 - Le moribond.wav

Pre-gap length 0:00:02.46

Peak level 82.6 %
Track quality 100.0 %
Test CRC 34AC7FFC
Copy CRC 34AC7FFC
Copy OK

Track 3

Filename f:\Torrent\FLAC\Jacques Brel\Marieke [Velours Box Set Remaster 2003]\03 - Vivre debout.wav

Pre-gap length 0:00:03.60

Peak level 99.7 %
Track quality 100.0 %
Test CRC 8D00CE8F
Copy CRC 8D00CE8F
Copy OK

Track 4

Filename f:\Torrent\FLAC\Jacques Brel\Marieke [Velours Box Set Remaster 2003]\04 - On n'oublie rien.wav

Pre-gap length 0:00:03.13

Peak level 87.1 %
Track quality 100.0 %
Test CRC E4059058
Copy CRC E4059058
Copy OK

Track 5

Filename f:\Torrent\FLAC\Jacques Brel\Marieke [Velours Box Set Remaster 2003]\05 - Clara.wav

Pre-gap length 0:00:03.09

Peak level 86.9 %
Track quality 99.9 %
Test CRC 2A6EC468
Copy CRC 2A6EC468
Copy OK

Track 6

Filename f:\Torrent\FLAC\Jacques Brel\Marieke [Velours Box Set Remaster 2003]\06 - Le prochain amour.wav

Pre-gap length 0:00:02.04

Peak level 81.5 %
Track quality 100.0 %
Test CRC D5AD0258
Copy CRC D5AD0258
Copy OK

Track 7

Filename f:\Torrent\FLAC\Jacques Brel\Marieke [Velours Box Set Remaster 2003]\07 - L'ivrogne.wav

Pre-gap length 0:00:03.02

Peak level 78.1 %
Track quality 100.0 %
Test CRC B9CE9C1E
Copy CRC B9CE9C1E
Copy OK

Track 8

Filename f:\Torrent\FLAC\Jacques Brel\Marieke [Velours Box Set Remaster 2003]\08 - Les prιnoms de Paris.wav

Pre-gap length 0:00:03.26

Peak level 86.4 %
Track quality 100.0 %
Test CRC 66E05FEA
Copy CRC 66E05FEA
Copy OK

Track 9

Filename f:\Torrent\FLAC\Jacques Brel\Marieke [Velours Box Set Remaster 2003]\09 - Les singes.wav

Pre-gap length 0:00:03.46

Peak level 87.0 %
Track quality 100.0 %
Test CRC 91C2B7EF
Copy CRC 91C2B7EF
Copy OK

Track 10

Filename f:\Torrent\FLAC\Jacques Brel\Marieke [Velours Box Set Remaster 2003]\10 - Marieke (version flamande).wav

Pre-gap length 0:00:03.22

Peak level 81.8 %
Track quality 100.0 %
Test CRC B88285C8
Copy CRC B88285C8
Copy OK

Track 11

Filename f:\Torrent\FLAC\Jacques Brel\Marieke [Velours Box Set Remaster 2003]\11 - Laat me niet alleen (ne me quitte pas).wav

Pre-gap length 0:00:01.97

Peak level 75.3 %
Track quality 100.0 %
Test CRC DAA04B40
Copy CRC DAA04B40
Copy OK

Track 12

Filename f:\Torrent\FLAC\Jacques Brel\Marieke [Velours Box Set Remaster 2003]\12 - De apen (les singes).wav

Pre-gap length 0:00:03.22

Peak level 83.1 %
Track quality 100.0 %
Test CRC 02A74196
Copy CRC 02A74196
Copy OK

Track 13

Filename f:\Torrent\FLAC\Jacques Brel\Marieke [Velours Box Set Remaster 2003]\13 - Men vergeet niets.wav

Pre-gap length 0:00:03.29

Peak level 79.3 %
Track quality 99.9 %
Test CRC 6C19D971
Copy CRC 6C19D971
Copy OK

Track 14

Filename f:\Torrent\FLAC\Jacques Brel\Marieke [Velours Box Set Remaster 2003]\14 - Le prochain amour.wav

Pre-gap length 0:00:03.60

Peak level 98.0 %
Track quality 100.0 %
Test CRC DEAB5630
Copy CRC DEAB5630
Copy OK

No errors occurred

End of status report

Exact Audio Copy V0.99 prebeta 4 from 23. January 2008

EAC extraction logfile from 27. May 2010, 14:55

Jacques Brel / Enregistrement Public ΰ l'Olympia 1961 [Velours Box Set Remaster 2003]

Used drive : PIONEER DVD-RW DVR-109 Adapter: 0 ID: 0

Read mode : Secure
Utilize accurate stream : Yes
Defeat audio cache : Yes
Make use of C2 pointers : No

Read offset correction : 48
Overread into Lead-In and Lead-Out : No
Fill up missing offset samples with silence : Yes
Delete leading and trailing silent blocks : No
Null samples used in CRC calculations : Yes
Used interface : Native Win32 interface for Win NT & 2000
Gap handling : Appended to previous track

Used output format : User Defined Encoder
Selected bitrate : 1024 kBit/s
Quality : High
Add ID3 tag : No
Command line compressor : C:\Program Files\FLAC\flac.exe
Additional command line options : -V -8 -T "artist=%a" -T "title=%t" -T "album=%g" -T "date=%y" -T "tracknumber=%n" -T "genre=%m" %s


TOC of the extracted CD

Track | Start | Length | Start sector | End sector
––––––––––––––––––––––––––––-
1 | 0:00.00 | 2:31.47 | 0 | 11371
2 | 2:31.47 | 2:33.40 | 11372 | 22886
3 | 5:05.12 | 3:54.58 | 22887 | 40494
4 | 8:59.70 | 2:36.50 | 40495 | 52244
5 | 11:36.45 | 2:46.70 | 52245 | 64764
6 | 14:23.40 | 3:06.10 | 64765 | 78724
7 | 17:29.50 | 2:50.12 | 78725 | 91486
8 | 20:19.62 | 3:39.48 | 91487 | 107959
9 | 23:59.35 | 2:46.50 | 107960 | 120459
10 | 26:46.10 | 3:02.37 | 120460 | 134146
11 | 29:48.47 | 4:05.35 | 134147 | 152556
12 | 33:54.07 | 3:47.10 | 152557 | 169591
13 | 37:41.17 | 3:56.05 | 169592 | 187296
14 | 41:37.22 | 2:50.63 | 187297 | 200109
15 | 44:28.10 | 3:45.17 | 200110 | 217001


Track 1

Filename f:\Torrent\FLAC\Jacques Brel\Enregistrement Public ΰ l'Olympia 1961 [Velours Box Set Remaster 2003]\01 - Introduction , Les prιnoms de Paris.wav

Pre-gap length 0:00:02.00

Peak level 95.0 %
Track quality 100.0 %
Test CRC 64D53650
Copy CRC 64D53650
Copy OK

Track 2

Filename f:\Torrent\FLAC\Jacques Brel\Enregistrement Public ΰ l'Olympia 1961 [Velours Box Set Remaster 2003]\02 - Les bourgeois.wav

Peak level 95.8 %
Track quality 100.0 %
Test CRC 2C803A31
Copy CRC 2C803A31
Copy OK

Track 3

Filename f:\Torrent\FLAC\Jacques Brel\Enregistrement Public ΰ l'Olympia 1961 [Velours Box Set Remaster 2003]\03 - Les paumιs du petit matin.wav

Peak level 95.8 %
Track quality 99.9 %
Test CRC AE83E1E0
Copy CRC AE83E1E0
Copy OK

Track 4

Filename f:\Torrent\FLAC\Jacques Brel\Enregistrement Public ΰ l'Olympia 1961 [Velours Box Set Remaster 2003]\04 - Les Flamandes.wav

Peak level 96.3 %
Track quality 100.0 %
Test CRC A1A3DD59
Copy CRC A1A3DD59
Copy OK

Track 5

Filename f:\Torrent\FLAC\Jacques Brel\Enregistrement Public ΰ l'Olympia 1961 [Velours Box Set Remaster 2003]\05 - La statue.wav

Peak level 94.5 %
Track quality 100.0 %
Test CRC E82BD4B3
Copy CRC E82BD4B3
Copy OK

Track 6

Filename f:\Torrent\FLAC\Jacques Brel\Enregistrement Public ΰ l'Olympia 1961 [Velours Box Set Remaster 2003]\06 - Zangra.wav

Peak level 97.1 %
Track quality 100.0 %
Test CRC FC1633DE
Copy CRC FC1633DE
Copy OK

Track 7

Filename f:\Torrent\FLAC\Jacques Brel\Enregistrement Public ΰ l'Olympia 1961 [Velours Box Set Remaster 2003]\07 - Marieke.wav

Peak level 95.9 %
Track quality 100.0 %
Test CRC 98FCCAB4
Copy CRC 98FCCAB4
Copy OK

Track 8

Filename f:\Torrent\FLAC\Jacques Brel\Enregistrement Public ΰ l'Olympia 1961 [Velours Box Set Remaster 2003]\08 - Les biches.wav

Peak level 90.8 %
Track quality 100.0 %
Test CRC 57B18464
Copy CRC 57B18464
Copy OK

Track 9

Filename f:\Torrent\FLAC\Jacques Brel\Enregistrement Public ΰ l'Olympia 1961 [Velours Box Set Remaster 2003]\09 - Madeleine.wav

Peak level 97.0 %
Track quality 100.0 %
Test CRC ABC9303D
Copy CRC ABC9303D
Copy OK

Track 10

Filename f:\Torrent\FLAC\Jacques Brel\Enregistrement Public ΰ l'Olympia 1961 [Velours Box Set Remaster 2003]\10 - Les singes.wav

Peak level 98.4 %
Track quality 100.0 %
Test CRC 95FFAE2B
Copy CRC 95FFAE2B
Copy OK

Track 11

Filename f:\Torrent\FLAC\Jacques Brel\Enregistrement Public ΰ l'Olympia 1961 [Velours Box Set Remaster 2003]\11 - L'ivrogne.wav

Peak level 97.0 %
Track quality 100.0 %
Test CRC 611D3FAC
Copy CRC 611D3FAC
Copy OK

Track 12

Filename f:\Torrent\FLAC\Jacques Brel\Enregistrement Public ΰ l'Olympia 1961 [Velours Box Set Remaster 2003]\12 - La valse α mille temps.wav

Peak level 97.9 %
Track quality 99.9 %
Test CRC E1F93CBA
Copy CRC E1F93CBA
Copy OK

Track 13

Filename f:\Torrent\FLAC\Jacques Brel\Enregistrement Public ΰ l'Olympia 1961 [Velours Box Set Remaster 2003]\13 - Ne me quitte pas.wav

Peak level 88.3 %
Track quality 100.0 %
Test CRC 0A7268C5
Copy CRC 0A7268C5
Copy OK

Track 14

Filename f:\Torrent\FLAC\Jacques Brel\Enregistrement Public ΰ l'Olympia 1961 [Velours Box Set Remaster 2003]\14 - Le moribond.wav

Peak level 94.3 %
Track quality 100.0 %
Test CRC 99175121
Copy CRC 99175121
Copy OK

Track 15

Filename f:\Torrent\FLAC\Jacques Brel\Enregistrement Public ΰ l'Olympia 1961 [Velours Box Set Remaster 2003]\15 - Quand on n'a que l'amour.wav

Peak level 96.5 %
Track quality 100.0 %
Test CRC 2D7D16F7
Copy CRC 2D7D16F7
Copy OK

No errors occurred

End of status report

Exact Audio Copy V0.99 prebeta 4 from 23. January 2008

EAC extraction logfile from 27. May 2010, 14:50

Jacques Brel / Les Bourgeois [Velours Box Set Remaster 2003]

Used drive : PLEXTOR DVDR PX-750A Adapter: 7 ID: 0

Read mode : Secure
Utilize accurate stream : Yes
Defeat audio cache : Yes
Make use of C2 pointers : No

Read offset correction : 102
Overread into Lead-In and Lead-Out : No
Fill up missing offset samples with silence : Yes
Delete leading and trailing silent blocks : No
Null samples used in CRC calculations : Yes
Used interface : Native Win32 interface for Win NT & 2000
Gap handling : Appended to previous track

Used output format : User Defined Encoder
Selected bitrate : 1024 kBit/s
Quality : High
Add ID3 tag : No
Command line compressor : C:\Program Files\FLAC\flac.exe
Additional command line options : -V -8 -T "artist=%a" -T "title=%t" -T "album=%g" -T "date=%y" -T "tracknumber=%n" -T "genre=%m" %s


TOC of the extracted CD

Track | Start | Length | Start sector | End sector
––––––––––––––––––––––––––––-
1 | 0:00.00 | 2:55.55 | 0 | 13179
2 | 2:55.55 | 4:19.30 | 13180 | 32634
3 | 7:15.10 | 2:44.37 | 32635 | 44971
4 | 9:59.47 | 3:21.18 | 44972 | 60064
5 | 13:20.65 | 3:44.45 | 60065 | 76909
6 | 17:05.35 | 2:42.17 | 76910 | 89076
7 | 19:47.52 | 3:01.43 | 89077 | 102694
8 | 22:49.20 | 2:51.47 | 102695 | 115566
9 | 25:40.67 | 5:04.08 | 115567 | 138374
10 | 30:45.00 | 2:40.00 | 138375 | 150374
11 | 33:25.00 | 3:20.37 | 150375 | 165411
12 | 36:45.37 | 2:43.53 | 165412 | 177689
13 | 39:29.15 | 2:57.65 | 177690 | 191029
14 | 42:27.05 | 3:32.05 | 191030 | 206934


Track 1

Filename f:\Torrent\FLAC\Jacques Brel\Les Bourgeois [Velours Box Set Remaster 2003]\01 - Les bourgeois.wav

Pre-gap length 0:00:02.00

Peak level 98.9 %
Track quality 100.0 %
Test CRC 2C4A02EC
Copy CRC 2C4A02EC
Copy OK

Track 2

Filename f:\Torrent\FLAC\Jacques Brel\Les Bourgeois [Velours Box Set Remaster 2003]\02 - Les paumιs du petit matin.wav

Pre-gap length 0:00:03.33

Peak level 99.1 %
Track quality 100.0 %
Test CRC 2E39D5FD
Copy CRC 2E39D5FD
Copy OK

Track 3

Filename f:\Torrent\FLAC\Jacques Brel\Les Bourgeois [Velours Box Set Remaster 2003]\03 - Le plat pays.wav

Pre-gap length 0:00:02.80

Peak level 80.5 %
Track quality 100.0 %
Test CRC 55A00113
Copy CRC 55A00113
Copy OK

Track 4

Filename f:\Torrent\FLAC\Jacques Brel\Les Bourgeois [Velours Box Set Remaster 2003]\04 - Zangra.wav

Pre-gap length 0:00:02.76

Peak level 99.3 %
Track quality 99.9 %
Test CRC 94F3AC53
Copy CRC 94F3AC53
Copy OK

Track 5

Filename f:\Torrent\FLAC\Jacques Brel\Les Bourgeois [Velours Box Set Remaster 2003]\05 - Une ξle.wav

Pre-gap length 0:00:03.17

Peak level 99.0 %
Track quality 100.0 %
Test CRC DBD339C5
Copy CRC DBD339C5
Copy OK

Track 6

Filename f:\Torrent\FLAC\Jacques Brel\Les Bourgeois [Velours Box Set Remaster 2003]\06 - Madeleine.wav

Pre-gap length 0:00:02.70

Peak level 87.9 %
Track quality 100.0 %
Test CRC F4C74221
Copy CRC F4C74221
Copy OK

Track 7

Filename f:\Torrent\FLAC\Jacques Brel\Les Bourgeois [Velours Box Set Remaster 2003]\07 - Bruxelles.wav

Pre-gap length 0:00:02.89

Peak level 99.3 %
Track quality 100.0 %
Test CRC 89CA77BE
Copy CRC 89CA77BE
Copy OK

Track 8

Filename f:\Torrent\FLAC\Jacques Brel\Les Bourgeois [Velours Box Set Remaster 2003]\08 - Chanson sans parole.wav

Pre-gap length 0:00:03.17

Peak level 91.3 %
Track quality 100.0 %
Test CRC 519B8380
Copy CRC 519B8380
Copy OK

Track 9

Filename f:\Torrent\FLAC\Jacques Brel\Les Bourgeois [Velours Box Set Remaster 2003]\09 - Les biches.wav

Pre-gap length 0:00:02.56

Peak level 88.6 %
Track quality 100.0 %
Test CRC 755449D5
Copy CRC 755449D5
Copy OK

Track 10

Filename f:\Torrent\FLAC\Jacques Brel\Les Bourgeois [Velours Box Set Remaster 2003]\10 - Le Caporal Casse-Pompon.wav

Pre-gap length 0:00:03.06

Peak level 99.3 %
Track quality 100.0 %
Test CRC E7BC3748
Copy CRC E7BC3748
Copy OK

Track 11

Filename f:\Torrent\FLAC\Jacques Brel\Les Bourgeois [Velours Box Set Remaster 2003]\11 - La statue.wav

Pre-gap length 0:00:02.93

Peak level 99.3 %
Track quality 100.0 %
Test CRC 2C21D982
Copy CRC 2C21D982
Copy OK

Track 12

Filename f:\Torrent\FLAC\Jacques Brel\Les Bourgeois [Velours Box Set Remaster 2003]\12 - Rosa.wav

Pre-gap length 0:00:03.53

Peak level 98.8 %
Track quality 99.9 %
Test CRC 52284808
Copy CRC 52284808
Copy OK

Track 13

Filename f:\Torrent\FLAC\Jacques Brel\Les Bourgeois [Velours Box Set Remaster 2003]\13 - Il neige sur Liθge (bonus).wav

Pre-gap length 0:00:02.80

Peak level 72.6 %
Track quality 100.0 %
Test CRC 1BC54AD9
Copy CRC 1BC54AD9
Copy OK

Track 14

Filename f:\Torrent\FLAC\Jacques Brel\Les Bourgeois [Velours Box Set Remaster 2003]\14 - Pourquoi faut-il que les hommes s'ennuient (bonus).wav

Pre-gap length 0:00:02.93

Peak level 95.9 %
Track quality 100.0 %
Test CRC 9C7B8C41
Copy CRC 9C7B8C41
Copy OK

No errors occurred

End of status report

Exact Audio Copy V0.99 prebeta 4 from 23. January 2008

EAC extraction logfile from 28. May 2010, 8:41

Jacques Brel / Les Bonbons

Used drive : PIONEER DVD-RW DVR-109 Adapter: 0 ID: 0

Read mode : Secure
Utilize accurate stream : Yes
Defeat audio cache : Yes
Make use of C2 pointers : No

Read offset correction : 48
Overread into Lead-In and Lead-Out : No
Fill up missing offset samples with silence : Yes
Delete leading and trailing silent blocks : No
Null samples used in CRC calculations : Yes
Used interface : Native Win32 interface for Win NT & 2000
Gap handling : Appended to previous track

Used output format : User Defined Encoder
Selected bitrate : 1024 kBit/s
Quality : High
Add ID3 tag : No
Command line compressor : C:\Program Files\FLAC\flac.exe
Additional command line options : -V -8 -T "artist=%a" -T "title=%t" -T "album=%g" -T "date=%y" -T "tracknumber=%n" -T "genre=%m" %s


TOC of the extracted CD

Track | Start | Length | Start sector | End sector
––––––––––––––––––––––––––––-
1 | 0:00.00 | 3:31.15 | 0 | 15839
2 | 3:31.15 | 4:07.12 | 15840 | 34376
3 | 7:38.27 | 3:28.40 | 34377 | 50016
4 | 11:06.67 | 3:28.45 | 50017 | 65661
5 | 14:35.37 | 2:27.50 | 65662 | 76736
6 | 17:03.12 | 3:08.68 | 76737 | 90904
7 | 20:12.05 | 2:21.47 | 90905 | 101526
8 | 22:33.52 | 4:07.53 | 101527 | 120104
9 | 26:41.30 | 4:04.72 | 120105 | 138476
10 | 30:46.27 | 2:58.63 | 138477 | 151889
11 | 33:45.15 | 2:44.07 | 151890 | 164196
12 | 36:29.22 | 2:49.23 | 164197 | 176894
13 | 39:18.45 | 3:48.70 | 176895 | 194064
14 | 43:07.40 | 4:45.30 | 194065 | 215469


Track 1

Filename f:\Torrent\FLAC\Jacques Brel\Les Bonbons\01 - Les bonbons.wav

Pre-gap length 0:00:02.00

Peak level 98.7 %
Track quality 99.9 %
Test CRC 136FB6EC
Copy CRC 136FB6EC
Copy OK

Track 2

Filename f:\Torrent\FLAC\Jacques Brel\Les Bonbons\02 - Les vieux.wav

Pre-gap length 0:00:01.06

Peak level 87.6 %
Track quality 100.0 %
Test CRC 926AE057
Copy CRC 926AE057
Copy OK

Track 3

Filename f:\Torrent\FLAC\Jacques Brel\Les Bonbons\03 - La parlote.wav

Pre-gap length 0:00:02.62

Peak level 98.3 %
Track quality 99.9 %
Test CRC 65FB23F5
Copy CRC 65FB23F5
Copy OK

Track 4

Filename f:\Torrent\FLAC\Jacques Brel\Les Bonbons\04 - Le dernier repas.wav

Pre-gap length 0:00:02.76

Peak level 98.7 %
Track quality 100.0 %
Test CRC 3956C511
Copy CRC 3956C511
Copy OK

Track 5

Filename f:\Torrent\FLAC\Jacques Brel\Les Bonbons\05 - Titine.wav

Pre-gap length 0:00:02.42

Peak level 99.3 %
Track quality 100.0 %
Test CRC 8E66FAFC
Copy CRC 8E66FAFC
Copy OK

Track 6

Filename f:\Torrent\FLAC\Jacques Brel\Les Bonbons\06 - Au suivant.wav

Pre-gap length 0:00:03.00

Peak level 98.9 %
Track quality 99.9 %
Test CRC D03B2918
Copy CRC D03B2918
Copy OK

Track 7

Filename f:\Torrent\FLAC\Jacques Brel\Les Bonbons\07 - Les toros.wav

Pre-gap length 0:00:03.13

Peak level 98.3 %
Track quality 100.0 %
Test CRC F312B45E
Copy CRC F312B45E
Copy OK

Track 8

Filename f:\Torrent\FLAC\Jacques Brel\Les Bonbons\08 - La Fanette.wav

Pre-gap length 0:00:02.93

Peak level 98.6 %
Track quality 99.9 %
Test CRC B7D8A962
Copy CRC B7D8A962
Copy OK

Track 9

Filename f:\Torrent\FLAC\Jacques Brel\Les Bonbons\09 - J'aimais.wav

Pre-gap length 0:00:01.06

Peak level 97.2 %
Track quality 100.0 %
Test CRC 79F3637E
Copy CRC 79F3637E
Copy OK

Track 10

Filename f:\Torrent\FLAC\Jacques Brel\Les Bonbons\10 - Les filles et les chiens.wav

Pre-gap length 0:00:02.60

Peak level 88.1 %
Track quality 100.0 %
Test CRC 25BD2FAE
Copy CRC 25BD2FAE
Copy OK

Track 11

Filename f:\Torrent\FLAC\Jacques Brel\Les Bonbons\11 - Les bigotes.wav

Pre-gap length 0:00:02.70

Peak level 99.2 %
Track quality 100.0 %
Test CRC 756C4537
Copy CRC 756C4537
Copy OK

Track 12

Filename f:\Torrent\FLAC\Jacques Brel\Les Bonbons\12 - Les fenκtres.wav

Pre-gap length 0:00:02.80

Peak level 99.0 %
Track quality 100.0 %
Test CRC C8E01F0E
Copy CRC C8E01F0E
Copy OK

Track 13

Filename f:\Torrent\FLAC\Jacques Brel\Les Bonbons\13 - Quand maman reviendra.wav

Pre-gap length 0:00:03.04

Peak level 81.8 %
Track quality 100.0 %
Test CRC A8A924A9
Copy CRC A8A924A9
Copy OK

Track 14

Filename f:\Torrent\FLAC\Jacques Brel\Les Bonbons\14 - Les amants de coeur.wav

Pre-gap length 0:00:03.04

Peak level 87.9 %
Track quality 100.0 %
Test CRC C284CFF6
Copy CRC C284CFF6
Copy OK

No errors occurred

End of status report

Exact Audio Copy V0.99 prebeta 4 from 23. January 2008

EAC extraction logfile from 27. May 2010, 13:40

Jacques Brel / Enregistrement Public ΰ l'Olympia 1964 [Velours Box Set Remaster 2003]

Used drive : PIONEER DVD-RW DVR-109 Adapter: 0 ID: 0

Read mode : Secure
Utilize accurate stream : Yes
Defeat audio cache : Yes
Make use of C2 pointers : No

Read offset correction : 48
Overread into Lead-In and Lead-Out : No
Fill up missing offset samples with silence : Yes
Delete leading and trailing silent blocks : No
Null samples used in CRC calculations : Yes
Used interface : Native Win32 interface for Win NT & 2000
Gap handling : Appended to previous track

Used output format : User Defined Encoder
Selected bitrate : 1024 kBit/s
Quality : High
Add ID3 tag : No
Command line compressor : C:\Program Files\FLAC\flac.exe
Additional command line options : -V -8 -T "artist=%a" -T "title=%t" -T "album=%g" -T "date=%y" -T "tracknumber=%n" -T "genre=%m" %s


TOC of the extracted CD

Track | Start | Length | Start sector | End sector
––––––––––––––––––––––––––––-
1 | 0:00.00 | 3:28.37 | 0 | 15636
2 | 3:28.37 | 3:38.58 | 15637 | 32044
3 | 7:07.20 | 3:33.05 | 32045 | 48024
4 | 10:40.25 | 3:21.52 | 48025 | 63151
5 | 14:02.02 | 4:15.08 | 63152 | 82284
6 | 18:17.10 | 2:49.57 | 82285 | 95016
7 | 21:06.67 | 3:03.73 | 95017 | 108814
8 | 24:10.65 | 3:04.02 | 108815 | 122616
9 | 27:14.67 | 3:08.10 | 122617 | 136726
10 | 30:23.02 | 2:34.53 | 136727 | 148329
11 | 32:57.55 | 2:43.67 | 148330 | 160621
12 | 35:41.47 | 2:48.60 | 160622 | 173281
13 | 38:30.32 | 3:29.00 | 173282 | 188956
14 | 41:59.32 | 2:59.13 | 188957 | 202394
15 | 44:58.45 | 3:14.10 | 202395 | 216954


Track 1

Filename f:\Torrent\FLAC\Jacques Brel\Enregistrement Public ΰ l'Olympia 1964 [Velours Box Set Remaster 2003]\01 - Amsterdam.wav

Pre-gap length 0:00:02.00

Peak level 98.2 %
Track quality 100.0 %
Test CRC 8F247881
Copy CRC 8F247881
Copy OK

Track 2

Filename f:\Torrent\FLAC\Jacques Brel\Enregistrement Public ΰ l'Olympia 1964 [Velours Box Set Remaster 2003]\02 - Les timides.wav

Peak level 96.8 %
Track quality 100.0 %
Test CRC 86D5A5A6
Copy CRC 86D5A5A6
Copy OK

Track 3

Filename f:\Torrent\FLAC\Jacques Brel\Enregistrement Public ΰ l'Olympia 1964 [Velours Box Set Remaster 2003]\03 - Le dernier repas.wav

Peak level 100.0 %
Track quality 100.0 %
Test CRC E9525B2E
Copy CRC E9525B2E
Copy OK

Track 4

Filename f:\Torrent\FLAC\Jacques Brel\Enregistrement Public ΰ l'Olympia 1964 [Velours Box Set Remaster 2003]\04 - Les jardins du casino.wav

Peak level 100.0 %
Track quality 100.0 %
Test CRC 076CAE1B
Copy CRC 076CAE1B
Copy OK

Track 5

Filename f:\Torrent\FLAC\Jacques Brel\Enregistrement Public ΰ l'Olympia 1964 [Velours Box Set Remaster 2003]\05 - Les vieux.wav

Peak level 100.0 %
Track quality 100.0 %
Test CRC 1B7AB384
Copy CRC 1B7AB384
Copy OK

Track 6

Filename f:\Torrent\FLAC\Jacques Brel\Enregistrement Public ΰ l'Olympia 1964 [Velours Box Set Remaster 2003]\06 - Les Toros.wav

Peak level 88.6 %
Track quality 100.0 %
Test CRC 256A1FA7
Copy CRC 256A1FA7
Copy OK

Track 7

Filename f:\Torrent\FLAC\Jacques Brel\Enregistrement Public ΰ l'Olympia 1964 [Velours Box Set Remaster 2003]\07 - Tango funθbre.wav

Peak level 88.5 %
Track quality 99.9 %
Test CRC DA441134
Copy CRC DA441134
Copy OK

Track 8

Filename f:\Torrent\FLAC\Jacques Brel\Enregistrement Public ΰ l'Olympia 1964 [Velours Box Set Remaster 2003]\08 - Le plat pays.wav

Peak level 88.6 %
Track quality 100.0 %
Test CRC CDDB5487
Copy CRC CDDB5487
Copy OK

Track 9

Filename f:\Torrent\FLAC\Jacques Brel\Enregistrement Public ΰ l'Olympia 1964 [Velours Box Set Remaster 2003]\09 - Les bonbons.wav

Peak level 97.2 %
Track quality 100.0 %
Test CRC FE0DC478
Copy CRC FE0DC478
Copy OK

Track 10

Filename f:\Torrent\FLAC\Jacques Brel\Enregistrement Public ΰ l'Olympia 1964 [Velours Box Set Remaster 2003]\10 - Mathilde.wav

Peak level 99.2 %
Track quality 99.9 %
Test CRC 7344A5FA
Copy CRC 7344A5FA
Copy OK

Track 11

Filename f:\Torrent\FLAC\Jacques Brel\Enregistrement Public ΰ l'Olympia 1964 [Velours Box Set Remaster 2003]\11 - Les bigotes.wav

Peak level 87.8 %
Track quality 100.0 %
Test CRC 75B2FFF3
Copy CRC 75B2FFF3
Copy OK

Track 12

Filename f:\Torrent\FLAC\Jacques Brel\Enregistrement Public ΰ l'Olympia 1964 [Velours Box Set Remaster 2003]\12 - Les bourgeois.wav

Peak level 87.8 %
Track quality 100.0 %
Test CRC 61A9737B
Copy CRC 61A9737B
Copy OK

Track 13

Filename f:\Torrent\FLAC\Jacques Brel\Enregistrement Public ΰ l'Olympia 1964 [Velours Box Set Remaster 2003]\13 - Jef.wav

Peak level 98.4 %
Track quality 100.0 %
Test CRC D47B6C74
Copy CRC D47B6C74
Copy OK

Track 14

Filename f:\Torrent\FLAC\Jacques Brel\Enregistrement Public ΰ l'Olympia 1964 [Velours Box Set Remaster 2003]\14 - Au suivant.wav

Peak level 99.3 %
Track quality 100.0 %
Test CRC 57A5226A
Copy CRC 57A5226A
Copy OK

Track 15

Filename f:\Torrent\FLAC\Jacques Brel\Enregistrement Public ΰ l'Olympia 1964 [Velours Box Set Remaster 2003]\15 - Madeleine.wav

Peak level 98.5 %
Track quality 100.0 %
Test CRC 61C71977
Copy CRC 61C71977
Copy OK

No errors occurred

End of status report

Exact Audio Copy V0.99 prebeta 4 from 23. January 2008

EAC extraction logfile from 27. May 2010, 16:22

Jacques Brel / Ces Gens-Lΰ [Velours Box Set Remaster 2003]

Used drive : PIONEER DVD-RW DVR-109 Adapter: 0 ID: 0

Read mode : Secure
Utilize accurate stream : Yes
Defeat audio cache : Yes
Make use of C2 pointers : No

Read offset correction : 48
Overread into Lead-In and Lead-Out : No
Fill up missing offset samples with silence : Yes
Delete leading and trailing silent blocks : No
Null samples used in CRC calculations : Yes
Used interface : Native Win32 interface for Win NT & 2000
Gap handling : Appended to previous track

Used output format : User Defined Encoder
Selected bitrate : 1024 kBit/s
Quality : High
Add ID3 tag : No
Command line compressor : C:\Program Files\FLAC\flac.exe
Additional command line options : -V -8 -T "artist=%a" -T "title=%t" -T "album=%g" -T "date=%y" -T "tracknumber=%n" -T "genre=%m" %s


TOC of the extracted CD

Track | Start | Length | Start sector | End sector
––––––––––––––––––––––––––––-
1 | 0:00.00 | 4:42.15 | 0 | 21164
2 | 4:42.15 | 3:37.40 | 21165 | 37479
3 | 8:19.55 | 3:26.32 | 37480 | 52961
4 | 11:46.12 | 2:46.33 | 52962 | 65444
5 | 14:32.45 | 2:45.62 | 65445 | 77881
6 | 17:18.32 | 5:16.23 | 77882 | 101604
7 | 22:34.55 | 2:37.72 | 101605 | 113451
8 | 25:12.52 | 3:45.63 | 113452 | 130389
9 | 28:58.40 | 3:43.12 | 130390 | 147126
10 | 32:41.52 | 3:52.20 | 147127 | 164546
11 | 36:33.72 | 2:56.00 | 164547 | 177746
12 | 39:29.72 | 2:51.50 | 177747 | 190621
13 | 42:21.47 | 3:03.53 | 190622 | 204399
14 | 45:25.25 | 4:15.12 | 204400 | 223536


Track 1

Filename f:\Torrent\FLAC\Jacques Brel\Ces Gens-Lΰ [Velours Box Set Remaster 2003]\01 - Ces gens-lΰ.wav

Pre-gap length 0:00:02.00

Peak level 98.5 %
Track quality 100.0 %
Test CRC 7DB4536B
Copy CRC 7DB4536B
Copy OK

Track 2

Filename f:\Torrent\FLAC\Jacques Brel\Ces Gens-Lΰ [Velours Box Set Remaster 2003]\02 - Jef.wav

Pre-gap length 0:00:02.84

Peak level 98.2 %
Track quality 100.0 %
Test CRC 746E798D
Copy CRC 746E798D
Copy OK

Track 3

Filename f:\Torrent\FLAC\Jacques Brel\Ces Gens-Lΰ [Velours Box Set Remaster 2003]\03 - La chanson de Jacky.wav

Pre-gap length 0:00:01.77

Peak level 98.8 %
Track quality 100.0 %
Test CRC D7BE6286
Copy CRC D7BE6286
Copy OK

Track 4

Filename f:\Torrent\FLAC\Jacques Brel\Ces Gens-Lΰ [Velours Box Set Remaster 2003]\04 - Les bergers.wav

Pre-gap length 0:00:02.96

Peak level 88.1 %
Track quality 100.0 %
Test CRC A9B0E109
Copy CRC A9B0E109
Copy OK

Track 5

Filename f:\Torrent\FLAC\Jacques Brel\Ces Gens-Lΰ [Velours Box Set Remaster 2003]\05 - Le tango funθbre.wav

Pre-gap length 0:00:01.84

Peak level 88.2 %
Track quality 100.0 %
Test CRC A6D76207
Copy CRC A6D76207
Copy OK

Track 6

Filename f:\Torrent\FLAC\Jacques Brel\Ces Gens-Lΰ [Velours Box Set Remaster 2003]\06 - Fernand.wav

Pre-gap length 0:00:02.73

Peak level 98.7 %
Track quality 100.0 %
Test CRC 95BE9100
Copy CRC 95BE9100
Copy OK

Track 7

Filename f:\Torrent\FLAC\Jacques Brel\Ces Gens-Lΰ [Velours Box Set Remaster 2003]\07 - Mathilde.wav

Pre-gap length 0:00:01.86

Peak level 98.9 %
Track quality 100.0 %
Test CRC B9664648
Copy CRC B9664648
Copy OK

Track 8

Filename f:\Torrent\FLAC\Jacques Brel\Ces Gens-Lΰ [Velours Box Set Remaster 2003]\08 - L'βge idiot.wav

Pre-gap length 0:00:02.86

Peak level 100.0 %
Track quality 100.0 %
Test CRC 50E5D719
Copy CRC 50E5D719
Copy OK

Track 9

Filename f:\Torrent\FLAC\Jacques Brel\Ces Gens-Lΰ [Velours Box Set Remaster 2003]\09 - Grand-mθre.wav

Pre-gap length 0:00:02.84

Peak level 92.9 %
Track quality 99.9 %
Test CRC 5BEDEBB0
Copy CRC 5BEDEBB0
Copy OK

Track 10

Filename f:\Torrent\FLAC\Jacques Brel\Ces Gens-Lΰ [Velours Box Set Remaster 2003]\10 - Les dιsespιrιs.wav

Pre-gap length 0:00:03.33

Peak level 87.6 %
Track quality 100.0 %
Test CRC ED09FD20
Copy CRC ED09FD20
Copy OK

Track 11

Filename f:\Torrent\FLAC\Jacques Brel\Ces Gens-Lΰ [Velours Box Set Remaster 2003]\11 - Mijn vlakke land (Le plat pays).wav

Pre-gap length 0:00:04.13

Peak level 77.8 %
Track quality 99.9 %
Test CRC 79624B21
Copy CRC 79624B21
Copy OK

Track 12

Filename f:\Torrent\FLAC\Jacques Brel\Ces Gens-Lΰ [Velours Box Set Remaster 2003]\12 - Rosa (version flamande).wav

Pre-gap length 0:00:02.96

Peak level 77.8 %
Track quality 99.9 %
Test CRC 1EDD8567
Copy CRC 1EDD8567
Copy OK

Track 13

Filename f:\Torrent\FLAC\Jacques Brel\Ces Gens-Lΰ [Velours Box Set Remaster 2003]\13 - De burgerij (Les bourgeois).wav

Pre-gap length 0:00:03.56

Peak level 78.0 %
Track quality 100.0 %
Test CRC 1B67F714
Copy CRC 1B67F714
Copy OK

Track 14

Filename f:\Torrent\FLAC\Jacques Brel\Ces Gens-Lΰ [Velours Box Set Remaster 2003]\14 - De nuttelozen van de nacht (Les paumιs du petit matin).wav

Pre-gap length 0:00:02.93

Peak level 97.5 %
Track quality 100.0 %
Test CRC 9A33EED8
Copy CRC 9A33EED8
Copy OK

No errors occurred

End of status report

Exact Audio Copy V0.99 prebeta 4 from 23. January 2008

EAC extraction logfile from 27. May 2010, 12:11

Jacques Brel / Jacques Brel 67 [Velours Box Set Remaster 2003]

Used drive : PIONEER DVD-RW DVR-109 Adapter: 0 ID: 0

Read mode : Secure
Utilize accurate stream : Yes
Defeat audio cache : Yes
Make use of C2 pointers : No

Read offset correction : 48
Overread into Lead-In and Lead-Out : No
Fill up missing offset samples with silence : Yes
Delete leading and trailing silent blocks : No
Null samples used in CRC calculations : Yes
Used interface : Native Win32 interface for Win NT & 2000
Gap handling : Appended to previous track

Used output format : User Defined Encoder
Selected bitrate : 1024 kBit/s
Quality : High
Add ID3 tag : No
Command line compressor : C:\Program Files\FLAC\flac.exe
Additional command line options : -V -8 -T "artist=%a" -T "title=%t" -T "album=%g" -T "date=%y" -T "tracknumber=%n" -T "genre=%m" %s


TOC of the extracted CD

Track | Start | Length | Start sector | End sector
––––––––––––––––––––––––––––-
1 | 0:00.00 | 5:40.45 | 0 | 25544
2 | 5:40.45 | 3:09.50 | 25545 | 39769
3 | 8:50.20 | 3:06.52 | 39770 | 53771
4 | 11:56.72 | 4:09.45 | 53772 | 72491
5 | 16:06.42 | 3:31.20 | 72492 | 88336
6 | 19:37.62 | 3:50.50 | 88337 | 105636
7 | 23:28.37 | 2:58.40 | 105637 | 119026
8 | 26:27.02 | 4:31.05 | 119027 | 139356
9 | 30:58.07 | 3:35.70 | 139357 | 155551
10 | 34:34.02 | 2:55.13 | 155552 | 168689
11 | 37:29.15 | 2:17.05 | 168690 | 178969


Track 1

Filename f:\Torrent\FLAC\Jacques Brel\Jacques Brel 67 [Velours Box Set Remaster 2003]\01 - Mon enfance.wav

Pre-gap length 0:00:02.00

Peak level 100.0 %
Track quality 100.0 %
Test CRC 87F90BC4
Copy CRC 87F90BC4
Copy OK

Track 2

Filename f:\Torrent\FLAC\Jacques Brel\Jacques Brel 67 [Velours Box Set Remaster 2003]\02 - Le cheval.wav

Pre-gap length 0:00:02.70

Peak level 87.5 %
Track quality 100.0 %
Test CRC 21F236ED
Copy CRC 21F236ED
Copy OK

Track 3

Filename f:\Torrent\FLAC\Jacques Brel\Jacques Brel 67 [Velours Box Set Remaster 2003]\03 - Mon pθre disait.wav

Pre-gap length 0:00:02.84

Peak level 73.5 %
Track quality 99.9 %
Test CRC 7DCF4665
Copy CRC 7DCF4665
Copy OK

Track 4

Filename f:\Torrent\FLAC\Jacques Brel\Jacques Brel 67 [Velours Box Set Remaster 2003]\04 - La… La… la.wav

Pre-gap length 0:00:02.86

Peak level 82.9 %
Track quality 100.0 %
Test CRC 498F4A3E
Copy CRC 498F4A3E
Copy OK

Track 5

Filename f:\Torrent\FLAC\Jacques Brel\Jacques Brel 67 [Velours Box Set Remaster 2003]\05 - Les coeurs tendres (du film 'Un iodot α Paris').wav

Pre-gap length 0:00:02.80

Peak level 78.1 %
Track quality 100.0 %
Test CRC 031D2375
Copy CRC 031D2375
Copy OK

Track 6

Filename f:\Torrent\FLAC\Jacques Brel\Jacques Brel 67 [Velours Box Set Remaster 2003]\06 - Fils de….wav

Pre-gap length 0:00:01.80

Peak level 98.2 %
Track quality 100.0 %
Test CRC AE8E7DE1
Copy CRC AE8E7DE1
Copy OK

Track 7

Filename f:\Torrent\FLAC\Jacques Brel\Jacques Brel 67 [Velours Box Set Remaster 2003]\07 - Les bonbons 67.wav

Pre-gap length 0:00:02.73

Peak level 77.9 %
Track quality 100.0 %
Test CRC 260B9C20
Copy CRC 260B9C20
Copy OK

Track 8

Filename f:\Torrent\FLAC\Jacques Brel\Jacques Brel 67 [Velours Box Set Remaster 2003]\08 - La chanson des vieux amants.wav

Pre-gap length 0:00:02.09

Peak level 98.4 %
Track quality 99.9 %
Test CRC 60B70799
Copy CRC 60B70799
Copy OK

Track 9

Filename f:\Torrent\FLAC\Jacques Brel\Jacques Brel 67 [Velours Box Set Remaster 2003]\09 - Α jeun.wav

Pre-gap length 0:00:03.13

Peak level 96.8 %
Track quality 100.0 %
Test CRC F06446AF
Copy CRC F06446AF
Copy OK

Track 10

Filename f:\Torrent\FLAC\Jacques Brel\Jacques Brel 67 [Velours Box Set Remaster 2003]\10 - Le gaz.wav

Pre-gap length 0:00:02.00

Peak level 98.5 %
Track quality 100.0 %
Test CRC 1C56F254
Copy CRC 1C56F254
Copy OK

Track 11

Filename f:\Torrent\FLAC\Jacques Brel\Jacques Brel 67 [Velours Box Set Remaster 2003]\11 - Les moutons.wav

Pre-gap length 0:00:02.97

Peak level 87.5 %
Track quality 100.0 %
Test CRC ACE6F1FA
Copy CRC ACE6F1FA
Copy OK

No errors occurred

End of status report

Exact Audio Copy V0.99 prebeta 4 from 23. January 2008

EAC extraction logfile from 27. May 2010, 15:51

Jacques Brel / J'arrive [Velours Box Set Remaster 2003]

Used drive : PIONEER DVD-RW DVR-109 Adapter: 0 ID: 0

Read mode : Secure
Utilize accurate stream : Yes
Defeat audio cache : Yes
Make use of C2 pointers : No

Read offset correction : 48
Overread into Lead-In and Lead-Out : No
Fill up missing offset samples with silence : Yes
Delete leading and trailing silent blocks : No
Null samples used in CRC calculations : Yes
Used interface : Native Win32 interface for Win NT & 2000
Gap handling : Appended to previous track

Used output format : User Defined Encoder
Selected bitrate : 1024 kBit/s
Quality : High
Add ID3 tag : No
Command line compressor : C:\Program Files\FLAC\flac.exe
Additional command line options : -V -8 -T "artist=%a" -T "title=%t" -T "album=%g" -T "date=%y" -T "tracknumber=%n" -T "genre=%m" %s


TOC of the extracted CD

Track | Start | Length | Start sector | End sector
––––––––––––––––––––––––––––-
1 | 0:00.00 | 4:46.52 | 0 | 21501
2 | 4:46.52 | 3:08.38 | 21502 | 35639
3 | 7:55.15 | 4:48.52 | 35640 | 57291
4 | 12:43.67 | 4:10.35 | 57292 | 76076
5 | 16:54.27 | 4:40.68 | 76077 | 97144
6 | 21:35.20 | 2:40.55 | 97145 | 109199
7 | 24:16.00 | 4:19.57 | 109200 | 128681
8 | 28:35.57 | 3:45.45 | 128682 | 145601
9 | 32:21.27 | 3:15.10 | 145602 | 160236
10 | 35:36.37 | 3:00.63 | 160237 | 173799
11 | 38:37.25 | 2:52.10 | 173800 | 186709


Track 1

Filename f:\Torrent\FLAC\Jacques Brel\J'arrive [Velours Box Set Remaster 2003]\01 - J'arrive.wav

Pre-gap length 0:00:02.00

Peak level 98.8 %
Track quality 100.0 %
Test CRC CB035934
Copy CRC CB035934
Copy OK

Track 2

Filename f:\Torrent\FLAC\Jacques Brel\J'arrive [Velours Box Set Remaster 2003]\02 - Vesoul.wav

Pre-gap length 0:00:02.61

Peak level 100.0 %
Track quality 100.0 %
Test CRC B3DFFBC9
Copy CRC B3DFFBC9
Copy OK

Track 3

Filename f:\Torrent\FLAC\Jacques Brel\J'arrive [Velours Box Set Remaster 2003]\03 - L'Ostendaise.wav

Pre-gap length 0:00:01.97

Peak level 87.9 %
Track quality 100.0 %
Test CRC 9DEA9F08
Copy CRC 9DEA9F08
Copy OK

Track 4

Filename f:\Torrent\FLAC\Jacques Brel\J'arrive [Velours Box Set Remaster 2003]\04 - Je suis un soir d'ιtι.wav

Pre-gap length 0:00:01.97

Peak level 87.2 %
Track quality 100.0 %
Test CRC CF66AB9F
Copy CRC CF66AB9F
Copy OK

Track 5

Filename f:\Torrent\FLAC\Jacques Brel\J'arrive [Velours Box Set Remaster 2003]\05 - Regarde bien, petit.wav

Pre-gap length 0:00:02.46

Peak level 99.0 %
Track quality 99.9 %
Test CRC 2BC4ED87
Copy CRC 2BC4ED87
Copy OK

Track 6

Filename f:\Torrent\FLAC\Jacques Brel\J'arrive [Velours Box Set Remaster 2003]\06 - Comment tuer l'amant de sa femme quand on a ιtι ιlevι comme moi dans la tradition .wav

Pre-gap length 0:00:03.50

Peak level 89.1 %
Track quality 99.9 %
Test CRC 64092CFA
Copy CRC 64092CFA
Copy OK

Track 7

Filename f:\Torrent\FLAC\Jacques Brel\J'arrive [Velours Box Set Remaster 2003]\07 - L'ιclusier.wav

Pre-gap length 0:00:03.10

Peak level 93.9 %
Track quality 100.0 %
Test CRC ADD3BF4D
Copy CRC ADD3BF4D
Copy OK

Track 8

Filename f:\Torrent\FLAC\Jacques Brel\J'arrive [Velours Box Set Remaster 2003]\08 - Un enfant.wav

Pre-gap length 0:00:02.86

Peak level 96.9 %
Track quality 100.0 %
Test CRC 50C11D26
Copy CRC 50C11D26
Copy OK

Track 9

Filename f:\Torrent\FLAC\Jacques Brel\J'arrive [Velours Box Set Remaster 2003]\09 - La biθre.wav

Pre-gap length 0:00:03.36

Peak level 100.0 %
Track quality 100.0 %
Test CRC 7553E656
Copy CRC 7553E656
Copy OK

Track 10

Filename f:\Torrent\FLAC\Jacques Brel\J'arrive [Velours Box Set Remaster 2003]\10 - La chanson de Van Horst (du film 'Le bar de la fourche').wav

Pre-gap length 0:00:03.33

Peak level 100.0 %
Track quality 100.0 %
Test CRC FC316AE5
Copy CRC FC316AE5
Copy OK

Track 11

Filename f:\Torrent\FLAC\Jacques Brel\J'arrive [Velours Box Set Remaster 2003]\11 - L'enfance (du film 'Le Far West').wav

Pre-gap length 0:00:03.04

Peak level 98.2 %
Track quality 100.0 %
Test CRC EED29249
Copy CRC EED29249
Copy OK

No errors occurred

End of status report

Exact Audio Copy V0.99 prebeta 4 from 23. January 2008

EAC extraction logfile from 27. May 2010, 10:20

Jacques Brel / L'homme de la Mancha [Velours Box Set Remaster 2003]

Used drive : PIONEER DVD-RW DVR-109 Adapter: 0 ID: 0

Read mode : Secure
Utilize accurate stream : Yes
Defeat audio cache : Yes
Make use of C2 pointers : No

Read offset correction : 48
Overread into Lead-In and Lead-Out : No
Fill up missing offset samples with silence : Yes
Delete leading and trailing silent blocks : No
Null samples used in CRC calculations : Yes
Used interface : Native Win32 interface for Win NT & 2000
Gap handling : Appended to previous track

Used output format : User Defined Encoder
Selected bitrate : 1024 kBit/s
Quality : High
Add ID3 tag : No
Command line compressor : C:\Program Files\FLAC\flac.exe
Additional command line options : -V -8 -T "artist=%a" -T "title=%t" -T "album=%g" -T "date=%y" -T "tracknumber=%n" -T "genre=%m" %s


TOC of the extracted CD

Track | Start | Length | Start sector | End sector
––––––––––––––––––––––––––––-
1 | 0:00.00 | 2:46.42 | 0 | 12491
2 | 2:46.42 | 4:10.63 | 12492 | 31304
3 | 6:57.30 | 3:17.57 | 31305 | 46136
4 | 10:15.12 | 3:23.50 | 46137 | 61411
5 | 13:38.62 | 2:08.30 | 61412 | 71041
6 | 15:47.17 | 2:30.23 | 71042 | 82314
7 | 18:17.40 | 3:34.47 | 82315 | 98411
8 | 21:52.12 | 2:39.25 | 98412 | 110361
9 | 24:31.37 | 1:54.10 | 110362 | 118921
10 | 26:25.47 | 2:49.48 | 118922 | 131644
11 | 29:15.20 | 4:21.07 | 131645 | 151226
12 | 33:36.27 | 2:05.63 | 151227 | 160664
13 | 35:42.15 | 9:44.52 | 160665 | 204516


Track 1

Filename f:\Torrent\FLAC\Jacques Brel\L'homme de la Mancha [Velours Box Set Remaster 2003]\01 - L'Homme De La Mancha.wav

Pre-gap length 0:00:02.00

Peak level 96.8 %
Track quality 100.0 %
Test CRC BD98B49D
Copy CRC BD98B49D
Copy OK

Track 2

Filename f:\Torrent\FLAC\Jacques Brel\L'homme de la Mancha [Velours Box Set Remaster 2003]\02 - Un animal.wav

Pre-gap length 0:00:02.16

Peak level 100.0 %
Track quality 100.0 %
Test CRC EC83D132
Copy CRC EC83D132
Copy OK

Track 3

Filename f:\Torrent\FLAC\Jacques Brel\L'homme de la Mancha [Velours Box Set Remaster 2003]\03 - Dulcinea.wav

Pre-gap length 0:00:02.80

Peak level 98.4 %
Track quality 100.0 %
Test CRC 3E06DD74
Copy CRC 3E06DD74
Copy OK

Track 4

Filename f:\Torrent\FLAC\Jacques Brel\L'homme de la Mancha [Velours Box Set Remaster 2003]\04 - Vraiment je ne pense qu'à lui.wav

Pre-gap length 0:00:02.86

Peak level 81.4 %
Track quality 100.0 %
Test CRC 5FD40817
Copy CRC 5FD40817
Copy OK

Track 5

Filename f:\Torrent\FLAC\Jacques Brel\L'homme de la Mancha [Velours Box Set Remaster 2003]\05 - Le casque d'or de Mambrino.wav

Pre-gap length 0:00:02.86

Peak level 97.2 %
Track quality 100.0 %
Test CRC 0DD68964
Copy CRC 0DD68964
Copy OK

Track 6

Filename f:\Torrent\FLAC\Jacques Brel\L'homme de la Mancha [Velours Box Set Remaster 2003]\06 - Chacun sa Dulcinea.wav

Pre-gap length 0:00:02.80

Peak level 95.3 %
Track quality 100.0 %
Test CRC B17D379D
Copy CRC B17D379D
Copy OK

Track 7

Filename f:\Torrent\FLAC\Jacques Brel\L'homme de la Mancha [Velours Box Set Remaster 2003]\07 - Pourquoi fait-il toutes ces choses .wav

Pre-gap length 0:00:02.64

Peak level 88.2 %
Track quality 100.0 %
Test CRC 928306AD
Copy CRC 928306AD
Copy OK

Track 8

Filename f:\Torrent\FLAC\Jacques Brel\L'homme de la Mancha [Velours Box Set Remaster 2003]\08 - La quête.wav

Pre-gap length 0:00:02.62

Peak level 98.3 %
Track quality 100.0 %
Test CRC 6E81D2EE
Copy CRC 6E81D2EE
Copy OK

Track 9

Filename f:\Torrent\FLAC\Jacques Brel\L'homme de la Mancha [Velours Box Set Remaster 2003]\09 - Sans amour.wav

Pre-gap length 0:00:02.69

Peak level 90.0 %
Track quality 100.0 %
Test CRC 200C8207
Copy CRC 200C8207
Copy OK

Track 10

Filename f:\Torrent\FLAC\Jacques Brel\L'homme de la Mancha [Velours Box Set Remaster 2003]\10 - Gloria.wav

Pre-gap length 0:00:02.46

Peak level 85.0 %
Track quality 100.0 %
Test CRC E4C953BC
Copy CRC E4C953BC
Copy OK

Track 11

Filename f:\Torrent\FLAC\Jacques Brel\L'homme de la Mancha [Velours Box Set Remaster 2003]\11 - Aldonza.wav

Pre-gap length 0:00:02.80

Peak level 87.4 %
Track quality 100.0 %
Test CRC 0A876717
Copy CRC 0A876717
Copy OK

Track 12

Filename f:\Torrent\FLAC\Jacques Brel\L'homme de la Mancha [Velours Box Set Remaster 2003]\12 - Le chevalier aux miroirs.wav

Pre-gap length 0:00:02.82

Peak level 97.4 %
Track quality 99.9 %
Test CRC 2CBCB2ED
Copy CRC 2CBCB2ED
Copy OK

Track 13

Filename f:\Torrent\FLAC\Jacques Brel\L'homme de la Mancha [Velours Box Set Remaster 2003]\13 - La mort.wav

Pre-gap length 0:00:03.24

Peak level 96.4 %
Track quality 100.0 %
Test CRC F0ACA817
Copy CRC F0ACA817
Copy OK

No errors occurred

End of status report

Exact Audio Copy V0.99 prebeta 4 from 23. January 2008

EAC extraction logfile from 27. May 2010, 11:44

Jacques Brel / Ne Me Quitte Pas [Velours Box Set Remaster 2003]

Used drive : PLEXTOR DVDR PX-750A Adapter: 7 ID: 0

Read mode : Secure
Utilize accurate stream : Yes
Defeat audio cache : Yes
Make use of C2 pointers : No

Read offset correction : 102
Overread into Lead-In and Lead-Out : No
Fill up missing offset samples with silence : Yes
Delete leading and trailing silent blocks : No
Null samples used in CRC calculations : Yes
Used interface : Native Win32 interface for Win NT & 2000
Gap handling : Appended to previous track

Used output format : User Defined Encoder
Selected bitrate : 1024 kBit/s
Quality : High
Add ID3 tag : No
Command line compressor : C:\Program Files\FLAC\flac.exe
Additional command line options : -V -8 -T "artist=%a" -T "title=%t" -T "album=%g" -T "date=%y" -T "tracknumber=%n" -T "genre=%m" %s


TOC of the extracted CD

Track | Start | Length | Start sector | End sector
––––––––––––––––––––––––––––-
1 | 0:00.00 | 4:12.62 | 0 | 18961
2 | 4:12.62 | 2:58.53 | 18962 | 32364
3 | 7:11.40 | 3:08.45 | 32365 | 46509
4 | 10:20.10 | 2:41.37 | 46510 | 58621
5 | 13:01.47 | 2:35.35 | 58622 | 70281
6 | 15:37.07 | 3:13.43 | 70282 | 84799
7 | 18:50.50 | 4:23.67 | 84800 | 104591
8 | 23:14.42 | 4:21.08 | 104592 | 124174
9 | 27:35.50 | 3:22.32 | 124175 | 139356
10 | 30:58.07 | 4:43.58 | 139357 | 160639
11 | 35:41.65 | 3:09.35 | 160640 | 174849


Track 1

Filename f:\Torrent\FLAC\Jacques Brel\Ne Me Quitte Pas [Velours Box Set Remaster 2003]\01 - Ne me quitte pas.wav

Pre-gap length 0:00:02.00

Peak level 98.6 %
Track quality 100.0 %
Test CRC C174777A
Copy CRC C174777A
Copy OK

Track 2

Filename f:\Torrent\FLAC\Jacques Brel\Ne Me Quitte Pas [Velours Box Set Remaster 2003]\02 - Marieke.wav

Pre-gap length 0:00:02.86

Peak level 98.6 %
Track quality 100.0 %
Test CRC D23E8F46
Copy CRC D23E8F46
Copy OK

Track 3

Filename f:\Torrent\FLAC\Jacques Brel\Ne Me Quitte Pas [Velours Box Set Remaster 2003]\03 - On n'oublie rien.wav

Pre-gap length 0:00:02.33

Peak level 89.1 %
Track quality 99.9 %
Test CRC FDD8B0AC
Copy CRC FDD8B0AC
Copy OK

Track 4

Filename f:\Torrent\FLAC\Jacques Brel\Ne Me Quitte Pas [Velours Box Set Remaster 2003]\04 - Les Flamandes.wav

Pre-gap length 0:00:02.80

Peak level 99.8 %
Track quality 100.0 %
Test CRC 20079343
Copy CRC 20079343
Copy OK

Track 5

Filename f:\Torrent\FLAC\Jacques Brel\Ne Me Quitte Pas [Velours Box Set Remaster 2003]\05 - Les prιnoms de Paris.wav

Pre-gap length 0:00:04.69

Peak level 98.5 %
Track quality 100.0 %
Test CRC A8039D79
Copy CRC A8039D79
Copy OK

Track 6

Filename f:\Torrent\FLAC\Jacques Brel\Ne Me Quitte Pas [Velours Box Set Remaster 2003]\06 - Quand on n'a que l'amour.wav

Pre-gap length 0:00:02.00

Peak level 100.0 %
Track quality 99.9 %
Test CRC D161FFB0
Copy CRC D161FFB0
Copy OK

Track 7

Filename f:\Torrent\FLAC\Jacques Brel\Ne Me Quitte Pas [Velours Box Set Remaster 2003]\07 - Les biches.wav

Pre-gap length 0:00:02.86

Peak level 99.9 %
Track quality 100.0 %
Test CRC EA8B20D2
Copy CRC EA8B20D2
Copy OK

Track 8

Filename f:\Torrent\FLAC\Jacques Brel\Ne Me Quitte Pas [Velours Box Set Remaster 2003]\08 - Le prochain amour.wav

Pre-gap length 0:00:02.93

Peak level 83.0 %
Track quality 100.0 %
Test CRC 308B51F4
Copy CRC 308B51F4
Copy OK

Track 9

Filename f:\Torrent\FLAC\Jacques Brel\Ne Me Quitte Pas [Velours Box Set Remaster 2003]\09 - Le moribond.wav

Pre-gap length 0:00:02.90

Peak level 100.0 %
Track quality 100.0 %
Test CRC CF956EC8
Copy CRC CF956EC8
Copy OK

Track 10

Filename f:\Torrent\FLAC\Jacques Brel\Ne Me Quitte Pas [Velours Box Set Remaster 2003]\10 - La valse ΰ mille temps.wav

Pre-gap length 0:00:03.20

Peak level 98.9 %
Track quality 100.0 %
Test CRC 040C3849
Copy CRC 040C3849
Copy OK

Track 11

Filename f:\Torrent\FLAC\Jacques Brel\Ne Me Quitte Pas [Velours Box Set Remaster 2003]\11 - Je ne sais pas.wav

Pre-gap length 0:00:02.90

Peak level 98.7 %
Track quality 100.0 %
Test CRC 96F447EC
Copy CRC 96F447EC
Copy OK

No errors occurred

End of status report

Exact Audio Copy V0.99 prebeta 4 from 23. January 2008

EAC extraction logfile from 27. May 2010, 16:55

Jacques Brel / Les Marquises [Velours Box Set Remaster 2003]

Used drive : PLEXTOR DVDR PX-750A Adapter: 7 ID: 0

Read mode : Secure
Utilize accurate stream : Yes
Defeat audio cache : Yes
Make use of C2 pointers : No

Read offset correction : 102
Overread into Lead-In and Lead-Out : No
Fill up missing offset samples with silence : Yes
Delete leading and trailing silent blocks : No
Null samples used in CRC calculations : Yes
Used interface : Native Win32 interface for Win NT & 2000
Gap handling : Appended to previous track

Used output format : User Defined Encoder
Selected bitrate : 1024 kBit/s
Quality : High
Add ID3 tag : No
Command line compressor : C:\Program Files\FLAC\flac.exe
Additional command line options : -V -8 -T "artist=%a" -T "title=%t" -T "album=%g" -T "date=%y" -T "tracknumber=%n" -T "genre=%m" %s


TOC of the extracted CD

Track | Start | Length | Start sector | End sector
––––––––––––––––––––––––––––-
1 | 0:00.00 | 3:40.45 | 0 | 16544
2 | 3:40.45 | 4:40.30 | 16545 | 37574
3 | 8:21.00 | 3:46.55 | 37575 | 54579
4 | 12:07.55 | 4:48.37 | 54580 | 76216
5 | 16:56.17 | 3:32.05 | 76217 | 92121
6 | 20:28.22 | 4:21.73 | 92122 | 111769
7 | 24:50.20 | 4:08.22 | 111770 | 130391
8 | 28:58.42 | 3:57.13 | 130392 | 148179
9 | 32:55.55 | 5:13.57 | 148180 | 171711
10 | 38:09.37 | 3:15.58 | 171712 | 186394
11 | 41:25.20 | 3:29.67 | 186395 | 202136
12 | 44:55.12 | 3:56.30 | 202137 | 219866
13 | 48:51.42 | 3:11.05 | 219867 | 234196
14 | 52:02.47 | 3:00.50 | 234197 | 247746
15 | 55:03.22 | 3:42.03 | 247747 | 264399
16 | 58:45.25 | 4:06.25 | 264400 | 282874
17 | 62:51.50 | 4:46.05 | 282875 | 304329


Track 1

Filename f:\Torrent\FLAC\Jacques Brel\Les Marquises [Velours Box Set Remaster 2003]\01 - Jaurθs.wav

Pre-gap length 0:00:02.00

Peak level 100.0 %
Track quality 100.0 %
Test CRC 47A7CB48
Copy CRC 47A7CB48
Copy OK

Track 2

Filename f:\Torrent\FLAC\Jacques Brel\Les Marquises [Velours Box Set Remaster 2003]\02 - La ville s'endormait.wav

Pre-gap length 0:00:02.77

Peak level 81.7 %
Track quality 100.0 %
Test CRC 4FD68B52
Copy CRC 4FD68B52
Copy OK

Track 3

Filename f:\Torrent\FLAC\Jacques Brel\Les Marquises [Velours Box Set Remaster 2003]\03 - Vieillir.wav

Pre-gap length 0:00:03.04

Peak level 88.4 %
Track quality 100.0 %
Test CRC 92974BA3
Copy CRC 92974BA3
Copy OK

Track 4

Filename f:\Torrent\FLAC\Jacques Brel\Les Marquises [Velours Box Set Remaster 2003]\04 - Le bon Dieu.wav

Pre-gap length 0:00:03.13

Peak level 96.5 %
Track quality 100.0 %
Test CRC 51118316
Copy CRC 51118316
Copy OK

Track 5

Filename f:\Torrent\FLAC\Jacques Brel\Les Marquises [Velours Box Set Remaster 2003]\05 - Les F….wav

Pre-gap length 0:00:03.36

Peak level 98.4 %
Track quality 100.0 %
Test CRC D1F157A3
Copy CRC D1F157A3
Copy OK

Track 6

Filename f:\Torrent\FLAC\Jacques Brel\Les Marquises [Velours Box Set Remaster 2003]\06 - Orly.wav

Pre-gap length 0:00:03.29

Peak level 98.4 %
Track quality 99.9 %
Test CRC C33BACBC
Copy CRC C33BACBC
Copy OK

Track 7

Filename f:\Torrent\FLAC\Jacques Brel\Les Marquises [Velours Box Set Remaster 2003]\07 - Les remparts de Varsovie.wav

Pre-gap length 0:00:02.77

Peak level 98.6 %
Track quality 100.0 %
Test CRC 2A43BD5D
Copy CRC 2A43BD5D
Copy OK

Track 8

Filename f:\Torrent\FLAC\Jacques Brel\Les Marquises [Velours Box Set Remaster 2003]\08 - Voir un ami pleurer.wav

Pre-gap length 0:00:03.09

Peak level 97.2 %
Track quality 100.0 %
Test CRC 153255DD
Copy CRC 153255DD
Copy OK

Track 9

Filename f:\Torrent\FLAC\Jacques Brel\Les Marquises [Velours Box Set Remaster 2003]\09 - Knokke-Le-Zoute Tango.wav

Pre-gap length 0:00:03.04

Peak level 97.0 %
Track quality 100.0 %
Test CRC EB3C82A5
Copy CRC EB3C82A5
Copy OK

Track 10

Filename f:\Torrent\FLAC\Jacques Brel\Les Marquises [Velours Box Set Remaster 2003]\10 - Jojo.wav

Pre-gap length 0:00:03.42

Peak level 92.6 %
Track quality 100.0 %
Test CRC 59CE8EEA
Copy CRC 59CE8EEA
Copy OK

Track 11

Filename f:\Torrent\FLAC\Jacques Brel\Les Marquises [Velours Box Set Remaster 2003]\11 - Le lion.wav

Pre-gap length 0:00:02.80

Peak level 87.8 %
Track quality 100.0 %
Test CRC 257044A7
Copy CRC 257044A7
Copy OK

Track 12

Filename f:\Torrent\FLAC\Jacques Brel\Les Marquises [Velours Box Set Remaster 2003]\12 - Les Marquises.wav

Pre-gap length 0:00:02.56

Peak level 95.6 %
Track quality 100.0 %
Test CRC 20FC8340
Copy CRC 20FC8340
Copy OK

Track 13

Filename f:\Torrent\FLAC\Jacques Brel\Les Marquises [Velours Box Set Remaster 2003]\13 - Sans exigences.wav

Pre-gap length 0:00:04.20

Peak level 100.0 %
Track quality 100.0 %
Test CRC 73F42DBA
Copy CRC 73F42DBA
Copy OK

Track 14

Filename f:\Torrent\FLAC\Jacques Brel\Les Marquises [Velours Box Set Remaster 2003]\14 - Avec ιlιgance.wav

Pre-gap length 0:00:03.46

Peak level 92.8 %
Track quality 99.8 %
Test CRC 377694A5
Copy CRC 377694A5
Copy OK

Track 15

Filename f:\Torrent\FLAC\Jacques Brel\Les Marquises [Velours Box Set Remaster 2003]\15 - Mai 40.wav

Pre-gap length 0:00:03.62

Peak level 98.8 %
Track quality 100.0 %
Test CRC 354FDCBC
Copy CRC 354FDCBC
Copy OK

Track 16

Filename f:\Torrent\FLAC\Jacques Brel\Les Marquises [Velours Box Set Remaster 2003]\16 - L'amour est mort.wav

Pre-gap length 0:00:03.80

Peak level 93.3 %
Track quality 100.0 %
Test CRC EBD8C857
Copy CRC EBD8C857
Copy OK

Track 17

Filename f:\Torrent\FLAC\Jacques Brel\Les Marquises [Velours Box Set Remaster 2003]\17 - La cathιdrale.wav

Pre-gap length 0:00:03.60

Peak level 88.4 %
Track quality 100.0 %
Test CRC 9DE2A328
Copy CRC 9DE2A328
Copy OK

No errors occurred

End of status report

Exact Audio Copy V0.99 prebeta 4 from 23. January 2008

EAC extraction logfile from 28. May 2010, 8:41

Jacques Brel / Chansons ou Versions Inιdites De Jeunesse [Velours Box Set Remaster 2003]

Used drive : PLEXTOR DVDR PX-750A Adapter: 7 ID: 0

Read mode : Secure
Utilize accurate stream : Yes
Defeat audio cache : Yes
Make use of C2 pointers : No

Read offset correction : 102
Overread into Lead-In and Lead-Out : No
Fill up missing offset samples with silence : Yes
Delete leading and trailing silent blocks : No
Null samples used in CRC calculations : Yes
Used interface : Native Win32 interface for Win NT & 2000
Gap handling : Appended to previous track

Used output format : User Defined Encoder
Selected bitrate : 1024 kBit/s
Quality : High
Add ID3 tag : No
Command line compressor : C:\Program Files\FLAC\flac.exe
Additional command line options : -V -8 -T "artist=%a" -T "title=%t" -T "album=%g" -T "date=%y" -T "tracknumber=%n" -T "genre=%m" %s


TOC of the extracted CD

Track | Start | Length | Start sector | End sector
––––––––––––––––––––––––––––-
1 | 0:00.00 | 2:23.02 | 0 | 10726
2 | 2:23.02 | 1:13.20 | 10727 | 16221
3 | 3:36.22 | 1:16.38 | 16222 | 21959
4 | 4:52.60 | 1:46.42 | 21960 | 29951
5 | 6:39.27 | 2:27.13 | 29952 | 40989
6 | 9:06.40 | 2:32.42 | 40990 | 52431
7 | 11:39.07 | 1:48.28 | 52432 | 60559
8 | 13:27.35 | 2:46.22 | 60560 | 73031
9 | 16:13.57 | 2:52.20 | 73032 | 85951
10 | 19:06.02 | 3:12.55 | 85952 | 100406
11 | 22:18.57 | 2:22.28 | 100407 | 111084
12 | 24:41.10 | 2:50.12 | 111085 | 123846
13 | 27:31.22 | 3:00.60 | 123847 | 137406
14 | 30:32.07 | 1:51.18 | 137407 | 145749
15 | 32:23.25 | 2:45.40 | 145750 | 158164
16 | 35:08.65 | 1:57.55 | 158165 | 166994
17 | 37:06.45 | 2:41.55 | 166995 | 179124
18 | 39:48.25 | 2:20.35 | 179125 | 189659
19 | 42:08.60 | 2:41.07 | 189660 | 201741
20 | 44:49.67 | 3:33.68 | 201742 | 217784
21 | 48:23.60 | 1:43.32 | 217785 | 225541
22 | 50:07.17 | 1:41.58 | 225542 | 233174
23 | 51:49.00 | 2:22.70 | 233175 | 243894
24 | 54:11.70 | 2:12.65 | 243895 | 253859
25 | 56:24.60 | 2:15.22 | 253860 | 264006
26 | 58:40.07 | 2:24.43 | 264007 | 274849
27 | 61:04.50 | 2:02.07 | 274850 | 284006
28 | 63:06.57 | 2:14.05 | 284007 | 294061


Track 1

Filename f:\Torrent\FLAC\Jacques Brel\Chansons ou Versions Inιdites De Jeunesse [Velours Box Set Remaster 2003]\01 - ΐ deux.wav

Pre-gap length 0:00:02.00

Peak level 95.9 %
Track quality 100.0 %
Test CRC 86138770
Copy CRC 86138770
Copy OK

Track 2

Filename f:\Torrent\FLAC\Jacques Brel\Chansons ou Versions Inιdites De Jeunesse [Velours Box Set Remaster 2003]\02 - Dites, si c'ιtait vrai (poθme).wav

Pre-gap length 0:00:03.82

Peak level 99.2 %
Track quality 100.0 %
Test CRC 185634D1
Copy CRC 185634D1
Copy OK

Track 3

Filename f:\Torrent\FLAC\Jacques Brel\Chansons ou Versions Inιdites De Jeunesse [Velours Box Set Remaster 2003]\03 - Les gens.wav

Pre-gap length 0:00:03.06

Peak level 98.5 %
Track quality 100.0 %
Test CRC 684A6539
Copy CRC 684A6539
Copy OK

Track 4

Filename f:\Torrent\FLAC\Jacques Brel\Chansons ou Versions Inιdites De Jeunesse [Velours Box Set Remaster 2003]\04 - La haine.wav

Pre-gap length 0:00:02.84

Peak level 98.5 %
Track quality 99.9 %
Test CRC 6FCF9FB4
Copy CRC 6FCF9FB4
Copy OK

Track 5

Filename f:\Torrent\FLAC\Jacques Brel\Chansons ou Versions Inιdites De Jeunesse [Velours Box Set Remaster 2003]\05 - Dιparts.wav

Pre-gap length 0:00:03.26

Peak level 98.7 %
Track quality 100.0 %
Test CRC 23A6B71D
Copy CRC 23A6B71D
Copy OK

Track 6

Filename f:\Torrent\FLAC\Jacques Brel\Chansons ou Versions Inιdites De Jeunesse [Velours Box Set Remaster 2003]\06 - Le diable 'Ηa va'.wav

Pre-gap length 0:00:02.73

Peak level 98.9 %
Track quality 100.0 %
Test CRC 574DF961
Copy CRC 574DF961
Copy OK

Track 7

Filename f:\Torrent\FLAC\Jacques Brel\Chansons ou Versions Inιdites De Jeunesse [Velours Box Set Remaster 2003]\07 - Qu'avons nous fait, bonnes gens .wav

Pre-gap length 0:00:02.73

Peak level 98.5 %
Track quality 100.0 %
Test CRC CDD4C45C
Copy CRC CDD4C45C
Copy OK

Track 8

Filename f:\Torrent\FLAC\Jacques Brel\Chansons ou Versions Inιdites De Jeunesse [Velours Box Set Remaster 2003]\08 - L'ange dιchu.wav

Pre-gap length 0:00:02.64

Peak level 98.9 %
Track quality 100.0 %
Test CRC A3E3A410
Copy CRC A3E3A410
Copy OK

Track 9

Filename f:\Torrent\FLAC\Jacques Brel\Chansons ou Versions Inιdites De Jeunesse [Velours Box Set Remaster 2003]\09 - Les pieds dans le ruisseau.wav

Pre-gap length 0:00:02.93

Peak level 97.2 %
Track quality 100.0 %
Test CRC 8B88DFD3
Copy CRC 8B88DFD3
Copy OK

Track 10

Filename f:\Torrent\FLAC\Jacques Brel\Chansons ou Versions Inιdites De Jeunesse [Velours Box Set Remaster 2003]\10 - La Bastille.wav

Pre-gap length 0:00:03.22

Peak level 99.1 %
Track quality 100.0 %
Test CRC 99482DEE
Copy CRC 99482DEE
Copy OK

Track 11

Filename f:\Torrent\FLAC\Jacques Brel\Chansons ou Versions Inιdites De Jeunesse [Velours Box Set Remaster 2003]\11 - Ce qu'il nous faut (ce qu'il vous faut).wav

Pre-gap length 0:00:02.60

Peak level 99.1 %
Track quality 100.0 %
Test CRC 97997BF0
Copy CRC 97997BF0
Copy OK

Track 12

Filename f:\Torrent\FLAC\Jacques Brel\Chansons ou Versions Inιdites De Jeunesse [Velours Box Set Remaster 2003]\12 - L'accordιon de la vie.wav

Pre-gap length 0:00:03.04

Peak level 98.3 %
Track quality 100.0 %
Test CRC 7DFA9ED3
Copy CRC 7DFA9ED3
Copy OK

Track 13

Filename f:\Torrent\FLAC\Jacques Brel\Chansons ou Versions Inιdites De Jeunesse [Velours Box Set Remaster 2003]\13 - Je suis l'ombre des chansons.wav

Pre-gap length 0:00:02.86

Peak level 98.9 %
Track quality 100.0 %
Test CRC FE10EEEC
Copy CRC FE10EEEC
Copy OK

Track 14

Filename f:\Torrent\FLAC\Jacques Brel\Chansons ou Versions Inιdites De Jeunesse [Velours Box Set Remaster 2003]\14 - S'il te faut.wav

Pre-gap length 0:00:02.76

Peak level 99.0 %
Track quality 99.9 %
Test CRC 9AC48C7E
Copy CRC 9AC48C7E
Copy OK

Track 15

Filename f:\Torrent\FLAC\Jacques Brel\Chansons ou Versions Inιdites De Jeunesse [Velours Box Set Remaster 2003]\15 - Ballade.wav

Pre-gap length 0:00:02.57

Peak level 98.1 %
Track quality 100.0 %
Test CRC 6FA53F14
Copy CRC 6FA53F14
Copy OK

Track 16

Filename f:\Torrent\FLAC\Jacques Brel\Chansons ou Versions Inιdites De Jeunesse [Velours Box Set Remaster 2003]\16 - L'orage.wav

Pre-gap length 0:00:02.57

Peak level 98.4 %
Track quality 100.0 %
Test CRC 0A5E6EB1
Copy CRC 0A5E6EB1
Copy OK

Track 17

Filename f:\Torrent\FLAC\Jacques Brel\Chansons ou Versions Inιdites De Jeunesse [Velours Box Set Remaster 2003]\17 - Les pavιs.wav

Pre-gap length 0:00:03.04

Peak level 98.4 %
Track quality 100.0 %
Test CRC 223C51C2
Copy CRC 223C51C2
Copy OK

Track 18

Filename f:\Torrent\FLAC\Jacques Brel\Chansons ou Versions Inιdites De Jeunesse [Velours Box Set Remaster 2003]\18 - Le fou du roi.wav

Pre-gap length 0:00:03.17

Peak level 97.9 %
Track quality 99.9 %
Test CRC E082472C
Copy CRC E082472C
Copy OK

Track 19

Filename f:\Torrent\FLAC\Jacques Brel\Chansons ou Versions Inιdites De Jeunesse [Velours Box Set Remaster 2003]\19 - La foire.wav

Pre-gap length 0:00:02.60

Peak level 96.9 %
Track quality 100.0 %
Test CRC A92F1083
Copy CRC A92F1083
Copy OK

Track 20

Filename f:\Torrent\FLAC\Jacques Brel\Chansons ou Versions Inιdites De Jeunesse [Velours Box Set Remaster 2003]\20 - Sur la place.wav

Pre-gap length 0:00:02.86

Peak level 98.0 %
Track quality 100.0 %
Test CRC 71542D16
Copy CRC 71542D16
Copy OK

Track 21

Filename f:\Torrent\FLAC\Jacques Brel\Chansons ou Versions Inιdites De Jeunesse [Velours Box Set Remaster 2003]\21 - Il peut pleuvoir.wav

Pre-gap length 0:00:02.70

Peak level 98.9 %
Track quality 100.0 %
Test CRC 7FE5928F
Copy CRC 7FE5928F
Copy OK

Track 22

Filename f:\Torrent\FLAC\Jacques Brel\Chansons ou Versions Inιdites De Jeunesse [Velours Box Set Remaster 2003]\22 - Les deux fauteuils.wav

Pre-gap length 0:00:02.89

Peak level 82.4 %
Track quality 100.0 %
Test CRC CFC19A78
Copy CRC CFC19A78
Copy OK

Track 23

Filename f:\Torrent\FLAC\Jacques Brel\Chansons ou Versions Inιdites De Jeunesse [Velours Box Set Remaster 2003]\23 - Les enfants du roi.wav

Pre-gap length 0:00:03.10

Peak level 99.0 %
Track quality 100.0 %
Test CRC 2F68FFC4
Copy CRC 2F68FFC4
Copy OK

Track 24

Filename f:\Torrent\FLAC\Jacques Brel\Chansons ou Versions Inιdites De Jeunesse [Velours Box Set Remaster 2003]\24 - Le troubadour.wav

Pre-gap length 0:00:02.60

Peak level 98.7 %
Track quality 100.0 %
Test CRC C25D591F
Copy CRC C25D591F
Copy OK

Track 25

Filename f:\Torrent\FLAC\Jacques Brel\Chansons ou Versions Inιdites De Jeunesse [Velours Box Set Remaster 2003]\25 - Il nous faut regarder.wav

Pre-gap length 0:00:02.97

Peak level 98.3 %
Track quality 100.0 %
Test CRC F1BF63E9
Copy CRC F1BF63E9
Copy OK

Track 26

Filename f:\Torrent\FLAC\Jacques Brel\Chansons ou Versions Inιdites De Jeunesse [Velours Box Set Remaster 2003]\26 - C'est comme ηa.wav

Pre-gap length 0:00:02.96

Peak level 99.0 %
Track quality 100.0 %
Test CRC FB2B3267
Copy CRC FB2B3267
Copy OK

Track 27

Filename f:\Torrent\FLAC\Jacques Brel\Chansons ou Versions Inιdites De Jeunesse [Velours Box Set Remaster 2003]\27 - Si tu revenais.wav

Pre-gap length 0:00:03.20

Peak level 93.0 %
Track quality 100.0 %
Test CRC 6B55E33F
Copy CRC 6B55E33F
Copy OK

Track 28

Filename f:\Torrent\FLAC\Jacques Brel\Chansons ou Versions Inιdites De Jeunesse [Velours Box Set Remaster 2003]\28 - Le pendu.wav

Pre-gap length 0:00:03.00

Peak level 98.7 %
Track quality 100.0 %
Test CRC 6943A826
Copy CRC 6943A826
Copy OK

No errors occurred

End of status report

All credits to the original ripper / uploader of this great compilation