Subcategories

Jaki Liebezeit & Holger Mertin - Aksak (2015) {Staubgold 139}

Posted By: ruskaval
Jaki Liebezeit & Holger Mertin - Aksak (2015) {Staubgold 139}

Jaki Liebezeit & Holger Mertin - Aksak (2015) {Staubgold 139}
EAC rip (secure mode) | FLAC (tracks)+CUE+LOG -> 292 Mb | MP3 @320 -> 115 Mb
Full Artwork @ 300 dpi (jpg) -> 12 Mb | 5% repair rar
© 2015 Staubgold | Staubgold 139
Jazz / Electronic / World / Folk / Experimental / Alternative / Krautrock

Akşak is the exciting encounter of two exceptional musicians from different generations: legendary drummer Jaki Liebezeit (Can, Depeche Mode, Chet Baker) and percussion wizard Holger Mertin (Drums And More). Like a zen master of the minimal, repetitive beat, Liebezeit - famous for his hypnotic precision - creates with only few sound colours the perfect matrix for Mertin’s unleashed playing on any imaginable percussion instrument. The result is a mighty, complex pulse - the groove of a better world.

On the basis of that musical matrix, sound magician Joseph Suchy has produced a jaw-dropping album which defies any categorization. Even if other instruments like violin, guitar, brass or electronics sometimes seem to take the lead, the compelling pulse is always in the center of this swinging music. Liebezeit, Mertin and Suchy have created a timeless masterpiece which despite its complexity always stays melodic and danceable. That’s how modernity sounds (and swings) !
Jaki Liebezeit & Holger Mertin - Aksak (2015) {Staubgold 139}


Staubgold INFO

Personnel:
Jaki Liebezeit plays: World Drum Kit, Hand Cymbals, Dholak, Tambourine, Bongos and Onestring Percussion Instrument.

Holger Mertin plays: Hang, Hand Cymbals, Gongs, Modulationsscheiben, Cymbals, Tubesticks, Framedrum, Snaredrums, Melodic and Metal Percussion, Helix Bowl, Tambourine, Spoons, Singing Bowls, Kalimba, Marimbula, Waterphone, K.G. Sound Sculpture and Overtone Drum.

tracklist:
01 - Speedyhang
02 - Sagelatt
03 - Snarespur
04 - Spacedisco
05 - Arabarab
06 - Stuckflugel
07 - Krook
08 - Jackpool
09 - Asiawaters
10 - Yallametal
11 - Overtone
12 - Surfangel
13 - Live Like A Bitch

Exact Audio Copy V1.1 from 23. June 2015

EAC extraction logfile from 27. January 2016, 7:01

Jaki Liebezeit–Holger Mertin / Aksak

Used drive : MATSHITADVD+-RW SW830 Adapter: 1 ID: 0

Read mode : Secure
Utilize accurate stream : Yes
Defeat audio cache : Yes
Make use of C2 pointers : No

Read offset correction : 6
Overread into Lead-In and Lead-Out : No
Fill up missing offset samples with silence : Yes
Delete leading and trailing silent blocks : No
Null samples used in CRC calculations : Yes
Used interface : Native Win32 interface for Win NT & 2000
Gap handling : Appended to previous track

Used output format : User Defined Encoder
Selected bitrate : 896 kBit/s
Quality : High
Add ID3 tag : No
Command line compressor : C:\Program Files (x86)\Exact Audio Copy\Flac\flac.exe
Additional command line options : -8 -V -T "ARTIST=%artist%" -T "TITLE=%title%" -T "ALBUM=%albumtitle%" -T "DATE=%year%" -T "TRACKNUMBER=%tracknr%" -T "TOTALTRACKS=%numtracks%" -T "GENRE=%genre%" -T "ALBUMARTIST=%albumartist%" -T "ALBUM ARTIST=%albumartist%" -T "COMMENT=EAC Secure Mode, Test & Copy, AccurateRip, FLAC -8" %source%


TOC of the extracted CD

Track | Start | Length | Start sector | End sector
––––––––––––––––––––––––––––-
1 | 0:00.00 | 3:04.51 | 0 | 13850
2 | 3:04.51 | 4:22.43 | 13851 | 33543
3 | 7:27.19 | 4:06.67 | 33544 | 52060
4 | 11:34.11 | 3:03.12 | 52061 | 65797
5 | 14:37.23 | 3:05.23 | 65798 | 79695
6 | 17:42.46 | 3:27.00 | 79696 | 95220
7 | 21:09.46 | 2:18.71 | 95221 | 105641
8 | 23:28.42 | 5:37.39 | 105642 | 130955
9 | 29:06.06 | 5:46.11 | 130956 | 156916
10 | 34:52.17 | 2:58.10 | 156917 | 170276
11 | 37:50.27 | 3:08.74 | 170277 | 184450
12 | 40:59.26 | 5:17.27 | 184451 | 208252
13 | 46:16.53 | 2:30.06 | 208253 | 219508


Track 1

Filename G:\New Rips\Jaki Liebezeit–Holger Mertin - Aksak (2015) [FLAC]\01 - Speedyhang.wav

Pre-gap length 0:00:02.00

Peak level 100.0 %
Extraction speed 1.0 X
Track quality 100.0 %
Test CRC B1B2719C
Copy CRC B1B2719C
Track not present in AccurateRip database
Copy OK

Track 2

Filename G:\New Rips\Jaki Liebezeit–Holger Mertin - Aksak (2015) [FLAC]\02 - Sagelatt.wav

Peak level 96.6 %
Extraction speed 1.0 X
Track quality 99.9 %
Test CRC AAF566F1
Copy CRC AAF566F1
Track not present in AccurateRip database
Copy OK

Track 3

Filename G:\New Rips\Jaki Liebezeit–Holger Mertin - Aksak (2015) [FLAC]\03 - Snarespur.wav

Pre-gap length 0:00:00.06

Peak level 98.8 %
Extraction speed 1.3 X
Track quality 100.0 %
Test CRC A4D335D9
Copy CRC A4D335D9
Track not present in AccurateRip database
Copy OK

Track 4

Filename G:\New Rips\Jaki Liebezeit–Holger Mertin - Aksak (2015) [FLAC]\04 - Spacedisco.wav

Peak level 98.8 %
Extraction speed 1.3 X
Track quality 100.0 %
Test CRC A2F6A808
Copy CRC A2F6A808
Track not present in AccurateRip database
Copy OK

Track 5

Filename G:\New Rips\Jaki Liebezeit–Holger Mertin - Aksak (2015) [FLAC]\05 - Arabarab.wav

Pre-gap length 0:00:00.37

Peak level 96.6 %
Extraction speed 1.4 X
Track quality 100.0 %
Test CRC A40C6A69
Copy CRC A40C6A69
Track not present in AccurateRip database
Copy OK

Track 6

Filename G:\New Rips\Jaki Liebezeit–Holger Mertin - Aksak (2015) [FLAC]\06 - Stuckflugel.wav

Pre-gap length 0:00:00.02

Peak level 92.1 %
Extraction speed 1.5 X
Track quality 100.0 %
Test CRC C3097159
Copy CRC C3097159
Track not present in AccurateRip database
Copy OK

Track 7

Filename G:\New Rips\Jaki Liebezeit–Holger Mertin - Aksak (2015) [FLAC]\07 - Krook.wav

Peak level 98.8 %
Extraction speed 1.5 X
Track quality 100.0 %
Test CRC 750CBE8B
Copy CRC 750CBE8B
Track not present in AccurateRip database
Copy OK

Track 8

Filename G:\New Rips\Jaki Liebezeit–Holger Mertin - Aksak (2015) [FLAC]\08 - Jackpool.wav

Pre-gap length 0:00:00.02

Peak level 98.8 %
Extraction speed 1.7 X
Track quality 100.0 %
Test CRC C45D4208
Copy CRC C45D4208
Track not present in AccurateRip database
Copy OK

Track 9

Filename G:\New Rips\Jaki Liebezeit–Holger Mertin - Aksak (2015) [FLAC]\09 - Asiawaters.wav

Peak level 94.4 %
Extraction speed 1.8 X
Track quality 100.0 %
Test CRC 4BA9E715
Copy CRC 4BA9E715
Track not present in AccurateRip database
Copy OK

Track 10

Filename G:\New Rips\Jaki Liebezeit–Holger Mertin - Aksak (2015) [FLAC]\10 - Yallametal.wav

Peak level 83.0 %
Extraction speed 1.8 X
Track quality 100.0 %
Test CRC F3038609
Copy CRC F3038609
Track not present in AccurateRip database
Copy OK

Track 11

Filename G:\New Rips\Jaki Liebezeit–Holger Mertin - Aksak (2015) [FLAC]\11 - Overtone.wav

Pre-gap length 0:00:00.29

Peak level 100.0 %
Extraction speed 1.8 X
Track quality 100.0 %
Test CRC BF55564A
Copy CRC BF55564A
Track not present in AccurateRip database
Copy OK

Track 12

Filename G:\New Rips\Jaki Liebezeit–Holger Mertin - Aksak (2015) [FLAC]\12 - Surfangel.wav

Peak level 98.8 %
Extraction speed 1.9 X
Track quality 99.9 %
Test CRC E22D82EC
Copy CRC E22D82EC
Track not present in AccurateRip database
Copy OK

Track 13

Filename G:\New Rips\Jaki Liebezeit–Holger Mertin - Aksak (2015) [FLAC]\13 - Live Like A Bitch.wav

Pre-gap length 0:00:00.58

Peak level 100.0 %
Extraction speed 1.6 X
Track quality 99.9 %
Test CRC F6505D9D
Copy CRC F6505D9D
Track not present in AccurateRip database
Copy OK


None of the tracks are present in the AccurateRip database

No errors occurred

End of status report

–– CUETools DB Plugin V2.1.6

[CTDB TOCID: B1wbTnNJnQ4LoxpPvBa0YGF.6m4-] found
Submit result: B1wbTnNJnQ4LoxpPvBa0YGF.6m4- has been confirmed
Track | CTDB Status
1 | (4/4) Accurately ripped
2 | (4/4) Accurately ripped
3 | (4/4) Accurately ripped
4 | (4/4) Accurately ripped
5 | (4/4) Accurately ripped
6 | (4/4) Accurately ripped
7 | (4/4) Accurately ripped
8 | (4/4) Accurately ripped
9 | (4/4) Accurately ripped
10 | (4/4) Accurately ripped
11 | (4/4) Accurately ripped
12 | (4/4) Accurately ripped
13 | (4/4) Accurately ripped


==== Log checksum 9234B0B96FC04C97FF52F5C81293ABDBDDF1153667B387D70D9A4B143C7B9466 ====


Jaki Liebezeit & Holger Mertin - Aksak (2015) {Staubgold 139}

Jaki Liebezeit & Holger Mertin - Aksak (2015) {Staubgold 139}


All thanks goes to the original releaser!