Subcategories

James Horner - Living In The Age Of Airplanes (2018)

Posted By: aasana
James Horner - Living In The Age Of Airplanes (2018)

James Horner - Living In The Age Of Airplanes (2018)
EAC Rip | FLAC (tracks+.cue+.log) & artwork | 49:55 min | 440 MB
Soundtrack | Label: Terwilliger Productions

Intrada is proud to announce the premiere CD release of James Horner's score for the 2015 documentary Living in the Age of Airplanes. Horner was passionate about flying and loved to score the subject of aviation. Having previously scored the documentaries First in Flight and The Fourth Horseman, not to mention films with flying as a central theme such as The Rocketeer, Horner gravitated to the subject and poured his heart into it. One can hear Horner's very soul soaring through his music. Through a beautiful melding of wordless vocals, electronics and orchestra, Horner takes the listener on a musical journey, around the world, through time, and into the air above the clouds.

Directed by Brian J. Terwilliger and narrated by Harrison Ford, Living in the Age of Airplanes takes the viewer through a spectacularly filmed journey through the evolution of transportation and the almost miraculous way the barriers to traveling far and wide fell away with the advent of the airplane. Through striking visuals, the film shows how relatively stagnant and primitive humankind's ability to move around was for most of human evolution, only fairly recently allowing travelers to get to islands with no way in except by airplane, allowing flowers to travel from Kenya to Amsterdam to Alaska in just days, or just getting from one coast to another in mere hours. Without the airplane, people would probably not make these journeys. Now come take flight with James Horner's magical score, his music lighting up the runway from the past to today, and soaring with the human ingenuity that opened up the world to all of us.

Tracklist:
2:01 | 01. James Horner - Opening Sequence
2:23 | 02. James Horner - The World Before the Airplane
2:31 | 03. James Horner - 200,000-Year Timeline
2:52 | 04. James Horner - History of Transportation
3:11 | 05. James Horner - Nearly Perfected
1:20 | 06. James Horner - Portal to the Planet
3:00 | 07. James Horner - Migration Vacation
2:48 | 08. James Horner - Ancient Civilizations
2:55 | 09. James Horner - Maldives
3:25 | 10. James Horner - Antarctica
3:01 | 11. James Horner - Flowers
4:21 | 12. James Horner - Exponential Progress
2:58 | 13. James Horner - Perspective
3:09 | 14. James Horner - The Golden Age Is Now
2:03 | 15. James Horner - Home
1:25 | 16. James Horner - End Credits
3:06 | 17. James Horner - The Golden Age Is Now (Remix)
3:27 | 18. James Horner - End Credits (Remix)

Exact Audio Copy V1.1 from 23. June 2015

EAC extraction logfile from 5. July 2018, 15:22

James Horner / Living In The Age Of Airplanes

Used drive : slimtype eTDU108 1 Adapter: 1 ID: 0

Read mode : Secure
Utilize accurate stream : Yes
Defeat audio cache : Yes
Make use of C2 pointers : No

Read offset correction : 6
Overread into Lead-In and Lead-Out : No
Fill up missing offset samples with silence : Yes
Delete leading and trailing silent blocks : No
Null samples used in CRC calculations : Yes
Used interface : Native Win32 interface for Win NT & 2000
Gap handling : Appended to previous track

Used output format : User Defined Encoder
Selected bitrate : 1024 kBit/s
Quality : High
Add ID3 tag : No
Command line compressor : C:\Program Files (x86)\Exact Audio Copy\FLAC\FLAC.EXE
Additional command line options : -8 -V -T "ARTIST=%artist%" -T "TITLE=%title%" -T "ALBUM=%albumtitle%" -T "DATE=%year%" -T "TRACKNUMBER=%tracknr%" -T "GENRE=%genre%" -T "COMMENT=%comment%" -T "BAND=%albuminterpret%" -T "ALBUMARTIST=%albuminterpret%" -T "COMPOSER=%composer%" %haslyrics%–tag-from-file=LYRICS="%lyricsfile%"%haslyrics% -T "DISCNUMBER=%cdnumber%" -T "TOTALDISCS=%totalcds%" -T "TOTALTRACKS=%numtracks%" %hascover%–picture="%coverfile%"%hascover% %source% -o %dest%


TOC of the extracted CD

Track | Start | Length | Start sector | End sector
––––––––––––––––––––––––––––-
1 | 0:00.00 | 2:01.31 | 0 | 9105
2 | 2:01.31 | 2:23.35 | 9106 | 19865
3 | 4:24.66 | 2:31.01 | 19866 | 31191
4 | 6:55.67 | 2:51.44 | 31192 | 44060
5 | 9:47.36 | 3:11.05 | 44061 | 58390
6 | 12:58.41 | 1:20.09 | 58391 | 64399
7 | 14:18.50 | 2:59.58 | 64400 | 77882
8 | 17:18.33 | 2:48.10 | 77883 | 90492
9 | 20:06.43 | 2:54.51 | 90493 | 103593
10 | 23:01.19 | 3:24.53 | 103594 | 118946
11 | 26:25.72 | 3:01.30 | 118947 | 132551
12 | 29:27.27 | 4:20.47 | 132552 | 152098
13 | 33:47.74 | 2:58.26 | 152099 | 165474
14 | 36:46.25 | 3:09.37 | 165475 | 179686
15 | 39:55.62 | 2:02.52 | 179687 | 188888
16 | 41:58.39 | 1:25.11 | 188889 | 195274
17 | 43:23.50 | 3:05.41 | 195275 | 209190
18 | 46:29.16 | 3:26.50 | 209191 | 224690


Track 1

Filename D:\My Music\James Horner - Living In The Age Of Airplanes\01 - Opening Sequence.wav

Pre-gap length 0:00:02.00

Peak level 98.3 %
Extraction speed 2.3 X
Track quality 100.0 %
Test CRC E00631DD
Copy CRC E00631DD
Accurately ripped (confidence 3) [D94ABD3B] (AR v2)
Copy OK

Track 2

Filename D:\My Music\James Horner - Living In The Age Of Airplanes\02 - The World Before the Airplane.wav

Peak level 98.2 %
Extraction speed 2.5 X
Track quality 100.0 %
Test CRC 558E5676
Copy CRC 558E5676
Accurately ripped (confidence 3) [09185B16] (AR v2)
Copy OK

Track 3

Filename D:\My Music\James Horner - Living In The Age Of Airplanes\03 - 200,000-Year Timeline.wav

Peak level 96.7 %
Extraction speed 2.7 X
Track quality 100.0 %
Test CRC 2AB6D85D
Copy CRC 2AB6D85D
Accurately ripped (confidence 3) [8F90A3FD] (AR v2)
Copy OK

Track 4

Filename D:\My Music\James Horner - Living In The Age Of Airplanes\04 - History of Transportation.wav

Peak level 96.8 %
Extraction speed 2.9 X
Track quality 100.0 %
Test CRC 91805384
Copy CRC 91805384
Accurately ripped (confidence 3) [BD050202] (AR v2)
Copy OK

Track 5

Filename D:\My Music\James Horner - Living In The Age Of Airplanes\05 - Nearly Perfected.wav

Peak level 97.3 %
Extraction speed 3.2 X
Track quality 100.0 %
Test CRC 26B63C5D
Copy CRC 26B63C5D
Accurately ripped (confidence 3) [9CAC0964] (AR v2)
Copy OK

Track 6

Filename D:\My Music\James Horner - Living In The Age Of Airplanes\06 - Portal to the Planet.wav

Peak level 95.4 %
Extraction speed 2.6 X
Track quality 100.0 %
Test CRC 9B2DF2EA
Copy CRC 9B2DF2EA
Accurately ripped (confidence 3) [A17B3F05] (AR v2)
Copy OK

Track 7

Filename D:\My Music\James Horner - Living In The Age Of Airplanes\07 - Migration Vacation.wav

Peak level 96.9 %
Extraction speed 3.3 X
Track quality 100.0 %
Test CRC A1F09660
Copy CRC A1F09660
Accurately ripped (confidence 3) [4099C5C8] (AR v2)
Copy OK

Track 8

Filename D:\My Music\James Horner - Living In The Age Of Airplanes\08 - Ancient Civilizations.wav

Peak level 59.6 %
Extraction speed 3.4 X
Track quality 100.0 %
Test CRC FBCE8EA2
Copy CRC FBCE8EA2
Accurately ripped (confidence 3) [315F71D3] (AR v2)
Copy OK

Track 9

Filename D:\My Music\James Horner - Living In The Age Of Airplanes\09 - Maldives.wav

Peak level 89.2 %
Extraction speed 3.6 X
Track quality 100.0 %
Test CRC 41436C81
Copy CRC 41436C81
Accurately ripped (confidence 3) [F1D7E72D] (AR v2)
Copy OK

Track 10

Filename D:\My Music\James Horner - Living In The Age Of Airplanes\10 - Antarctica.wav

Peak level 96.8 %
Extraction speed 3.9 X
Track quality 100.0 %
Test CRC 8970C381
Copy CRC 8970C381
Accurately ripped (confidence 3) [70EE45ED] (AR v2)
Copy OK

Track 11

Filename D:\My Music\James Horner - Living In The Age Of Airplanes\11 - Flowers.wav

Peak level 99.0 %
Extraction speed 3.9 X
Track quality 100.0 %
Test CRC AF8C97B3
Copy CRC AF8C97B3
Accurately ripped (confidence 3) [C6700964] (AR v2)
Copy OK

Track 12

Filename D:\My Music\James Horner - Living In The Age Of Airplanes\12 - Exponential Progress.wav

Peak level 99.0 %
Extraction speed 3.4 X
Track quality 99.9 %
Test CRC 89C4FFA7
Copy CRC 89C4FFA7
Accurately ripped (confidence 3) [2188F2DB] (AR v2)
Copy OK

Track 13

Filename D:\My Music\James Horner - Living In The Age Of Airplanes\13 - Perspective.wav

Peak level 83.9 %
Extraction speed 4.2 X
Track quality 100.0 %
Test CRC 469B5013
Copy CRC 469B5013
Accurately ripped (confidence 3) [CCE15486] (AR v2)
Copy OK

Track 14

Filename D:\My Music\James Horner - Living In The Age Of Airplanes\14 - The Golden Age Is Now.wav

Peak level 99.3 %
Extraction speed 4.3 X
Track quality 100.0 %
Test CRC 96FF2FF3
Copy CRC 96FF2FF3
Accurately ripped (confidence 3) [4B1E1022] (AR v2)
Copy OK

Track 15

Filename D:\My Music\James Horner - Living In The Age Of Airplanes\15 - Home.wav

Peak level 96.8 %
Extraction speed 4.0 X
Track quality 100.0 %
Test CRC DF7E1BCC
Copy CRC DF7E1BCC
Accurately ripped (confidence 3) [D43EE476] (AR v2)
Copy OK

Track 16

Filename D:\My Music\James Horner - Living In The Age Of Airplanes\16 - End Credits.wav

Peak level 77.6 %
Extraction speed 3.7 X
Track quality 100.0 %
Test CRC 0ED12C2E
Copy CRC 0ED12C2E
Accurately ripped (confidence 3) [E8D6B66F] (AR v2)
Copy OK

Track 17

Filename D:\My Music\James Horner - Living In The Age Of Airplanes\17 - The Golden Age Is Now (Remix).wav

Peak level 96.6 %
Extraction speed 4.5 X
Track quality 100.0 %
Test CRC 12C6DBFF
Copy CRC 12C6DBFF
Accurately ripped (confidence 3) [42675631] (AR v2)
Copy OK

Track 18

Filename D:\My Music\James Horner - Living In The Age Of Airplanes\18 - End Credits (Remix).wav

Peak level 92.1 %
Extraction speed 4.7 X
Track quality 100.0 %
Test CRC 009764A6
Copy CRC 009764A6
Accurately ripped (confidence 3) [3F5776AB] (AR v2)
Copy OK


All tracks accurately ripped

No errors occurred

End of status report

–– CUETools DB Plugin V2.1.6

[CTDB TOCID: ReEYWm7JjlSAyH3JXOZvXWN7saE-] found
Submit result: ReEYWm7JjlSAyH3JXOZvXWN7saE- has been confirmed
Track | CTDB Status
1 | (12/12) Accurately ripped
2 | (12/12) Accurately ripped
3 | (12/12) Accurately ripped
4 | (12/12) Accurately ripped
5 | (12/12) Accurately ripped
6 | (12/12) Accurately ripped
7 | (12/12) Accurately ripped
8 | (12/12) Accurately ripped
9 | (12/12) Accurately ripped
10 | (12/12) Accurately ripped
11 | (12/12) Accurately ripped
12 | (12/12) Accurately ripped
13 | (12/12) Accurately ripped
14 | (12/12) Accurately ripped
15 | (12/12) Accurately ripped
16 | (12/12) Accurately ripped
17 | (12/12) Accurately ripped
18 | (12/12) Accurately ripped


==== Log checksum 6180BD7CE586F230D8772A6939EA9034D7F1C83F671FE67596E7598110C94C3E ====