Subcategories

James Wheeler - Ready! (1998)

Posted By: Domestos
James Wheeler - Ready! (1998)

James Wheeler - Ready! (1998)
EAC Rip | FLAC (image+.cue, log) ~ 391.08 Mb | 1:06:52 | Covers
Blues | Label: Delmark Records ‎– DE-719

Chicago blues journeyman had played with both Otis Clay and Otis Rush for decades before finally recording this debut for Delmark in 1998. READY! is exceptionally well-produced by owner Robert Koester in the naturalistic Delmark style. The backing band is first-rate, especially pianist Ken Saydak and James's brother, harpist Golden "Big" Wheeler, who are both given ample solo space. Of course, the main attraction is the guitarist himself who is a great player in the classic Chicago blues tradition. While Wheeler's vocals rarely rise above the middling–neither Rush nor Clay have anything to worry about here!–his jazz-derived instrumental approach and light touch bear comparison with B.B. King's. Vocalist Gloria Thompson-Rodgers guests on the scathing "Cold Hearted Woman." ~ AllMusic Review by Richard Mortifoglio

Track List:
01.Ready
02.This Old Freight Train
03.Gonna Make Some Changes
04.My Key Won't Fit That Lock No More
05.Cold Hearted Woman
06.Blues at Midnight
07.Good Morning Little Schoolgirl
08.Bad Girl
09.Extension 309
10.I'm Just Your Fool
11.My Baby's Comin' Home
12.Hound Dog
13.Looking for My Baby

James Wheeler - Ready! (1998)

Exact Audio Copy V1.3 from 2. September 2016

Отчёт EAC об извлечении, выполненном 2. февраля 2018, 20:41

James Wheeler / Ready

Дисковод: PIONEER DVD-RW DVR-219L Adapter: 1 ID: 0

Режим чтения : Достоверность
Использование точного потока : Да
Отключение кэша аудио : Да
Использование указателей C2 : Нет

Коррекция смещения при чтении : 6
Способность читать области Lead-in и Lead-out : Нет
Заполнение пропущенных сэмплов тишиной : Да
Удаление блоков с тишиной в начале и конце : Нет
При вычислениях CRC использовались нулевые сэмплы : Да
Интерфейс : Встроенный Win32-интерфейс для Win NT/2000

Выходной формат : Пользовательский кодировщик
Выбранный битрейт : 768 kBit/s
Качество : Высокий
Добавление ID3-тега : Нет
Утилита сжатия : C:\Program Files\Exact Audio Copy\FLAC\FLAC.EXE
Дополнительные параметры : -6 -V -T "ARTIST=%artist%" -T "TITLE=%title%" -T "ALBUM=%albumtitle%" -T "DATE=%year%" -T "TRACKNUMBER=%tracknr%" -T "GENRE=%genre%" -T "COMMENT=%comment%" -T "BAND=%albuminterpret%" -T "ALBUMARTIST=%albuminterpret%" -T "COMPOSER=%composer%" %haslyrics%–tag-from-file=LYRICS="%lyricsfile%"%haslyrics% -T "DISCNUMBER=%cdnumber%" -T "TOTALDISCS=%totalcds%" -T "TOTALTRACKS=%numtracks%" %hascover%–picture="%coverfile%"%hascover% %source% -o %dest%

TOC извлечённого CD

Трек | Старт | Длительность | Начальный сектор | Конечный сектор
––––––––––––––––––––––––––––––––––-
1 | 0:00.00 | 4:47.67 | 0 | 21591
2 | 4:47.67 | 6:16.10 | 21592 | 49801
3 | 11:04.02 | 3:44.50 | 49802 | 66651
4 | 14:48.52 | 5:07.10 | 66652 | 89686
5 | 19:55.62 | 5:09.58 | 89687 | 112919
6 | 25:05.45 | 7:03.02 | 112920 | 144646
7 | 32:08.47 | 4:09.55 | 144647 | 163376
8 | 36:18.27 | 3:48.00 | 163377 | 180476
9 | 40:06.27 | 6:40.38 | 180477 | 210514
10 | 46:46.65 | 3:45.20 | 210515 | 227409
11 | 50:32.10 | 3:25.50 | 227410 | 242834
12 | 53:57.60 | 8:49.55 | 242835 | 282564
13 | 62:47.40 | 4:04.50 | 282565 | 300914

Характеристики диапазона извлечения и сообщения об ошибках

Выбранный диапазон

Имя файла E:\Раздачи\James Wheeler - Ready! - 1998\James Wheeler - Ready.wav

Пиковый уровень 100.0 %
Скорость извлечения 2.9 X
Качество диапазона 99.9 %
CRC теста 89D246B4
CRC копии 89D246B4
Копирование… OK

Ошибок не произошло

AccurateRip: сводка

Трек 1 : извлечено точно (доверие 1) [D67CA37D] (AR v2)
Трек 2 : извлечено точно (доверие 1) [6ED52371] (AR v2)
Трек 3 : извлечено точно (доверие 1) [29DB81E5] (AR v2)
Трек 4 : извлечено точно (доверие 1) [AB2258D1] (AR v2)
Трек 5 : извлечено точно (доверие 1) [626EB1EA] (AR v2)
Трек 6 : извлечено точно (доверие 1) [1404C73F] (AR v2)
Трек 7 : извлечено точно (доверие 1) [E1104128] (AR v2)
Трек 8 : извлечено точно (доверие 1) [1C54A126] (AR v2)
Трек 9 : извлечено точно (доверие 1) [6FEBF553] (AR v2)
Трек 10 : извлечено точно (доверие 1) [2B53B981] (AR v2)
Трек 11 : извлечено точно (доверие 1) [0FA8CFC2] (AR v2)
Трек 12 : извлечено точно (доверие 1) [FAF926E4] (AR v2)
Трек 13 : извлечено точно (доверие 1) [5E5827AA] (AR v2)

Все треки извлечены точно

Конец отчёта

–– CUETools DB Plugin V2.1.6

[CTDB TOCID: pVI8zsQZ57FVbeOtJ4ACD4xc1J4-] disk not present in database
Submit result: pVI8zsQZ57FVbeOtJ4ACD4xc1J4- has been uploaded

==== Контрольная сумма отчёта 4FEB37BC8970083645AF2903FB47E684401F2A03C50ECBA41ACC0111764A4BF5 ====

All thanks go to the pazanenok

More Music in My Blog
Follow My RSS Channel