Subcategories

James Andrews - Satchmo of the Ghetto (1997)

Posted By: intothe
James Andrews - Satchmo of the Ghetto (1997)

James Andrews - Satchmo of the Ghetto (1997)
Jazz | EAC rip (FLAC+CUE+LOG) | 271 MB | full scans
NYNO | 43:25 | RAR with 5% recovery


EAC extraction logfile from 7. May 2009, 11:17

James Andrews / Satchmo of the Ghetto

Used drive : _NEC DVD_RW ND-3500AG Adapter: 0 ID: 0

Read mode : Secure
Utilize accurate stream : Yes
Defeat audio cache : Yes
Make use of C2 pointers : No

Read offset correction : 48
Overread into Lead-In and Lead-Out : No
Fill up missing offset samples with silence : Yes
Delete leading and trailing silent blocks : No
Null samples used in CRC calculations : Yes
Used interface : Native Win32 interface for Win NT & 2000

Used output format : User Defined Encoder
Selected bitrate : 768 kBit/s
Quality : High
Add ID3 tag : No
Command line compressor : C:\Program Files\Exact Audio Copy\FLAC\FLAC.EXE
Additional command line options : -6 -V -T "ARTIST=%a" -T "TITLE=%t" -T "ALBUM=%g" -T "DATE=%y" -T "TRACKNUMBER=%n" -T "GENRE=%m" -T "COMMENT=%e" %s -o %d


TOC of the extracted CD

Track | Start | Length | Start sector | End sector
––––––––––––––––––––––––––––-
1 | 0:00.00 | 5:37.67 | 0 | 25341
2 | 5:37.67 | 2:38.35 | 25342 | 37226
3 | 8:16.27 | 4:04.70 | 37227 | 55596
4 | 12:21.22 | 4:19.00 | 55597 | 75021
5 | 16:40.22 | 4:25.35 | 75022 | 94931
6 | 21:05.57 | 3:31.15 | 94932 | 110771
7 | 24:36.72 | 2:45.65 | 110772 | 123211
8 | 27:22.62 | 4:05.40 | 123212 | 141626
9 | 31:28.27 | 4:00.35 | 141627 | 159661
10 | 35:28.62 | 4:09.00 | 159662 | 178336
11 | 39:37.62 | 3:47.60 | 178337 | 195421


Range status and errors

Selected range

Filename J:\eMusic\Rip\James Andrews - Satchmo of the Ghetto.wav

Peak level 98.0 %
Range quality 100.0 %
Copy CRC CC6AD8A6
Copy OK

No errors occurred


AccurateRip summary

Track 1 not present in database
Track 2 accurately ripped (confidence 2) [289007AD]
Track 3 accurately ripped (confidence 2) [A951C7D7]
Track 4 accurately ripped (confidence 2) [F696877D]
Track 5 accurately ripped (confidence 2) [96EF12BB]
Track 6 accurately ripped (confidence 2) [B5F515AE]
Track 7 not present in database
Track 8 not present in database
Track 9 not present in database
Track 10 not present in database
Track 11 accurately ripped (confidence 2) [DF22F0FE]

6 track(s) accurately ripped
5 track(s) not present in the AccurateRip database

Some tracks could not be verified as accurate

End of status report


A nice taste of Louis Armstrong-flavored New Orleans jazz that keeps Satchmo to the level of influence, avoiding any outright swipes. The music has a nicely laid-back feeling to it, making it sway nicely, and Andrews blows a nice trumpet, rather than a mean one - there are some pleasantly rough edges that provide engaging character. The NO r&b elements salted in throughout are a big plus, too - this is definitely music made for people who like to get up and dance. - by Steven McDonald, AMG

Tracks:
1. Poop Ain't Gotta Scuffle No More (Mac Rebennack/Allen Toussaint) 5:37
2. Last Night on the Back Porch (Lew Brown/Carl Schraubstader) 2:38
3. Latin Cats (James Andrews/Allen Toussaint) 4:04
4. Sweet Emma (James Andrews) 4:19
5. Going for the Money (Allen Toussaint) 4:25
6. Got Me a New Love Thing (Allen Toussaint) 3:31
7. Banana Boogie (James Andrews) 2:45
8. Catch the Willie (James Andrews) 4:05
9. It's Only a Paper Moon (Harold Arlen/E.Y. "Yip" Harburg/Billy Rose) 4:00
10. Your Mama Don't Dance (Kenny Loggins/Jim Messina) 4:09
11. Old Rugged Cross (George Bennard) 3:47

Personnel:
James Andrews (Trumpet and Vocals)
Mac "Dr. John" Rebennack (Piano and Backing Vocals)
Allen Touissaint (Piano, Organ, Synthesizer, Backing Vocals and Percussion)
Scott Goudeau (Guitar)
Charles Moore (Bass)
Bernard Johnson (Drums and Backing Vocals)
Henry Love Vaughn (Conga) - 3,5
Austin Davis (Backing Vocals) - 8,10
Flynn Forte (Backing Vocals) - 8,10
Kwame Johnson (Backing Vocals) - 8,10
Rodrick Price (Backing Vocals) - 8,10

Dlink