Tags
Language
Tags

James Brown - 20th Century Masters - The Millennium Collection: The Best of James Brown (1999)

Posted By: delpotro
James Brown - 20th Century Masters - The Millennium Collection: The Best of James Brown (1999)

James Brown - 20th Century Masters - The Millennium Collection: The Best of James Brown (1999)
EAC Rip | FLAC (tracks+log+.cue) - 144 Mb | MP3 CBR 320 kbps - 84 Mb | 00:36:49
R'n'B, Funk, Soul | Label: Motown Records, Polydor Records

A lotta funk power, a lotta soul power-and some gems you won't find on other collections. Joining I Got You; Papa's Got a Brand New Bag; Get on the Good Foot; Cold Sweat; Soul Power; Prisoner of Love, and It's a Man's Man's Man's World are his early ballad Try Me; his often overlooked 1968 hit America Is My Home and more.
Tracklist:
1. James Brown & The Famous Flames – I Got You (I Feel Good) (02:48)
2. James Brown – Papa's Got a Brand New Bag, Pt. 1 (02:08)
3. James Brown – Soul Power (03:22)
4. James Brown – Night Train (03:33)
5. James Brown – It's a Man's, Man's, Man's World (02:49)
6. James Brown – Cold Sweat (07:28)
7. James Brown & The Famous Flames – America Is My Home (03:23)
8. James Brown & The Famous Flames – Prisoner of Love (02:23)
9. James Brown – Ain't That a Groove (02:41)
10. James Brown – Try Me (02:34)
11. James Brown – Get On the Good Foot, Pt. 1 (03:34)

Exact Audio Copy V1.3 from 2. September 2016

EAC extraction logfile from 30. August 2019, 10:25

James Brown / 20th Century Masters: The Millennium Collection: The Best of James Brown

Used drive : Dell DVD+/-RW DW316 Adapter: 1 ID: 0

Read mode : Secure
Utilize accurate stream : Yes
Defeat audio cache : Yes
Make use of C2 pointers : No

Read offset correction : 6
Overread into Lead-In and Lead-Out : No
Fill up missing offset samples with silence : Yes
Delete leading and trailing silent blocks : No
Null samples used in CRC calculations : Yes
Used interface : Native Win32 interface for Win NT & 2000
Gap handling : Appended to previous track

Used output format : User Defined Encoder
Selected bitrate : 1024 kBit/s
Quality : High
Add ID3 tag : No
Command line compressor : D:\OrpheusToolbox v1.00 - Windows\Codecs\flac-1.3.2\win64\flac.exe
Additional command line options : -8 -e -p -V -T "ARTIST=%artist%" -T "TITLE=%title%" -T "ALBUM=%albumtitle%" -T "DATE=%year%" -T "TRACKNUMBER=%tracknr%" -T "GENRE=%genre%" -T "PERFORMER=%albuminterpret%" -T "COMPOSER=%composer%" %haslyrics%–tag-from-file=LYRICS="%lyricsfile%"%haslyrics% -T "ALBUMARTIST=%albumartist%" -T "DISCNUMBER=%cdnumber%" -T "TOTALDISCS=%totalcds%" -T "TOTALTRACKS=%numtracks%" -T "COMMENT=%comment%" %source% -o %dest%


TOC of the extracted CD

Track | Start | Length | Start sector | End sector
––––––––––––––––––––––––––––-
1 | 0:00.00 | 2:48.67 | 0 | 12666
2 | 2:48.67 | 2:08.73 | 12667 | 22339
3 | 4:57.65 | 3:22.70 | 22340 | 37559
4 | 8:20.60 | 3:33.37 | 37560 | 53571
5 | 11:54.22 | 2:49.40 | 53572 | 66286
6 | 14:43.62 | 7:28.25 | 66287 | 99911
7 | 22:12.12 | 3:23.05 | 99912 | 115141
8 | 25:35.17 | 2:23.60 | 115142 | 125926
9 | 27:59.02 | 2:41.15 | 125927 | 138016
10 | 30:40.17 | 2:34.05 | 138017 | 149571
11 | 33:14.22 | 3:34.58 | 149572 | 165679


Track 1

Filename D:\20th Century Masters The Millennium Collection The Best of James Brown\01 I Got You (I Feel Good).wav

Pre-gap length 0:00:02.00

Peak level 100.0 %
Extraction speed 2.4 X
Track quality 100.0 %
Test CRC ADBCCDA6
Copy CRC ADBCCDA6
Accurately ripped (confidence 12) [5AE3DCA0] (AR v2)
Copy OK

Track 2

Filename D:\20th Century Masters The Millennium Collection The Best of James Brown\02 Papa's Got a Brand New Bag.wav

Pre-gap length 0:00:02.57

Peak level 100.0 %
Extraction speed 2.5 X
Track quality 100.0 %
Test CRC B58D76AF
Copy CRC B58D76AF
Accurately ripped (confidence 12) [9CCEF05B] (AR v2)
Copy OK

Track 3

Filename D:\20th Century Masters The Millennium Collection The Best of James Brown\03 Soul Power.wav

Pre-gap length 0:00:02.58

Peak level 91.1 %
Extraction speed 2.9 X
Track quality 100.0 %
Test CRC AEF5A46D
Copy CRC AEF5A46D
Accurately ripped (confidence 12) [74DEAA85] (AR v2)
Copy OK

Track 4

Filename D:\20th Century Masters The Millennium Collection The Best of James Brown\04 Night Train.wav

Pre-gap length 0:00:01.60

Peak level 96.1 %
Extraction speed 3.1 X
Track quality 100.0 %
Test CRC 5174D79D
Copy CRC 5174D79D
Accurately ripped (confidence 12) [4737F206] (AR v2)
Copy OK

Track 5

Filename D:\20th Century Masters The Millennium Collection The Best of James Brown\05 It's a Man's, Man's, Man's World.wav

Pre-gap length 0:00:02.57

Peak level 85.9 %
Extraction speed 3.2 X
Track quality 100.0 %
Test CRC 5E4E441B
Copy CRC 5E4E441B
Accurately ripped (confidence 11) [2F191594] (AR v2)
Copy OK

Track 6

Filename D:\20th Century Masters The Millennium Collection The Best of James Brown\06 Cold Sweat.wav

Pre-gap length 0:00:02.60

Peak level 100.0 %
Extraction speed 3.9 X
Track quality 100.0 %
Test CRC 2804EF0B
Copy CRC 2804EF0B
Accurately ripped (confidence 11) [70D35794] (AR v2)
Copy OK

Track 7

Filename D:\20th Century Masters The Millennium Collection The Best of James Brown\07 America is My Home.wav

Pre-gap length 0:00:02.60

Peak level 99.9 %
Extraction speed 3.8 X
Track quality 100.0 %
Test CRC 1F33CA09
Copy CRC 1F33CA09
Accurately ripped (confidence 11) [B5B81F82] (AR v2)
Copy OK

Track 8

Filename D:\20th Century Masters The Millennium Collection The Best of James Brown\08 Prisoner of Love.wav

Pre-gap length 0:00:02.57

Peak level 83.7 %
Extraction speed 3.7 X
Track quality 100.0 %
Test CRC A23C3D4A
Copy CRC A23C3D4A
Accurately ripped (confidence 12) [80899E1D] (AR v2)
Copy OK

Track 9

Filename D:\20th Century Masters The Millennium Collection The Best of James Brown\09 Ain't That a Groove.wav

Pre-gap length 0:00:02.60

Peak level 82.3 %
Extraction speed 3.9 X
Track quality 100.0 %
Test CRC 4A577581
Copy CRC 4A577581
Accurately ripped (confidence 11) [DC1B198A] (AR v2)
Copy OK

Track 10

Filename D:\20th Century Masters The Millennium Collection The Best of James Brown\10 Try Me.wav

Pre-gap length 0:00:02.57

Peak level 83.0 %
Extraction speed 3.9 X
Track quality 100.0 %
Test CRC A0234736
Copy CRC A0234736
Accurately ripped (confidence 12) [2D724368] (AR v2)
Copy OK

Track 11

Filename D:\20th Century Masters The Millennium Collection The Best of James Brown\11 Get on the Good Foot.wav

Pre-gap length 0:00:02.60

Peak level 88.3 %
Extraction speed 3.6 X
Track quality 99.9 %
Test CRC 1748A537
Copy CRC 1748A537
Accurately ripped (confidence 12) [C7F0BAE0] (AR v2)
Copy OK


All tracks accurately ripped

No errors occurred

End of status report

–– CUETools DB Plugin V2.1.6

[CTDB TOCID: jA6QAVJx7IoLL9bzLHp8ZLt0Eo8-] found
Submit result: jA6QAVJx7IoLL9bzLHp8ZLt0Eo8- has been confirmed
Track | CTDB Status
1 | ( 70/102) Accurately ripped
2 | ( 69/102) Accurately ripped
3 | ( 69/102) Accurately ripped
4 | ( 70/102) Accurately ripped
5 | ( 69/102) Accurately ripped
6 | ( 68/102) Accurately ripped
7 | ( 66/102) Accurately ripped, or (3/102) differs in 1466 samples @01:00:31-01:00:32
8 | ( 67/102) Accurately ripped
9 | ( 69/102) Accurately ripped
10 | ( 69/102) Accurately ripped
11 | ( 69/102) Accurately ripped


==== Log checksum CA78579CADDBCE8DA4A54636BC31B54DADF5ED3491CD51612F83994F8A894CB6 ====

––––––––––––––––––––––––––––––

Exact Audio Copy V1.3 from 2. September 2016

EAC extraction logfile from 30. August 2019, 10:25

James Brown / 20th Century Masters: The Millennium Collection: The Best of James Brown

Used drive : Dell DVD+/-RW DW316 Adapter: 1 ID: 0

Read mode : Secure
Utilize accurate stream : Yes
Defeat audio cache : Yes
Make use of C2 pointers : No

Read offset correction : 6
Overread into Lead-In and Lead-Out : No
Fill up missing offset samples with silence : Yes
Delete leading and trailing silent blocks : No
Null samples used in CRC calculations : Yes
Used interface : Native Win32 interface for Win NT & 2000
Gap handling : Appended to previous track

Used output format : User Defined Encoder
Selected bitrate : 1024 kBit/s
Quality : High
Add ID3 tag : No
Command line compressor : D:\OrpheusToolbox v1.00 - Windows\Codecs\flac-1.3.2\win64\flac.exe
Additional command line options : -8 -e -p -V -T "ARTIST=%artist%" -T "TITLE=%title%" -T "ALBUM=%albumtitle%" -T "DATE=%year%" -T "TRACKNUMBER=%tracknr%" -T "GENRE=%genre%" -T "PERFORMER=%albuminterpret%" -T "COMPOSER=%composer%" %haslyrics%–tag-from-file=LYRICS="%lyricsfile%"%haslyrics% -T "ALBUMARTIST=%albumartist%" -T "DISCNUMBER=%cdnumber%" -T "TOTALDISCS=%totalcds%" -T "TOTALTRACKS=%numtracks%" -T "COMMENT=%comment%" %source% -o %dest%


TOC of the extracted CD

Track | Start | Length | Start sector | End sector
––––––––––––––––––––––––––––-
1 | 0:00.00 | 2:48.67 | 0 | 12666
2 | 2:48.67 | 2:08.73 | 12667 | 22339
3 | 4:57.65 | 3:22.70 | 22340 | 37559
4 | 8:20.60 | 3:33.37 | 37560 | 53571
5 | 11:54.22 | 2:49.40 | 53572 | 66286
6 | 14:43.62 | 7:28.25 | 66287 | 99911
7 | 22:12.12 | 3:23.05 | 99912 | 115141
8 | 25:35.17 | 2:23.60 | 115142 | 125926
9 | 27:59.02 | 2:41.15 | 125927 | 138016
10 | 30:40.17 | 2:34.05 | 138017 | 149571
11 | 33:14.22 | 3:34.58 | 149572 | 165679


Track 1

Filename D:\20th Century Masters The Millennium Collection The Best of James Brown\01 I Got You (I Feel Good).wav

Pre-gap length 0:00:02.00

Peak level 100.0 %
Extraction speed 2.4 X
Track quality 100.0 %
Test CRC ADBCCDA6
Copy CRC ADBCCDA6
Accurately ripped (confidence 12) [5AE3DCA0] (AR v2)
Copy OK

Track 2

Filename D:\20th Century Masters The Millennium Collection The Best of James Brown\02 Papa's Got a Brand New Bag.wav

Pre-gap length 0:00:02.57

Peak level 100.0 %
Extraction speed 2.5 X
Track quality 100.0 %
Test CRC B58D76AF
Copy CRC B58D76AF
Accurately ripped (confidence 12) [9CCEF05B] (AR v2)
Copy OK

Track 3

Filename D:\20th Century Masters The Millennium Collection The Best of James Brown\03 Soul Power.wav

Pre-gap length 0:00:02.58

Peak level 91.1 %
Extraction speed 2.9 X
Track quality 100.0 %
Test CRC AEF5A46D
Copy CRC AEF5A46D
Accurately ripped (confidence 12) [74DEAA85] (AR v2)
Copy OK

Track 4

Filename D:\20th Century Masters The Millennium Collection The Best of James Brown\04 Night Train.wav

Pre-gap length 0:00:01.60

Peak level 96.1 %
Extraction speed 3.1 X
Track quality 100.0 %
Test CRC 5174D79D
Copy CRC 5174D79D
Accurately ripped (confidence 12) [4737F206] (AR v2)
Copy OK

Track 5

Filename D:\20th Century Masters The Millennium Collection The Best of James Brown\05 It's a Man's, Man's, Man's World.wav

Pre-gap length 0:00:02.57

Peak level 85.9 %
Extraction speed 3.2 X
Track quality 100.0 %
Test CRC 5E4E441B
Copy CRC 5E4E441B
Accurately ripped (confidence 11) [2F191594] (AR v2)
Copy OK

Track 6

Filename D:\20th Century Masters The Millennium Collection The Best of James Brown\06 Cold Sweat.wav

Pre-gap length 0:00:02.60

Peak level 100.0 %
Extraction speed 3.9 X
Track quality 100.0 %
Test CRC 2804EF0B
Copy CRC 2804EF0B
Accurately ripped (confidence 11) [70D35794] (AR v2)
Copy OK

Track 7

Filename D:\20th Century Masters The Millennium Collection The Best of James Brown\07 America is My Home.wav

Pre-gap length 0:00:02.60

Peak level 99.9 %
Extraction speed 3.8 X
Track quality 100.0 %
Test CRC 1F33CA09
Copy CRC 1F33CA09
Accurately ripped (confidence 11) [B5B81F82] (AR v2)
Copy OK

Track 8

Filename D:\20th Century Masters The Millennium Collection The Best of James Brown\08 Prisoner of Love.wav

Pre-gap length 0:00:02.57

Peak level 83.7 %
Extraction speed 3.7 X
Track quality 100.0 %
Test CRC A23C3D4A
Copy CRC A23C3D4A
Accurately ripped (confidence 12) [80899E1D] (AR v2)
Copy OK

Track 9

Filename D:\20th Century Masters The Millennium Collection The Best of James Brown\09 Ain't That a Groove.wav

Pre-gap length 0:00:02.60

Peak level 82.3 %
Extraction speed 3.9 X
Track quality 100.0 %
Test CRC 4A577581
Copy CRC 4A577581
Accurately ripped (confidence 11) [DC1B198A] (AR v2)
Copy OK

Track 10

Filename D:\20th Century Masters The Millennium Collection The Best of James Brown\10 Try Me.wav

Pre-gap length 0:00:02.57

Peak level 83.0 %
Extraction speed 3.9 X
Track quality 100.0 %
Test CRC A0234736
Copy CRC A0234736
Accurately ripped (confidence 12) [2D724368] (AR v2)
Copy OK

Track 11

Filename D:\20th Century Masters The Millennium Collection The Best of James Brown\11 Get on the Good Foot.wav

Pre-gap length 0:00:02.60

Peak level 88.3 %
Extraction speed 3.6 X
Track quality 99.9 %
Test CRC 1748A537
Copy CRC 1748A537
Accurately ripped (confidence 12) [C7F0BAE0] (AR v2)
Copy OK


All tracks accurately ripped

No errors occurred

End of status report

–– CUETools DB Plugin V2.1.6

[CTDB TOCID: jA6QAVJx7IoLL9bzLHp8ZLt0Eo8-] found
Submit result: jA6QAVJx7IoLL9bzLHp8ZLt0Eo8- has been confirmed
Track | CTDB Status
1 | ( 70/102) Accurately ripped
2 | ( 69/102) Accurately ripped
3 | ( 69/102) Accurately ripped
4 | ( 70/102) Accurately ripped
5 | ( 69/102) Accurately ripped
6 | ( 68/102) Accurately ripped
7 | ( 66/102) Accurately ripped, or (3/102) differs in 1466 samples @01:00:31-01:00:32
8 | ( 67/102) Accurately ripped
9 | ( 69/102) Accurately ripped
10 | ( 69/102) Accurately ripped
11 | ( 69/102) Accurately ripped


==== Log checksum CA78579CADDBCE8DA4A54636BC31B54DADF5ED3491CD51612F83994F8A894CB6 ====

Thanks to the Original ripper !