Subcategories

James Last - Spielt Mozart (1988)

Posted By: Speedyclick
James Last  - Spielt Mozart (1988)

James Last - Spielt Mozart (1988)
EAC Rip | FLAC (image & cue & log) & mp3 @ 320 kbps | tracks: 12 | Scans | 48:30 | ~ 321 Mb & 115 Mb
Label: Polydor | 5% recovery record | Easy listening, orchestra, classic

An album of amazing beauty. Mozart is the sweetest of all classical composers, and James Last's orchestra becomes soft and rich in strings in most of the pieces. Percussion and rhythmic arrangements are found in the "Eine kleine Nachtmusik" and of course the famous "Simfonie no 40". Really a small chef d' oeuvre. Enjoy.

TRACKLIST
01. Andante aus Sinfonia Concertante KV 364
02. Molto Allegro a.d.Sinfonie G-moll KV 550
03. Fantasie Nr.1 D-moll KV 398
04. Eine kleine Nachtmusik
05. Sonata XVI KV 331
06. Sonata in Bb
07. Andante Cantabile a.d. Konzert in D KV 218
08. Die Hochzeit des Figaro - Overture
09. Quartett in D-moll KV 421
10. Sonata Facile KV 545
11. Romance Pianokonzert in D KV 466
12. Larghetto

AUDIOCHECKER v2.0 beta (build 457) - by Dester - opdester@freemail.hu
~~~~~~~~~~~~~~~~~~~~~~~~~~~~~~~~~~

Started at: Thursday, 17. 10. 2013. - 3:07.14
1 file found

1 -===- S:\MUSIC\Non Greek Lossless\James Last\1988 - James Last Spielt Mozart (Polydor 837-702-2)\James Last Spielt Mozart.flac
Extracted successfully
Conclusion: this track is CDDA with probability 100%
Tempfile successfully deleted.


Finished at: Thursday, 17. 10. 2013. - 3:12.00 (operation time: 0:04.45)

Exact Audio Copy V0.99 prebeta 4 from 23. January 2008

EAC 抓取日志文件从14. 一月 2009, 0:38

James Last / Spielt Mozart

使用驱动器 :PIONEER DVD-RW DVR-112 Adapter: 0 ID: 0

读取模式 : 保护
使用精确流 : 是
废除音频缓冲 : 是
使用 C2 指针 : 否

读取偏移校正 : 48
读取 Lead-In 和 Lead-Out : 否
用静音填充抓取中丢失偏移的采样 : 是
去除首尾静音块 : 否
在 CRC 计算中使用了空样本 : 否
已用接口 : Win NT 及 2000 本地 Win32 接口

所用输出格式 : 用户定义的编码器
已选比特率 : 768 kBit/s
质量 : 高
添加 ID3 标签 : 否
命令行压缩器 : D:\Program Files\Exact Audio Copy\FLAC\FLAC.EXE
附加命令行参数 : -6 -V -T "ARTIST=%a" -T "TITLE=%t" -T "ALBUM=%g" -T "DATE=%y" -T "TRACKNUMBER=%n" -T "GENRE=%m" -T "COMMENT=%e" %s -o %d


被抓轨 CD 的 TOC

音轨 | 开始 | 长度 | 起始扇区 | 结尾扇区
–––––––––––––––––––––––––
1 | 0:00.00 | 2:56.00 | 0 | 13199
2 | 2:56.00 | 3:27.45 | 13200 | 28769
3 | 6:23.45 | 4:20.05 | 28770 | 48274
4 | 10:43.50 | 5:44.62 | 48275 | 74136
5 | 16:28.37 | 3:49.38 | 74137 | 91349
6 | 20:18.00 | 3:57.12 | 91350 | 109136
7 | 24:15.12 | 2:38.00 | 109137 | 120986
8 | 26:53.12 | 4:16.63 | 120987 | 140249
9 | 31:10.00 | 4:58.17 | 140250 | 162616
10 | 36:08.17 | 3:57.70 | 162617 | 180461
11 | 40:06.12 | 5:13.00 | 180462 | 203936
12 | 45:19.12 | 3:10.63 | 203937 | 218249


范围状态及错误

已选择范围

文件名 F:\UP\MOZART\James.Last.-.[Spielt.Mozart].专辑.(PLAC).wav

峰值电平 87.5 %
范围质量 100.0 %
测试 CRC 917C6C01
复制 CRC 917C6C01
复制成功

没有错误发生

Credits to the first ripper / uploader