James Last - They Call Me Hansi (2004, Polydor # 06024 9868785)

Posted By: luckburz
James Last - They Call Me Hansi (2004, Polydor # 06024 9868785)

James Last - They Call Me Hansi
EAC+LOG+CUE | FLAC: 307 MB | Full Artwork | 5% Recovery Info
Label/Cat#: Polydor # 06024 9868785 | Country/Year: Germany 2004
Genre: Electronic, Jazz, Funk/Soul, Pop, Classical | Style: Soul-Jazz, Easy Listening

MD5 [X] CUE [X] LOG [X] INFO TEXT [X] ARTWORK [X]

my rip [X] not my rip [ ]


Exact Audio Copy V1.0 beta 3 from 29. August 2011

EAC extraction logfile from 18. September 2013, 9:06

James Last / They Call Me Hansi

Used drive : PIONEER BD-RW BDR-206 Adapter: 0 ID: 2

Read mode : Secure
Utilize accurate stream : Yes
Defeat audio cache : Yes
Make use of C2 pointers : No

Read offset correction : 667
Overread into Lead-In and Lead-Out : No
Fill up missing offset samples with silence : Yes
Delete leading and trailing silent blocks : No
Null samples used in CRC calculations : Yes
Used interface : Native Win32 interface for Win NT & 2000

Used output format : User Defined Encoder
Selected bitrate : 1024 kBit/s
Quality : High
Add ID3 tag : Yes
Command line compressor : C:\Program Files\FLAC\flac.exe
Additional command line options : -5 -T "Artist=%artist%" -T "Title=%title%" -T "Album=%albumtitle%" -T "Date=%year%" -T "Tracknumber=%tracknr%" -T "Genre=%genre%" %source% -o %dest%


TOC of the extracted CD

Track | Start | Length | Start sector | End sector
––––––––––––––––––––––––––––-
1 | 0:00.00 | 4:36.13 | 0 | 20712
2 | 4:36.13 | 4:16.65 | 20713 | 39977
3 | 8:53.03 | 4:55.09 | 39978 | 62111
4 | 13:48.12 | 4:34.48 | 62112 | 82709
5 | 18:22.60 | 4:25.34 | 82710 | 102618
6 | 22:48.19 | 6:14.71 | 102619 | 130739
7 | 29:03.15 | 4:16.45 | 130740 | 149984
8 | 33:19.60 | 4:32.25 | 149985 | 170409
9 | 37:52.10 | 7:51.48 | 170410 | 205782
10 | 45:43.58 | 2:45.40 | 205783 | 218197


Range status and errors

Selected range

Filename F:\=== VINYL RIPS ===\=== EAC===\X FRESH RIP\James Last - They Call Me Hansi.wav

Peak level 99.3 %
Extraction speed 7.0 X
Range quality 99.9 %
Test CRC 3FDEE3DA
Copy CRC 3FDEE3DA
Copy OK

No errors occurred


AccurateRip summary

Track 1 accurately ripped (confidence 11) [B4F64CE7] (AR v2)
Track 2 accurately ripped (confidence 11) [E9C766D4] (AR v2)
Track 3 accurately ripped (confidence 11) [8A6E6830] (AR v2)
Track 4 accurately ripped (confidence 11) [C1CBB449] (AR v2)
Track 5 accurately ripped (confidence 11) [AB36C38F] (AR v2)
Track 6 accurately ripped (confidence 11) [66233FD2] (AR v2)
Track 7 accurately ripped (confidence 11) [9992A4C4] (AR v2)
Track 8 accurately ripped (confidence 11) [155CB86F] (AR v2)
Track 9 accurately ripped (confidence 10) [AEC2187D] (AR v2)
Track 10 accurately ripped (confidence 11) [F9528DAC] (AR v2)

All tracks accurately ripped

End of status report

–– CUETools DB Plugin V2.1.3

[CTDB TOCID: iGf1ntgA_ms2PjycfZDtAYi40YI-] found, Submit result: iGf1ntgA_ms2PjycfZDtAYi40YI- has been confirmed
[9c0afc9b] (01/10) No match
[8b4c8ff8] (09/10) Accurately ripped


==== Log checksum 4C1D1F2C0D15701DC2255DADA5928272C7A7F79D26C509BA3FC1044C70F26B79 ====

foobar2000 1.1.14a / Dynamic Range Meter 1.1.1
log date: 2013-09-21 15:41:19

––––––––––––––––––––––––––––––––––––––––
Statistics for: 10-Fool
Number of samples: 7300020
Duration: 2:46
––––––––––––––––––––––––––––––––––––––––

Left Right

Peak Value: -0.06 dB –- -0.06 dB
Avg RMS: -11.56 dB –- -11.84 dB
DR channel: 8.60 dB –- 8.43 dB
––––––––––––––––––––––––––––––––––––––––

Official DR Value: DR9

Samplerate: 44100 Hz
Channels: 2
Bits per sample: 16
Bitrate: 887 kbps
Codec: FLAC
================================================================================


foobar2000 1.1.14a / Dynamic Range Meter 1.1.1
log date: 2013-09-21 15:41:20

––––––––––––––––––––––––––––––––––––––––
Statistics for: 05-Across The Universe Of Time
Number of samples: 11706492
Duration: 4:25
––––––––––––––––––––––––––––––––––––––––

Left Right

Peak Value: -1.10 dB –- -1.10 dB
Avg RMS: -8.64 dB –- -8.38 dB
DR channel: 5.04 dB –- 4.86 dB
––––––––––––––––––––––––––––––––––––––––

Official DR Value: DR5

Samplerate: 44100 Hz
Channels: 2
Bits per sample: 16
Bitrate: 887 kbps
Codec: FLAC
================================================================================
––––––––––––––––––––––––––––––––––––––––
Statistics for: 03-Live Again - Immer Und Nochmal
Number of samples: 13014792
Duration: 4:55
––––––––––––––––––––––––––––––––––––––––

Left Right

Peak Value: -0.10 dB –- -0.10 dB
Avg RMS: -8.58 dB –- -8.18 dB
DR channel: 5.33 dB –- 5.20 dB
––––––––––––––––––––––––––––––––––––––––

Official DR Value: DR5

Samplerate: 44100 Hz
Channels: 2
Bits per sample: 16
Bitrate: 887 kbps
Codec: FLAC
================================================================================
––––––––––––––––––––––––––––––––––––––––
Analyzed: Jan Delay / They Call Me Hansi (1)
Nina Hagen / They Call Me Hansi (2)
––––––––––––––––––––––––––––––––––––––––

DR Peak RMS Duration Track
––––––––––––––––––––––––––––––––––––––––
DR8 -0.10 dB -9.21 dB 4:17 02-Halt Es Fest (Fantasy 2004)
DR5 -1.10 dB -8.05 dB 4:32 08-Love Will Survive (Die Liebe Siegt Immer)
––––––––––––––––––––––––––––––––––––––––

Number of tracks: 2
Official DR value: DR6

Samplerate: 44100 Hz
Channels: 2
Bits per sample: 16
Bitrate: 887 kbps
Codec: FLAC
================================================================================

––––––––––––––––––––––––––––––––––––––––
Statistics for: 06-Caruso
Number of samples: 16535148
Duration: 6:15
––––––––––––––––––––––––––––––––––––––––

Left Right

Peak Value: -0.10 dB –- -0.10 dB
Avg RMS: -11.23 dB –- -11.00 dB
DR channel: 8.40 dB –- 8.22 dB
––––––––––––––––––––––––––––––––––––––––

Official DR Value: DR8

Samplerate: 44100 Hz
Channels: 2
Bits per sample: 16
Bitrate: 887 kbps
Codec: FLAC
================================================================================
––––––––––––––––––––––––––––––––––––––––
Analyzed: The RZA / They Call Me Hansi (1)
Till Brönner & Derek Watkins / They Call Me Hansi (2)
––––––––––––––––––––––––––––––––––––––––

DR Peak RMS Duration Track
––––––––––––––––––––––––––––––––––––––––
DR7 -0.10 dB -10.51 dB 4:36 01-The Lonely Shepherd 2004
DR7 -0.10 dB -9.62 dB 7:52 09-Windmills Of Your Mind
––––––––––––––––––––––––––––––––––––––––

Number of tracks: 2
Official DR value: DR7

Samplerate: 44100 Hz
Channels: 2
Bits per sample: 16
Bitrate: 887 kbps
Codec: FLAC
================================================================================

––––––––––––––––––––––––––––––––––––––––
Analyzed: Tom Jones / They Call Me Hansi (1)
Xavier Naidoo / They Call Me Hansi (2)
––––––––––––––––––––––––––––––––––––––––

DR Peak RMS Duration Track
––––––––––––––––––––––––––––––––––––––––
DR7 -0.10 dB -10.30 dB 4:35 04-Little Green Apples
DR7 -0.10 dB -9.53 dB 4:17 07-Everything Reminds Me Of You
––––––––––––––––––––––––––––––––––––––––

Number of tracks: 2
Official DR value: DR7

Samplerate: 44100 Hz
Channels: 2
Bits per sample: 16
Bitrate: 887 kbps
Codec: FLAC
================================================================================



CD Info:

James Last - They Call Me Hansi

Label: Polydor, Universal
Catalog#: 06024 9868785
Format: CD, Album
Country: Germany
Released: 2004
Genre: Electronic, Jazz, Funk/Soul, Pop, Classical
Style: Soul-Jazz, Easy Listening

Tracklist:

1 with The RZA - The Lonely Shepherd 2004 4:36
2 with Jan Delay - Halt Es Fest (Fantasy 2004) 4:17
3 with Herbert Grönemeyer - Live Again - Immer Und Nochmal 4:55
4 with Tom Jones - Little Green Apples 4:35
5 with Hayley Westenra - Across The Universe Of Time 4:25
6 with Pavarotti - Caruso 6:15
7 with Xavier Naidoo - Everything Reminds Me Of You 4:17
8 with Nina Hagen - Love Will Survive (Die Liebe Siegt Immer) 4:32
9 with Till Brönner & Derek Watkins - Windmills Of Your Mind 7:52
Bonus Track
10 Elvis Presley - Fool 2:46

laut.de-Kritik: Grönemeyer, RZA, Naidoo u.a. ehren den Champion.
Review von Eberhard Dobler

James Last ist in. Selbst im Greenwich Village lässt sich zu horrenden Preisen ein Vinyl namens "Voodoo Party" auftreiben. Viele Krauts können das nicht von sich behaupten. Der mittlerweile 75-jährige Orchesterchef prägt die deutsche Unterhaltungsmusik seit den 50ern. Ungezählt seine Veröffentlichungen, die sich millionenfach und überall auf der Welt verkauften.

James Last-Arrangements kennt jeder. Für das junge Pop-Publikum wurde der Jazz-Bassist aber erst durch die Hip Hopper Fettes Brot ein Thema, die Ende der Neunziger zum Hörer griffen und die Kooperation "Ruf Mich An" anleierten. Inzwischen gelten Lasts Platten als beliebte Sample-Quelle.

Mit Hilfe des Grönemeyer-Produzenten Alex Silva legt er 2004 sein Jubiläumsalbum "They Call Me Hansi" vor. Dazu posiert der gebürtige Bremer - von Anton Corbijn inszeniert - im düsteren Country-Look wie Kult-Star Johnny Cash persönlich. Assoziieren viele mit seiner Marke vor allem TV-Musik, zeichnet Last aber auch für Klassiker wie "Der Einsame Hirte" (Kill Bill Vol. 1) und kenntnisreich angeswingte Traditional- oder Opern-Interpretationen verantwortlich und lud nun vornehmlich den Pop-Nachwuchs ins Studio.

Für Fans wohl am schwierigsten nachzuvollziehen dürfte der storytellende RZA-Beitrag sein. "Lonely shepard is one of the most versatile music movement arrangement that I have experienced … A theme for a champion", so der Wutang-Großmeister. Rapper haben eben eine Ader für Blockbuster-taugliche Melodien. Das modern programmierte, mit Jan Delay eingesungene "Halt Es Fest (Fantasy 2004)" offenbart dann die Stärke des Big Band-Leaders: seine raumgreifenden, rhythmisch akzentuierten Streicher- und Bläsersätze sind perfekt getimet und bestechen durch Zeitlosigkeit.

Herbert Grönemeyer klingt auf englisch zwar nicht so überzeugend wie auf deutsch. "Live Again/Immer Und Nochmal" wurde dennoch eine ergreifende Popnummer. Auch mit Tom Jones entwickelt Last eine beneidenswerte Dramaturgie zwischen Hip Hop-Beat und Pop-Arrangment. Es gibt eben nur gut oder schlecht gemachte Musik.

Ein Tenor vom Können des Opernstars Pavarotti braucht natürlich keinen Groove, um seine Stimme zu entfalten. "Everything Reminds Of You" mit Xavier Naidoo wächst von Takt zu Takt und jubiliert geradezu zwischen Easy Listening und kräftigem Soulpop. Jazz-Trompeter Till Brönner bleibt als einziger dem Tanzorchester-Format treu.

Nina Hagen will dagegen nicht recht mit Lasts Musik harmonieren, und auch der elfenhafte Beitrag der jungen Neuseeländerin Hayley Westenra gerät zu esoterisch. Dass Hansi ein Stück für den King schrieb ("Fool"), bleibt zum Schluss eine nette Fußnote der deutschen Musikgeschichte. "They Call Me Hansi" klingt für einen massenverträglichen Haudegen wohltuend modern: niveauvolle Popmusik für 8- bis 80-Jährige.

________________

NITROFLARE

Pt. 1 | Pt. 2 | Pt. 3

________________