Subcategories

Jamie James - Cruel World (1993)

Posted By: Domestos
Jamie James - Cruel World (1993)

Jamie James - Cruel World (1993)
EAC Rip | FLAC (image+.cue, log) ~ 312.16 Mb | 47:23 | Scans included
Rock, Pop Rock, Rockabilly | Label: Schoolkids' Records ‎- SKR 1510

James is still playing R&B/blues/rockabilly-based roots music as a solo act, but his songwriting has become somewhat more serious, in the mode of performers like Graham Parker and Bob Seger. His arrangements have more of a bluesy bar-band feel than those of the Kingbees on this competent, unremarkable 1993 set. ~ AllMusic Review by Richie Unterberger

Bass, Backing Vocals – Mark Gougeon
Drums, Backing Vocals – Johnny Badanjek
Harmonica – Peter Madcat Ruth*
Organ – Jim King (2)
Piano – Mark Braun
Producer, Lead Vocals, Lead Guitar, Rhythm Guitar, Written-By – Jamie James (2)
Slide Guitar – Jamie James (2) (tracks: 10), Jim McCarty (2)

Track List:
01.Cruel World 04:03
02.Do Your Thing 03:45
03.My Mistake 03:02
04.American Dream 03:37
05.Hootchie Cootchie 06:22
06.Love And Sex 04:09
07.Hollywood Girl 03:45
08.Shake Bop 02:40
09.Respect 03:32
10.Outlaw 03:18
11.Canadian Blues 04:05
12.All I Got 02:29
13.Child Of Mercy 02:28

Jamie James - Cruel World (1993)

Exact Audio Copy V1.0 beta 3 from 29. August 2011

Отчёт EAC об извлечении, выполненном 27. марта 2018, 15:16

Jamie James / Cruel World

Дисковод: TSSTcorpCDDVDW SH-224DB Adapter: 1 ID: 0

Режим чтения : Достоверность
Использование точного потока : Да
Отключение кэша аудио : Да
Использование указателей C2 : Нет

Коррекция смещения при чтении : 6
Способность читать области Lead-in и Lead-out : Нет
Заполнение пропущенных сэмплов тишиной : Да
Удаление блоков с тишиной в начале и конце : Нет
При вычислениях CRC использовались нулевые сэмплы : Да
Интерфейс : Встроенный Win32-интерфейс для Win NT/2000

Выходной формат : Пользовательский кодировщик
Выбранный битрейт : 768 kBit/s
Качество : Высокий
Добавление ID3-тега : Нет
Утилита сжатия : C:\Program Files\Exact Audio Copy\Flac\flac.exe
Дополнительные параметры : -V -8 -T "Date=%year%" -T "Genre=%genre%" %source%

TOC извлечённого CD

Трек | Старт | Длительность | Начальный сектор | Конечный сектор
––––––––––––––––––––––––––––––––––-
1 | 0:00.00 | 4:03.00 | 0 | 18224
2 | 4:03.00 | 3:45.60 | 18225 | 35159
3 | 7:48.60 | 3:02.55 | 35160 | 48864
4 | 10:51.40 | 3:37.15 | 48865 | 65154
5 | 14:28.55 | 6:22.25 | 65155 | 93829
6 | 20:51.05 | 4:09.50 | 93830 | 112554
7 | 25:00.55 | 3:45.55 | 112555 | 129484
8 | 28:46.35 | 2:40.52 | 129485 | 141536
9 | 31:27.12 | 3:32.70 | 141537 | 157506
10 | 35:00.07 | 3:18.65 | 157507 | 172421
11 | 38:18.72 | 4:05.70 | 172422 | 190866
12 | 42:24.67 | 2:29.28 | 190867 | 202069
13 | 44:54.20 | 2:28.57 | 202070 | 213226

Характеристики диапазона извлечения и сообщения об ошибках

Выбранный диапазон

Имя файла D:\lo$$le$$\J.James'93\Jamie James - Cruel World.wav

Пиковый уровень 100.0 %
Скорость извлечения 7.9 X
Качество диапазона 100.0 %
CRC теста 4394BCF6
CRC копии 4394BCF6
Копирование… OK

Ошибок не произошло

AccurateRip: сводка

Трек 1 точность не определена (достоверность 1) [BA89D572], AccurateRip вернул [56FE91D2] (AR v2)
Трек 2 точность не определена (достоверность 1) [6F194792], AccurateRip вернул [9031A17E] (AR v2)
Трек 3 точность не определена (достоверность 1) [F11DA795], AccurateRip вернул [4A94C805] (AR v2)
Трек 4 точность не определена (достоверность 1) [8B72E06E], AccurateRip вернул [C999E4BF] (AR v2)
Трек 5 точность не определена (достоверность 1) [D7468260], AccurateRip вернул [1E1094B5] (AR v2)
Трек 6 точность не определена (достоверность 1) [6D88BC0E], AccurateRip вернул [A382B852] (AR v2)
Трек 7 точность не определена (достоверность 1) [A6FFE7C6], AccurateRip вернул [774093FA] (AR v2)
Трек 8 точность не определена (достоверность 1) [94822C7E], AccurateRip вернул [E871ACE4] (AR v2)
Трек 9 точность не определена (достоверность 1) [B5DAF72B], AccurateRip вернул [4DE929A9] (AR v2)
Трек 10 точность не определена (достоверность 1) [419F7602], AccurateRip вернул [BFA9ADCE] (AR v2)
Трек 11 точность не определена (достоверность 1) [970030D2], AccurateRip вернул [C26BB384] (AR v2)
Трек 12 точность не определена (достоверность 1) [B642484E], AccurateRip вернул [35709296] (AR v2)
Трек 13 точность не определена (достоверность 1) [6EEF79F9], AccurateRip вернул [9609965B] (AR v2)

Ни один трек не прошёл проверки на точность
В вашей базе может быть иной вариант штамповки диска

Конец отчёта

==== Контрольная сумма отчёта 3D046CE525235112A9EB5D97F340074955C0C0C10FA9A83B77B7B04BEE0433EA ====

All thanks go to the vicpalbk2006

More Music in My Blog
Follow My RSS Channel