Subcategories

Jarmo Sermilä - Quattro Rilievi (1989)

Posted By: d'Avignon
Jarmo Sermilä - Quattro Rilievi (1989)

Jarmo Sermilä - Quattro Rilievi (1989)
Classical/Contemporary | FLAC lossless | cuesheets+log | covers+booklet | 72m28s | 259mb
Label: Ondine | cat. no. ODE 745-2


Finnish composer Jarmo Sermilä (1939) began his career as a jazz musician. He then studied composition at the Sibelius Academy in Helsinki with Kokkonen, gaining a composition diploma in 1975; in the same year he was awarded a master's degree at Helsinki University. He also studied composition in Prague in 1972. In addition to composing, and continuing to perform occasionally as a jazz trumpeter, Sermilä has had a particularly notable influence on Finnish musical life. He has been active as chairman of the Finnish Music Information Centre, of the Finnish Composers' Union, of the Finnish section of the ISCM and as artistic director of Finnish Radio's experimental studio. In 1976 he founded the Jasemusiikki publishing house, and in 1988 became artistic director of the Viitasaari (central Finland) Time of Music.

As a composer Sermilä came before the public relatively late, his first work dating from 1969. His early output was strongly influenced by Varèse. Since then a rhythmically freer fabric to his work has been joined by a clear pulse, and his music has shown certain minimalist effects. His central concerns are tone colours and textures and the relations between them, often forming his tone picture through random counterpoint and improvisation. Sermilä has, however, disregarded his background in jazz in his choice of material. His output has concentrated on ever-changing chamber ensembles, and he has avoided traditional formal genres such as the symphony and the sonata. During the 1970s he composed several works for orchestra, but from the 1980s he concentrated increasingly on chamber music.

Tracks:

01. Quattro Rilievi: I [0:08:36.00]
02. Quattro Rilievi: II [0:09:49.73]
03. Quattro Rilievi: III [0:07:26.16]
04. Quattro Rilievi: IV [0:13:24.26]
05. Contours [0:10:44.24]
06. A Prague Thoroughfare [0:15:14.36]
07. Love-Charm Songs [0:07:15.04]

Performers:

Olli Pohjola – flute, conductor
Jukka Pohjola – violin
Anna Hohti - violin
Matti Pohjola – cello
Tuula Riisola – viola
Rudolf Dasek – electric guitar
Sanna Niemikunnas – English horn
Erkki Suomalainen – bassoon
Heikki Nikula – clarinet, bass clarinet
Esa Tapani – horn
Markus Maskuniitty - horn

Anu Komsi – soprano

Exact Audio Copy V1.0 beta 3 from 29. August 2011

EAC extraction logfile from 9. February 2013, 21:27

Jarmo Sermila / Quattro Rilievi

Used drive : TSSTcorpCDDVDW SH-216AB Adapter: 1 ID: 0

Read mode : Secure
Utilize accurate stream : Yes
Defeat audio cache : Yes
Make use of C2 pointers : No

Read offset correction : 6
Overread into Lead-In and Lead-Out : No
Fill up missing offset samples with silence : Yes
Delete leading and trailing silent blocks : No
Null samples used in CRC calculations : Yes
Used interface : Native Win32 interface for Win NT & 2000
Gap handling : Appended to previous track

Used output format : User Defined Encoder
Selected bitrate : 768 kBit/s
Quality : High
Add ID3 tag : No
Command line compressor : C:\Program Files (x86)\Exact Audio Copy\FLAC\FLAC.EXE
Additional command line options : -6 -V -T "ARTIST=%artist%" -T "TITLE=%title%" -T "ALBUM=%albumtitle%" -T "DATE=%year%" -T "TRACKNUMBER=%tracknr%" -T "GENRE=%genre%" -T "COMMENT=%comment%" -T "BAND=%albuminterpret%" -T "ALBUMARTIST=%albuminterpret%" -T "COMPOSER=%composer%" %haslyrics%–tag-from-file=LYRICS="%lyricsfile%"%haslyrics% -T "DISCNUMBER=%cdnumber%" -T "TOTALDISCS=%totalcds%" -T "TOTALTRACKS=%numtracks%" %hascover%–picture="%coverfile%"%hascover% %source% -o %dest%


TOC of the extracted CD

Track | Start | Length | Start sector | End sector
––––––––––––––––––––––––––––-
1 | 0:00.00 | 8:36.00 | 0 | 38699
2 | 8:36.00 | 9:49.55 | 38700 | 82929
3 | 18:25.55 | 7:26.12 | 82930 | 116391
4 | 25:51.67 | 13:24.20 | 116392 | 176711
5 | 39:16.12 | 10:44.18 | 176712 | 225029
6 | 50:00.30 | 15:14.27 | 225030 | 293606
7 | 65:14.57 | 7:15.03 | 293607 | 326234


Track 1

Filename C:\Users\astarte\03. POST\Sermila, Jarmo - Quattro Rilievi\01. Quattro Rilievi- I.wav

Pre-gap length 0:00:02.00

Peak level 52.6 %
Extraction speed 5.6 X
Track quality 100.0 %
Copy CRC 9C987BCB
Track not present in AccurateRip database
Copy OK

Track 2

Filename C:\Users\astarte\03. POST\Sermila, Jarmo - Quattro Rilievi\02. Quattro Rilievi- II.wav

Pre-gap length 0:00:04.33

Peak level 70.5 %
Extraction speed 6.7 X
Track quality 100.0 %
Copy CRC 225ED274
Track not present in AccurateRip database
Copy OK

Track 3

Filename C:\Users\astarte\03. POST\Sermila, Jarmo - Quattro Rilievi\03. Quattro Rilievi- III.wav

Pre-gap length 0:00:03.97

Peak level 86.5 %
Extraction speed 6.5 X
Track quality 99.9 %
Copy CRC D8C923FE
Track not present in AccurateRip database
Copy OK

Track 4

Filename C:\Users\astarte\03. POST\Sermila, Jarmo - Quattro Rilievi\04. Quattro Rilievi- IV.wav

Pre-gap length 0:00:05.33

Peak level 47.2 %
Extraction speed 8.4 X
Track quality 100.0 %
Copy CRC 53143202
Track not present in AccurateRip database
Copy OK

Track 5

Filename C:\Users\astarte\03. POST\Sermila, Jarmo - Quattro Rilievi\05. Contours.wav

Pre-gap length 0:00:05.40

Peak level 59.0 %
Extraction speed 9.4 X
Track quality 100.0 %
Copy CRC 2E258C72
Track not present in AccurateRip database
Copy OK

Track 6

Filename C:\Users\astarte\03. POST\Sermila, Jarmo - Quattro Rilievi\06. A Prague Thoroughfare.wav

Pre-gap length 0:00:09.17

Peak level 81.1 %
Extraction speed 10.3 X
Track quality 100.0 %
Copy CRC 376C0DED
Track not present in AccurateRip database
Copy OK

Track 7

Filename C:\Users\astarte\03. POST\Sermila, Jarmo - Quattro Rilievi\07. Love-Charm Songs.wav

Pre-gap length 0:00:05.42

Peak level 84.9 %
Extraction speed 4.7 X
Track quality 99.8 %
Copy CRC F82474D2
Track not present in AccurateRip database
Copy OK


None of the tracks are present in the AccurateRip database

No errors occurred

End of status report

==== Log checksum E0BD2FB96EA46F7DECA987B13FFF1C6F6AF0485883679D06693DE585E47008C0 ====