Subcategories

Javier Ruibal - Quedate Conmigo (2013) {Karonte KAR 732}

Posted By: ruskaval
Javier Ruibal - Quedate Conmigo (2013) {Karonte KAR 732}

Javier Ruibal - Quedate Conmigo (2013) {Karonte KAR 732}
EAC rip (secure mode) | FLAC (tracks)+CUE+LOG -> 323 Mb | MP3 @320 -> 128 Mb
Full Artwork @ 300 dpi (jpg) -> 19 Mb | 5% repair rar
© 2013 Nuba Records / Karonte | KAR 732
World Music / Flamenco / Spain / Fusion / Latin

His new album, is much more than an invitation to that walk through his universe, is a colorful portrait of the human being seen with love and humor. And it envelops us in its open musicality in which it usually happens that a bulería is hand in hand with a blues and a Caribbean rhythm, in the most natural and fresh way. And in the next song let's fly without engine from La Giralda's feet to The Gates of China.

If something is intended by this special artist is to paint a smile and run your hand over our back. Stay with Javier Ruibal, is there a better company?
Su nuevo disco, es mucho más que una invitación a ese paseo por su universo, es un colorido retrato del ser humano visto con amor y humor. Y nos lo envuelve en su abierta musicalidad en la que suele pasar que una bulería se de la mano con un blues y un ritmo caribe, de la forma más natural y fresca. Y en la siguiente canción volemos sin motor de los pies de La Giralda a Las puertas de China.

Si algo pretende este especial artista es pintarnos una sonrisa y pasar su mano por nuestra espalda. Quédate con Javier Ruibal, ¿hay mejor compañía?
Javier Ruibal - Quedate Conmigo (2013) {Karonte KAR 732}


Tracks
01 - Once De Abril
02 - Los Mares Del Surf
03 - Quedate Conmigo
04 - Sueno Que Te Sueno
05 - Vinera De Postin
06 - Baila Lucia
07 - Tu Piloto Carinoso
08 - A Roma No Quiero Ir
09 - Mi Pequeno Buda
10 - El Principe De Los Parias
11 - Cine Macario
12 - Los Huerfanos De La Pension Triana
13 - El Nino Del Serengueti

Exact Audio Copy V1.0 beta 3 from 29. August 2011

EAC extraction logfile from 25. January 2014, 13:11

Javier Ruibal / Quedate Conmigo

Used drive : HL-DT-STDVDRAM GSA-H10N Adapter: 0 ID: 1

Read mode : Secure
Utilize accurate stream : Yes
Defeat audio cache : Yes
Make use of C2 pointers : No

Read offset correction : 667
Overread into Lead-In and Lead-Out : No
Fill up missing offset samples with silence : Yes
Delete leading and trailing silent blocks : No
Null samples used in CRC calculations : Yes
Used interface : Native Win32 interface for Win NT & 2000
Gap handling : Appended to previous track

Used output format : User Defined Encoder
Selected bitrate : 896 kBit/s
Quality : High
Add ID3 tag : No
Command line compressor : C:\Program Files\FLAC\flac.exe
Additional command line options : -8 -V -T "ARTIST=%artist%" -T "TITLE=%title%" -T "ALBUM=%albumtitle%" -T "DATE=%year%" -T "TRACKNUMBER=%tracknr%" -T "TOTALTRACKS=%numtracks%" -T "GENRE=%genre%" -T "ALBUMARTIST=%albumartist%" -T "ALBUM ARTIST=%albumartist%" -T "COMMENT=EAC Secure Mode, Test & Copy, AccurateRip, FLAC -8" %source%


TOC of the extracted CD

Track | Start | Length | Start sector | End sector
––––––––––––––––––––––––––––-
1 | 0:00.00 | 5:27.16 | 0 | 24540
2 | 5:27.16 | 4:39.61 | 24541 | 45526
3 | 10:07.02 | 3:37.11 | 45527 | 61812
4 | 13:44.13 | 3:53.66 | 61813 | 79353
5 | 17:38.04 | 4:57.18 | 79354 | 101646
6 | 22:35.22 | 3:58.58 | 101647 | 119554
7 | 26:34.05 | 4:05.72 | 119555 | 138001
8 | 30:40.02 | 3:27.72 | 138002 | 153598
9 | 34:07.74 | 3:05.00 | 153599 | 167473
10 | 37:12.74 | 3:25.45 | 167474 | 182893
11 | 40:38.44 | 4:56.10 | 182894 | 205103
12 | 45:34.54 | 4:38.24 | 205104 | 225977
13 | 50:13.03 | 4:13.38 | 225978 | 244990


Track 1

Filename D:\EAC-Ripeos\01 - Once De Abril.wav

Pre-gap length 0:00:02.00

Peak level 97.2 %
Extraction speed 4.5 X
Track quality 100.0 %
Test CRC 59FAE3A9
Copy CRC 59FAE3A9
Track not present in AccurateRip database
Copy OK

Track 2

Filename D:\EAC-Ripeos\02 - Los Mares Del Surf.wav

Pre-gap length 0:00:02.00

Peak level 98.2 %
Extraction speed 4.9 X
Track quality 100.0 %
Test CRC 80232675
Copy CRC 80232675
Track not present in AccurateRip database
Copy OK

Track 3

Filename D:\EAC-Ripeos\03 - Quedate Conmigo.wav

Pre-gap length 0:00:02.00

Peak level 98.1 %
Extraction speed 4.4 X
Track quality 99.9 %
Test CRC EF1EE898
Copy CRC EF1EE898
Track not present in AccurateRip database
Copy OK

Track 4

Filename D:\EAC-Ripeos\04 - Sueno Que Te Sueno.wav

Pre-gap length 0:00:02.00

Peak level 99.7 %
Extraction speed 5.6 X
Track quality 100.0 %
Test CRC 67524861
Copy CRC 67524861
Track not present in AccurateRip database
Copy OK

Track 5

Filename D:\EAC-Ripeos\05 - Vinera De Postin.wav

Pre-gap length 0:00:02.00

Peak level 97.7 %
Extraction speed 6.2 X
Track quality 100.0 %
Test CRC 2556B4DF
Copy CRC 2556B4DF
Track not present in AccurateRip database
Copy OK

Track 6

Filename D:\EAC-Ripeos\06 - Baila Lucia.wav

Pre-gap length 0:00:02.00

Peak level 97.4 %
Extraction speed 6.5 X
Track quality 100.0 %
Test CRC E9FAD120
Copy CRC E9FAD120
Track not present in AccurateRip database
Copy OK

Track 7

Filename D:\EAC-Ripeos\07 - Tu Piloto Carinoso.wav

Pre-gap length 0:00:02.00

Peak level 98.0 %
Extraction speed 6.6 X
Track quality 100.0 %
Test CRC 61166CC8
Copy CRC 61166CC8
Track not present in AccurateRip database
Copy OK

Track 8

Filename D:\EAC-Ripeos\08 - A Roma No Quiero Ir.wav

Pre-gap length 0:00:02.00

Peak level 97.9 %
Extraction speed 6.8 X
Track quality 100.0 %
Test CRC 77EFE754
Copy CRC 77EFE754
Track not present in AccurateRip database
Copy OK

Track 9

Filename D:\EAC-Ripeos\09 - Mi Pequeno Buda.wav

Pre-gap length 0:00:02.00

Peak level 96.5 %
Extraction speed 6.9 X
Track quality 100.0 %
Test CRC 7D53319D
Copy CRC 7D53319D
Track not present in AccurateRip database
Copy OK

Track 10

Filename D:\EAC-Ripeos\10 - El Principe De Los Parias.wav

Pre-gap length 0:00:02.00

Peak level 97.4 %
Extraction speed 7.2 X
Track quality 100.0 %
Test CRC C6574ACE
Copy CRC C6574ACE
Track not present in AccurateRip database
Copy OK

Track 11

Filename D:\EAC-Ripeos\11 - Cine Macario.wav

Pre-gap length 0:00:02.00

Peak level 98.0 %
Extraction speed 6.5 X
Track quality 99.9 %
Test CRC 667245A6
Copy CRC 667245A6
Track not present in AccurateRip database
Copy OK

Track 12

Filename D:\EAC-Ripeos\12 - Los Huerfanos De La Pension Triana.wav

Pre-gap length 0:00:02.00

Peak level 98.7 %
Extraction speed 8.0 X
Track quality 100.0 %
Test CRC 00DF79B5
Copy CRC 00DF79B5
Track not present in AccurateRip database
Copy OK

Track 13

Filename D:\EAC-Ripeos\13 - El Nino Del Serengueti.wav

Pre-gap length 0:00:02.00

Peak level 96.9 %
Extraction speed 8.1 X
Track quality 100.0 %
Test CRC 12E5C1D9
Copy CRC 12E5C1D9
Track not present in AccurateRip database
Copy OK


None of the tracks are present in the AccurateRip database

No errors occurred

End of status report

–– CUETools DB Plugin V2.1.3

[CTDB TOCID: anoRvB14x22pAP2_.wOtoNrzL44-] disk not present in database, Submit result: anoRvB14x22pAP2_.wOtoNrzL44- has been uploaded


==== Log checksum C9CEDD0E6C9C1F87745670F41D9B4A2E5A08044154AA5572388B3386EE8882B8 ====


Javier Ruibal - Quedate Conmigo (2013) {Karonte KAR 732}

Javier Ruibal - Quedate Conmigo (2013) {Karonte KAR 732}



===