Subcategories

Jay Thomas Quartet - Live Bop Live (feat. John Hansen, Chuck Kistler & Adam Kessler) (2018)

Posted By: delpotro
Jay Thomas Quartet - Live Bop Live (feat. John Hansen, Chuck Kistler & Adam Kessler) (2018)

Jay Thomas Quartet - Live Bop Live (feat. John Hansen, Chuck Kistler & Adam Kessler) (2018) (2018)
XLD Rip | FLAC (tracks+log+.cue) - 273 Mb | MP3 CBR 320 kbps - 107 Mb | 00:46:40
Jazz, Post-Bop | Label: McVouty Records

Post-bop classics recorded live at the Seattle Art Museum.

Jay Thomas: trumpet, flugelhorn, tenor & alto saxophone
John Hansen: piano
Chuck Kistler: bass
Adam Kessler: drums
Tracklist:
1. This Here (Live) (07:12)
2. Gaslight (Live) (09:00)
3. Ballad for My Baby (Live) (07:08)
4. The Chess Players (Live) (09:08)
5. They Sold Their Homestead (Live) (07:13)
6. Thespian (Live) (07:13)

X Lossless Decoder version 20191004 (152.0)

XLD extraction logfile from 2019-11-04 11:29:35 -0800

Jay Thomas / Live Bop Live

Used drive : hp DVDRAM GT20L (revision DC05)
Media type : CD-Recordable

Ripper mode : XLD Secure Ripper
Disable audio cache : OK for the drive with a cache less than 1375KiB
Make use of C2 pointers : NO
Read offset correction : 667
Max retry count : 100
Gap status : Analyzed, Appended (except HTOA)

TOC of the extracted CD
Track | Start | Length | Start sector | End sector
––––––––––––––––––––––––––––-
1 | 00:00:00 | 07:12:62 | 0 | 32461
2 | 07:12:62 | 09:00:46 | 32462 | 73007
3 | 16:13:33 | 07:08:35 | 73008 | 105142
4 | 23:21:68 | 09:08:47 | 105143 | 146289
5 | 32:30:40 | 07:13:33 | 146290 | 178797
6 | 39:43:73 | 06:56:56 | 178798 | 210053

AccurateRip Summary
Disc not found in AccurateRip DB.

All Tracks
Album gain : -0.73 dB
Peak : 0.999969
Statistics
Read error : 0
Jitter error (maybe fixed) : 0
Retry sector count : 0
Damaged sector count : 0

Track 01
Filename : /rips/Jay Thomas - Live Bop Live (2018) [FLAC]/01 This Here.flac
Pre-gap length : 00:02:00

Track gain : -0.30 dB
Peak : 0.999969
CRC32 hash (test run) : 069211A9
CRC32 hash : 069211A9
CRC32 hash (skip zero) : F3E1B159
AccurateRip v1 signature : 5F4FB888
AccurateRip v2 signature : 8B11D04D
->Track not present in AccurateRip database.
Statistics
Read error : 0
Jitter error (maybe fixed) : 0
Retry sector count : 0
Damaged sector count : 0

Track 02
Filename : /rips/Jay Thomas - Live Bop Live (2018) [FLAC]/02 Gaslight.flac
Pre-gap length : 00:03:00

Track gain : 1.20 dB
Peak : 0.999969
CRC32 hash (test run) : F06437F9
CRC32 hash : F06437F9
CRC32 hash (skip zero) : 5FCA27CF
AccurateRip v1 signature : D2BC4FE7
AccurateRip v2 signature : 29DA7922
->Track not present in AccurateRip database.
Statistics
Read error : 0
Jitter error (maybe fixed) : 0
Retry sector count : 0
Damaged sector count : 0

Track 03
Filename : /rips/Jay Thomas - Live Bop Live (2018) [FLAC]/03 Ballad For My Baby.flac
Pre-gap length : 00:03:00

Track gain : 2.43 dB
Peak : 0.856934
CRC32 hash (test run) : 66596B14
CRC32 hash : 66596B14
CRC32 hash (skip zero) : 17569967
AccurateRip v1 signature : 0A9AEA63
AccurateRip v2 signature : 8828F96E
->Track not present in AccurateRip database.
Statistics
Read error : 0
Jitter error (maybe fixed) : 0
Retry sector count : 0
Damaged sector count : 0

Track 04
Filename : /rips/Jay Thomas - Live Bop Live (2018) [FLAC]/04 The Chess Players.flac
Pre-gap length : 00:03:00

Track gain : -1.02 dB
Peak : 0.999969
CRC32 hash (test run) : 9D564147
CRC32 hash : 9D564147
CRC32 hash (skip zero) : 089CEAFD
AccurateRip v1 signature : 1B039E4D
AccurateRip v2 signature : 7C75B4FC
->Track not present in AccurateRip database.
Statistics
Read error : 0
Jitter error (maybe fixed) : 0
Retry sector count : 0
Damaged sector count : 0

Track 05
Filename : /rips/Jay Thomas - Live Bop Live (2018) [FLAC]/05 They Sold Their Homestead.flac
Pre-gap length : 00:03:00

Track gain : -3.90 dB
Peak : 0.999969
CRC32 hash (test run) : 12A4DD85
CRC32 hash : 12A4DD85
CRC32 hash (skip zero) : B563DE84
AccurateRip v1 signature : 2EC288D1
AccurateRip v2 signature : ECFC9234
->Track not present in AccurateRip database.
Statistics
Read error : 0
Jitter error (maybe fixed) : 0
Retry sector count : 0
Damaged sector count : 0

Track 06
Filename : /rips/Jay Thomas - Live Bop Live (2018) [FLAC]/06 Thespian.flac
Pre-gap length : 00:03:00

Track gain : -1.29 dB
Peak : 0.999969
CRC32 hash (test run) : 2BBD90D0
CRC32 hash : 2BBD90D0
CRC32 hash (skip zero) : DA02DAA4
AccurateRip v1 signature : 0E7A2AC3
AccurateRip v2 signature : D69B9815
->Track not present in AccurateRip database.
Statistics
Read error : 0
Jitter error (maybe fixed) : 0
Retry sector count : 0
Damaged sector count : 0

No errors occurred

End of status report

––-BEGIN XLD SIGNATURE––-
ZXj0sZDMykL_Q0koAsSGOjWGeIjXiiO7rlT8wdwKjXOEQXNGe9dpsiRPzVphEChmE2uEKMnEYoONbp41F70T9bct6sS1SzuO1Nu3hkG
––-END XLD SIGNATURE––-

Thanks to the Original ripper lamonte !