Subcategories

Jean Ferrat - L'Intégrale Des Enregistrements Originaux Decca/Barclay 1961-1972 (13CD Box Set, 2010)

Posted By: Speedyclick
Jean Ferrat - L'Intégrale Des Enregistrements Originaux Decca/Barclay 1961-1972 (13CD Box Set, 2010)

Jean Ferrat - L'Intégrale Des Enregistrements Originaux Decca/Barclay (13CD Box Set, 2010)
EAC Rip | FLAC (image & cue & log) & mp3 @ 320 kbps | tracks: 128 | 500 x 500 Front covers & Box front & back | 6:10:26 | ~ 2,38 Gb & 864 Mb
Label: Universal | 5% recovery record | Remastered original recordings | Chanson

Jean Ferrat was one of the most important french singers and songwriters. The most creative years of his career he recorded under the DECCA label (1961-1963) and then under the famous label of Eddie Barclay until 1972 when he stopped his public performances with a "good-bye" concert at the "Palais des Sports de Paris". This wonderful 13 CD Box-set contains all the 12 albums that he has recorded with these labels, plus a bonus CD with the songs on 45 rpm records. The original recordings are fully remastered and the song quality is excellent. The 12 CD have covers which are small replicas of the original LP. Enjoy a nostalgic 6 hours journey to the music, songs and poems of the unforgettable Jean Ferrat.

Ferrat was born in Vaucresson, Hauts-de-Seine. He was the youngest of four children from a modest family which moved to Versailles in 1935, where Ferrat studied at the Jules Ferry College. His Russian-born father (naturalized in 1928) was forced to wear the yellow star and deported to Auschwitz in 1942. Ferrat dropped out of school to help the family survive.

In the early 1950s, he started in Parisian cabaret. After that he avoided any particular musical style, but remained faithful to himself, his friends and his public. In 1956, he set "Les yeux d'Elsa" ("Elsa's eyes"), a Louis Aragon poem which Ferrat loved, to music. Its rendition by popular artist André Claveau brought Ferrat some initial recognition as a songwriter. His first 45 RPM single was released in 1958, without success. It was not until 1959, with publisher Gérard Meys, who also became his close friend and associate, that his career started to flourish. He signed with Decca and released his second single, "Ma Môme", in 1960 under the musical direction of Meys.

In 1961, Ferrat married Christine Sèvres, a singer who performed some of his songs. She died in 1981 at age 50. He also met Alain Goraguer, who became an arranger of his songs. His debut album, Deux Enfants du Soleil, was released that year. Ferrat also wrote songs for Zizi Jeanmaire and went on the road, sharing billing with her at the Alhambra for six months. Nuit et Brouillard ("Night and Fog"), which followed in 1963, was awarded the Académie Charles Cros's Grand Prix du Disque. Ferrat toured again in 1965, but stopped performing on stage in 1973.

In 1990, he received an award from the Société des auteurs, compositeurs et éditeurs de musique, (SACEM) the French association of songwriters, composers and music publishers. In 2010, Ferrat died of a long illness at the age of 79. He lived in a small village of 700 people in Ardeche.
Jean Ferrat - L'Intégrale Des Enregistrements Originaux Decca/Barclay 1961-1972 (13CD Box Set, 2010)

CD01: Deux enfants au soleil (1961) (25:10 | ~ 176 Mb & 59 Mb)

TRACKLIST
01. Deux enfants au soleil [02:35]
02. Ma môme [02:00]
03. Regarde-toi Paname [02:33]
04. J'entends, j'entends [02:48]
05. Ma fille [01:51]
06. Paris-Gavroche [02:33]
07. Ta chanson [02:21]
08. Napoléon IV [02:54]
09. L'éloge du célibat [02:25]
10. Federico Garcia Lorca [03:07]
Jean Ferrat - L'Intégrale Des Enregistrements Originaux Decca/Barclay 1961-1972 (13CD Box Set, 2010)

CD02: La fête aux copains (1962) (19:57 | ~ 137 Mb & 46 Mb)

TRACKLIST
01. La fête aux copains [02:26]
02. Le p'tit jardin [02:39]
03. Les noctambules [02:06]
04. L'homme à l'oreille coupée [02:52]
05. Mes amours [02:39]
06. Les petits bistrots [01:42]
07. Les nomades [02:54]
08. Le Polonais [02:36]
Jean Ferrat - L'Intégrale Des Enregistrements Originaux Decca/Barclay 1961-1972 (13CD Box Set, 2010)

CD03: Nuit et brouillard (1963) (21:50 | ~ 116 Mb & 52 Mb)

TRACKLIST
01. Nuit et brouillard [03:17]
02. A Brassens [02:28]
03. Les enfants terribles [02:29]
04. Toujours la même g… [02:56]
05. C'est beau la vie [02:45]
06. Quatre cents enfants noirs [02:54]
07. Nous dormirons ensemble [02:22]
08. Horizontalement [02:36]
Jean Ferrat - L'Intégrale Des Enregistrements Originaux Decca/Barclay 1961-1972 (13CD Box Set, 2010)

CD04: La montagne (1964) (20:56 | ~ 112 Mb & 49 Mb)

TRACKLIST
01. Berceuse [03:22]
02. Hourrah ! [02:17]
03. Que serai-je sans toi [03:06]
04. Le jour où je deviendrai gros [02:25]
05. La jeunesse [02:08]
06. La montagne [03:06]
07. Autant d'amour, autant de fleurs [02:13]
08. Au bout de mon âge [02:16]
Jean Ferrat - L'Intégrale Des Enregistrements Originaux Decca/Barclay 1961-1972 (13CD Box Set, 2010)

CD05: Potemkine (1965) (29:09 | ~ 154 Mb & 69 Mb)

TRACKLIST
01. Potemkine [02:53]
02. C'est si peu dire que je t'aime [02:52]
03. Les belles étrangères [02:47]
04. Je ne chante pas pour passer le temps [02:37]
05. La Voie lactée (s.g.d.g.) [03:04]
06. C'est toujours la première fois [02:57]
07. Le sabre et le goupillon [02:44]
08. Raconte-moi la mer [04:21]
09. A l'été de la Saint-Martin [02:32]
10. On ne voit pas le temps passer [02:17]
Jean Ferrat - L'Intégrale Des Enregistrements Originaux Decca/Barclay 1961-1972 (13CD Box Set, 2010)

CD06: Maria (1966) (33:10 | ~ 232 Mb & 77 Mb)

TRACKLIST
01. Maria [03:11]
02. Heureux celui qui meurt d'aimer [03:00]
03. En groupe, en ligue, en procession [02:54]
04. Si je mourais là-bas [02:55]
05. La liberté est en voyage [03:06]
06. Un enfant quitte Paris [03:28]
07. Un jour, un jour [04:58]
08. Alléluia [03:28]
09. Chanson pour toi [02:43]
10. Pauvre Boris [03:26]
Jean Ferrat - L'Intégrale Des Enregistrements Originaux Decca/Barclay 1961-1972 (13CD Box Set, 2010)

CD07: Cuba si (1967) (29:21 | ~ 199 Mb & 68 Mb)

TRACKLIST
01. Cuba si [02:51]
02. Mourir au soleil [02:58]
03. Excusez-moi [02:39]
04. Prisunic [02:56]
05. A Santiago [02:45]
06. Ce qu'on est bien mon amour [02:47]
07. Les guérilléros [02:58]
08. Au point du jour [02:42]
09. Pauvres petits c… [03:09]
10. Indien [03:33]
Jean Ferrat - L'Intégrale Des Enregistrements Originaux Decca/Barclay 1961-1972 (13CD Box Set, 2010)

CD08: Ma France (1969) (37:40 | ~ 256 Mb & 88 Mb)

TRACKLIST
01. Au printemps de quoi rêvais-tu [03:13]
02. La matinée [02:56]
03. L'idole à papa [03:21]
04. Les poètes [04:08]
05. Ariane [02:26]
06. La petite fleur qui tombe [03:04]
07. Ma France [03:44]
08. Rien à voir [02:17]
09. Les filles longues [04:27]
10. Hop-la ! Nous vivons [02:36]
11. Le bureau [03:22]
12. Un jour futur [02:01]
Jean Ferrat - L'Intégrale Des Enregistrements Originaux Decca/Barclay 1961-1972 (13CD Box Set, 2010)

CD09: Camarade (1970) (27:57 | ~ 203 Mb & 65 Mb)

TRACKLIST
01. Camarade [02:38]
02. Tout ce que j'aime [03:00]
03. Les demoiselles de magasin [02:39]
04. Mon bel amour [02:59]
05. 17 ans [02:08]
06. Sacré Félicien [02:30]
07. La cavale [02:36]
08. Y aurait-il… [02:46]
09. Intox [03:46]
10. Les lilas [02:49]
Jean Ferrat - L'Intégrale Des Enregistrements Originaux Decca/Barclay 1961-1972 (13CD Box Set, 2010)

CD10: La Commune (1971) (31:43 | ~ 227 Mb & 74 Mb)

TRACKLIST
01. La Commune [02:38]
02. Les derniers tziganes [02:57]
03. Je vous aime [03:28]
04. Mis à part [03:21]
05. Comprendre [03:14]
06. Les touristes partis [02:19]
07. Etat d'âme [03:02]
08. J'imagine [02:41]
09. L'adresse du bonheur [02:32]
10. Aimer à perdre la raison [02:37]
11. Et pour l'exemple [02:49]
Jean Ferrat - L'Intégrale Des Enregistrements Originaux Decca/Barclay 1961-1972 (13CD Box Set, 2010)

CD11: Ferrat chante Aragon (1971) (34:23 | ~ 229 Mb & 79 Mb)

TRACKLIST
01. Un jour, un jour [04:58]
02. Le malheur d'aimer [03:11]
03. Les poètes [04:08]
04. Nous dormirons ensemble [02:22]
05. C'est si peu dire que je t'aime [02:53]
06. J'entends, j'entends [03:21]
07. Que serais-je sans toi [03:06]
08. Robert le diable [04:56]
09. Au bout de mon âge [02:25]
10. Heureux celui qui meurt d'aimer [02:58]
Jean Ferrat - L'Intégrale Des Enregistrements Originaux Decca/Barclay 1961-1972 (13CD Box Set, 2010)

CD12: A moi l'Afrique (1972) (32:01 | ~ 225 Mb & 74 Mb)

TRACKLIST
01. A moi l'Afrique [04:35]
02. Picasso colombe [02:59]
03. Une femme honnête… [03:07]
04. A l'ombre bleue du figuier [02:32]
05. Si j'étais peintre ou maçon [02:28]
06. Les saisons [03:45]
07. La leçon buissonniere [03:00]
08. Paris an 2000 [02:55]
09. Hou hou méfions-nous… [03:33]
10. Ils volent volent volent [03:04]
Jean Ferrat - L'Intégrale Des Enregistrements Originaux Decca/Barclay 1961-1972 (13CD Box Set, 2010)

CD13: CD Bonus (from 45 r.p.m.) (27:09 | ~ 169 Mb & 64 Mb)

TRACKLIST
01. Eh l'amour ! [02:53]
02. La cervelle [02:26]
03. Sainte canaille [02:11]
04. De Nogent jusqu'à la mer [02:29]
05. Tu ne m'as jamais quitté [02:38]
06. Les beaux jours [02:18]
07. Loin [01:57]
08. Mon palais [03:04]
09. Caserne [02:29]
10. La boldochévique [02:22]
11. Le petit trou pas cher [02:18]

––––-
CD01
––––-
Exact Audio Copy V1.0 beta 3 from 29. August 2011

EAC extraction logfile from 16. January 2014, 20:31

Jean FERRAT / Deux enfants au soleil

Used drive : HL-DT-STDVDRAM GH10N Adapter: 1 ID: 1

Read mode : Secure
Utilize accurate stream : Yes
Defeat audio cache : Yes
Make use of C2 pointers : No

Read offset correction : 667
Overread into Lead-In and Lead-Out : No
Fill up missing offset samples with silence : Yes
Delete leading and trailing silent blocks : No
Null samples used in CRC calculations : Yes
Used interface : Native Win32 interface for Win NT & 2000

Used output format : User Defined Encoder
Selected bitrate : 1024 kBit/s
Quality : High
Add ID3 tag : Yes
Command line compressor : C:\Program Files\Exact Audio Copy New\Flac\flac.exe
Additional command line options : -V -5 -T "artist=%artist%" -T "title=%title%" -T "album=%albumtitle%" -T "tracknumber=%tracknr2%" -T "genre=%genre%" -5 %source%


TOC of the extracted CD

Track | Start | Length | Start sector | End sector
––––––––––––––––––––––––––––-
1 | 0:00.00 | 2:35.25 | 0 | 11649
2 | 2:35.25 | 2:00.65 | 11650 | 20714
3 | 4:36.15 | 2:33.09 | 20715 | 32198
4 | 7:09.24 | 2:48.31 | 32199 | 44829
5 | 9:57.55 | 1:51.17 | 44830 | 53171
6 | 11:48.72 | 2:33.43 | 53172 | 64689
7 | 14:22.40 | 2:21.01 | 64690 | 75265
8 | 16:43.41 | 2:54.46 | 75266 | 88361
9 | 19:38.12 | 2:25.06 | 88362 | 99242
10 | 22:03.18 | 3:07.49 | 99243 | 113316


Range status and errors

Selected range

Filename K:\MUSIC\JDownloaded\JeanFerrat - L' integrale\CD01\Jean FERRAT - Deux enfants au soleil.wav

Peak level 100.0 %
Extraction speed 4.9 X
Range quality 100.0 %
Test CRC 49B037D2
Copy CRC 49B037D2
Copy OK

No errors occurred


AccurateRip summary

Track 1 accurately ripped (confidence 6) [6299F22F] (AR v2)
Track 2 accurately ripped (confidence 6) [4E37EC08] (AR v2)
Track 3 accurately ripped (confidence 6) [5C7899EC] (AR v2)
Track 4 accurately ripped (confidence 6) [8C0B18E0] (AR v2)
Track 5 accurately ripped (confidence 6) [E465D4EA] (AR v2)
Track 6 accurately ripped (confidence 6) [184183FE] (AR v2)
Track 7 accurately ripped (confidence 6) [E129481C] (AR v2)
Track 8 accurately ripped (confidence 6) [2199BDCA] (AR v2)
Track 9 accurately ripped (confidence 6) [F9C9D2EE] (AR v2)
Track 10 accurately ripped (confidence 6) [DAE2ABEA] (AR v2)

All tracks accurately ripped

End of status report

–– CUETools DB Plugin V2.1.3

[CTDB TOCID: AFlnDi3SSL8EJyiJ.LM2oeffcwk-] found, Submit result: already submitted
[e183f14a] (5/5) Accurately ripped


==== Log checksum 3D81F94C3EDA99433727AE04626CBE0F8E2526754970A0EB717275AD75798E66 ====
––––-
CD02
––––-
Exact Audio Copy V1.0 beta 3 from 29. August 2011

EAC extraction logfile from 16. January 2014, 21:54

Jean FERRAT / La fete aux copains

Used drive : HL-DT-STDVDRAM GH10N Adapter: 1 ID: 1

Read mode : Secure
Utilize accurate stream : Yes
Defeat audio cache : Yes
Make use of C2 pointers : No

Read offset correction : 667
Overread into Lead-In and Lead-Out : No
Fill up missing offset samples with silence : Yes
Delete leading and trailing silent blocks : No
Null samples used in CRC calculations : Yes
Used interface : Native Win32 interface for Win NT & 2000

Used output format : User Defined Encoder
Selected bitrate : 1024 kBit/s
Quality : High
Add ID3 tag : Yes
Command line compressor : C:\Program Files\Exact Audio Copy New\Flac\flac.exe
Additional command line options : -V -5 -T "artist=%artist%" -T "title=%title%" -T "album=%albumtitle%" -T "tracknumber=%tracknr2%" -T "genre=%genre%" -5 %source%


TOC of the extracted CD

Track | Start | Length | Start sector | End sector
––––––––––––––––––––––––––––-
1 | 0:00.00 | 2:26.50 | 0 | 10999
2 | 2:26.50 | 2:39.19 | 11000 | 22943
3 | 5:05.69 | 2:06.53 | 22944 | 32446
4 | 7:12.47 | 2:52.02 | 32447 | 45348
5 | 10:04.49 | 2:39.04 | 45349 | 57277
6 | 12:43.53 | 1:42.45 | 57278 | 64972
7 | 14:26.23 | 2:54.41 | 64973 | 78063
8 | 17:20.64 | 2:36.69 | 78064 | 89832


Range status and errors

Selected range

Filename K:\MUSIC\JDownloaded\JeanFerrat - L' integrale\CD02 - La fete aux copains\Jean FERRAT - La fete aux copains.wav

Peak level 100.0 %
Extraction speed 4.7 X
Range quality 100.0 %
Test CRC B03FDCF5
Copy CRC B03FDCF5
Copy OK

No errors occurred


AccurateRip summary

Track 1 accurately ripped (confidence 6) [655D6FD1] (AR v2)
Track 2 accurately ripped (confidence 6) [EF82E7B9] (AR v2)
Track 3 accurately ripped (confidence 6) [24A21057] (AR v2)
Track 4 accurately ripped (confidence 6) [D7C8A886] (AR v2)
Track 5 accurately ripped (confidence 6) [4F8462B5] (AR v2)
Track 6 accurately ripped (confidence 6) [1B1A23B2] (AR v2)
Track 7 accurately ripped (confidence 6) [23D7EC4C] (AR v2)
Track 8 accurately ripped (confidence 6) [CDC9A0A4] (AR v2)

All tracks accurately ripped

End of status report

–– CUETools DB Plugin V2.1.3

[CTDB TOCID: NpQcXC9WWQYWjCsxFZfTshSXGsY-] found, Submit result: NpQcXC9WWQYWjCsxFZfTshSXGsY- has been confirmed
[f696a327] (3/3) Accurately ripped


==== Log checksum 36B39ECA8372C98F33003871534B0B624D2F2FA0EC97F6D884E6B346E71A86EA ====
––––-
CD03
––––-
Exact Audio Copy V1.0 beta 3 from 29. August 2011

EAC extraction logfile from 17. January 2014, 3:57

Jean Ferrat / Nuit et brouillard

Used drive : HL-DT-STDVDRAM GH10N Adapter: 1 ID: 1

Read mode : Secure
Utilize accurate stream : Yes
Defeat audio cache : Yes
Make use of C2 pointers : No

Read offset correction : 667
Overread into Lead-In and Lead-Out : No
Fill up missing offset samples with silence : Yes
Delete leading and trailing silent blocks : No
Null samples used in CRC calculations : Yes
Used interface : Native Win32 interface for Win NT & 2000

Used output format : User Defined Encoder
Selected bitrate : 1024 kBit/s
Quality : High
Add ID3 tag : Yes
Command line compressor : C:\Program Files\Exact Audio Copy New\Flac\flac.exe
Additional command line options : -V -5 -T "artist=%artist%" -T "title=%title%" -T "album=%albumtitle%" -T "tracknumber=%tracknr2%" -T "genre=%genre%" -5 %source%


TOC of the extracted CD

Track | Start | Length | Start sector | End sector
––––––––––––––––––––––––––––-
1 | 0:00.00 | 3:17.02 | 0 | 14776
2 | 3:17.02 | 2:28.05 | 14777 | 25881
3 | 5:45.07 | 2:29.43 | 25882 | 37099
4 | 8:14.50 | 2:56.03 | 37100 | 50302
5 | 11:10.53 | 2:45.27 | 50303 | 62704
6 | 13:56.05 | 2:54.65 | 62705 | 75819
7 | 16:50.70 | 2:22.59 | 75820 | 86528
8 | 19:13.54 | 2:36.35 | 86529 | 98263


Range status and errors

Selected range

Filename K:\MUSIC\JDownloaded\JeanFerrat - L' integrale\CD03 - Nuit et brouillard\Jean Ferrat - Nuit et brouillard.wav

Peak level 98.8 %
Extraction speed 4.8 X
Range quality 100.0 %
Test CRC CC2E8811
Copy CRC CC2E8811
Copy OK

No errors occurred


AccurateRip summary

Track 1 accurately ripped (confidence 7) [F6E5A49F] (AR v2)
Track 2 accurately ripped (confidence 6) [A6DA9387] (AR v2)
Track 3 accurately ripped (confidence 6) [40AA11B2] (AR v2)
Track 4 accurately ripped (confidence 6) [6BBDE9B6] (AR v2)
Track 5 accurately ripped (confidence 6) [FB0DBC30] (AR v2)
Track 6 accurately ripped (confidence 6) [CF26D0EE] (AR v2)
Track 7 accurately ripped (confidence 6) [AB0134B1] (AR v2)
Track 8 accurately ripped (confidence 6) [92BDAAA3] (AR v2)

All tracks accurately ripped

End of status report

–– CUETools DB Plugin V2.1.3

[CTDB TOCID: DYo6vxMiMokwKtJuBzDCAA_DeEw-] found, Submit result: DYo6vxMiMokwKtJuBzDCAA_DeEw- has been confirmed
[40f33217] (3/3) Accurately ripped


==== Log checksum 1CC0A917D0135F52D281EF4BDA791BD7A4B7D8C99A79FB661D0CC960DF7D61AF ====
––––-
CD04
––––-
Exact Audio Copy V1.0 beta 3 from 29. August 2011

EAC extraction logfile from 17. January 2014, 4:29

Jean FERRAT / La montagne

Used drive : HL-DT-STDVDRAM GH10N Adapter: 1 ID: 1

Read mode : Secure
Utilize accurate stream : Yes
Defeat audio cache : Yes
Make use of C2 pointers : No

Read offset correction : 667
Overread into Lead-In and Lead-Out : No
Fill up missing offset samples with silence : Yes
Delete leading and trailing silent blocks : No
Null samples used in CRC calculations : Yes
Used interface : Native Win32 interface for Win NT & 2000

Used output format : User Defined Encoder
Selected bitrate : 1024 kBit/s
Quality : High
Add ID3 tag : Yes
Command line compressor : C:\Program Files\Exact Audio Copy New\Flac\flac.exe
Additional command line options : -V -5 -T "artist=%artist%" -T "title=%title%" -T "album=%albumtitle%" -T "tracknumber=%tracknr2%" -T "genre=%genre%" -5 %source%


TOC of the extracted CD

Track | Start | Length | Start sector | End sector
––––––––––––––––––––––––––––-
1 | 0:00.00 | 3:22.28 | 0 | 15177
2 | 3:22.28 | 2:17.22 | 15178 | 25474
3 | 5:39.50 | 3:06.67 | 25475 | 39491
4 | 8:46.42 | 2:25.25 | 39492 | 50391
5 | 11:11.67 | 2:08.32 | 50392 | 60023
6 | 13:20.24 | 3:06.27 | 60024 | 74000
7 | 16:26.51 | 2:13.28 | 74001 | 84003
8 | 18:40.04 | 2:16.70 | 84004 | 94273


Range status and errors

Selected range

Filename K:\MUSIC\JDownloaded\JeanFerrat - L' integrale\CD04 - La montagne\Jean FERRAT - La montagne.wav

Peak level 98.8 %
Extraction speed 4.6 X
Range quality 99.9 %
Test CRC 29192BA2
Copy CRC 29192BA2
Copy OK

No errors occurred


AccurateRip summary

Track 1 accurately ripped (confidence 7) [6820F2CA] (AR v2)
Track 2 accurately ripped (confidence 7) [508EB7B8] (AR v2)
Track 3 accurately ripped (confidence 7) [E080193D] (AR v2)
Track 4 accurately ripped (confidence 7) [D9972AB7] (AR v2)
Track 5 accurately ripped (confidence 7) [D06AF7EB] (AR v2)
Track 6 accurately ripped (confidence 7) [69C001F4] (AR v2)
Track 7 accurately ripped (confidence 7) [914793BA] (AR v2)
Track 8 accurately ripped (confidence 7) [F114C242] (AR v2)

All tracks accurately ripped

End of status report

–– CUETools DB Plugin V2.1.3

[CTDB TOCID: R2v7K95mMdCWiNQ_NX7vhyyz_oY-] found, Submit result: R2v7K95mMdCWiNQ_NX7vhyyz_oY- has been confirmed
[37a3eb4a] (3/3) Accurately ripped


==== Log checksum 74C66BA133E0646BB09F3E0FA41556CADEFE2C5E5F2D947ACEE9C6FF0A1C2B90 ====
––––-
CD05
––––-
Exact Audio Copy V1.0 beta 3 from 29. August 2011

EAC extraction logfile from 17. January 2014, 4:47

Jean FERRAT / Potemkine

Used drive : HL-DT-STDVDRAM GH10N Adapter: 1 ID: 1

Read mode : Secure
Utilize accurate stream : Yes
Defeat audio cache : Yes
Make use of C2 pointers : No

Read offset correction : 667
Overread into Lead-In and Lead-Out : No
Fill up missing offset samples with silence : Yes
Delete leading and trailing silent blocks : No
Null samples used in CRC calculations : Yes
Used interface : Native Win32 interface for Win NT & 2000

Used output format : User Defined Encoder
Selected bitrate : 1024 kBit/s
Quality : High
Add ID3 tag : Yes
Command line compressor : C:\Program Files\Exact Audio Copy New\Flac\flac.exe
Additional command line options : -V -5 -T "artist=%artist%" -T "title=%title%" -T "album=%albumtitle%" -T "tracknumber=%tracknr2%" -T "genre=%genre%" -5 %source%


TOC of the extracted CD

Track | Start | Length | Start sector | End sector
––––––––––––––––––––––––––––-
1 | 0:00.00 | 2:53.40 | 0 | 13014
2 | 2:53.40 | 2:52.59 | 13015 | 25973
3 | 5:46.24 | 2:47.43 | 25974 | 38541
4 | 8:33.67 | 2:37.09 | 38542 | 50325
5 | 11:11.01 | 3:04.60 | 50326 | 64185
6 | 14:15.61 | 2:57.03 | 64186 | 77463
7 | 17:12.64 | 2:44.66 | 77464 | 89829
8 | 19:57.55 | 4:21.12 | 89830 | 109416
9 | 24:18.67 | 2:32.56 | 109417 | 120872
10 | 26:51.48 | 2:17.29 | 120873 | 131176


Range status and errors

Selected range

Filename K:\MUSIC\JDownloaded\JeanFerrat - L' integrale\CD05 - Potemkine\Jean FERRAT - Potemkine.wav

Peak level 98.8 %
Extraction speed 4.5 X
Range quality 99.9 %
Copy CRC FEAF4D51
Copy OK

No errors occurred


AccurateRip summary

Track 1 accurately ripped (confidence 6) [423F7898] (AR v2)
Track 2 accurately ripped (confidence 6) [5604EC33] (AR v2)
Track 3 accurately ripped (confidence 6) [0273BBF5] (AR v2)
Track 4 accurately ripped (confidence 6) [EC100A3E] (AR v2)
Track 5 accurately ripped (confidence 6) [BE93D370] (AR v2)
Track 6 accurately ripped (confidence 6) [E74092BF] (AR v2)
Track 7 accurately ripped (confidence 6) [169FA18A] (AR v2)
Track 8 accurately ripped (confidence 6) [6D2F1870] (AR v2)
Track 9 accurately ripped (confidence 6) [D31DDB3F] (AR v2)
Track 10 accurately ripped (confidence 6) [1C51B3AB] (AR v2)

All tracks accurately ripped

End of status report

–– CUETools DB Plugin V2.1.3

[CTDB TOCID: Fld0eCFlcVER1H1u0C8.dC42GWE-] found, Submit result: Fld0eCFlcVER1H1u0C8.dC42GWE- has been confirmed
[c63ede91] (4/4) Accurately ripped


==== Log checksum FEC6261B3308E3B38E6D63239FDC427B9C8D087C22A95696CF70F309F1644128 ====
––––-
CD06
––––-
Exact Audio Copy V1.0 beta 3 from 29. August 2011

EAC extraction logfile from 17. January 2014, 14:10

Jean FERRAT / Maria

Used drive : HL-DT-STDVDRAM GH10N Adapter: 1 ID: 1

Read mode : Secure
Utilize accurate stream : Yes
Defeat audio cache : Yes
Make use of C2 pointers : No

Read offset correction : 667
Overread into Lead-In and Lead-Out : No
Fill up missing offset samples with silence : Yes
Delete leading and trailing silent blocks : No
Null samples used in CRC calculations : Yes
Used interface : Native Win32 interface for Win NT & 2000

Used output format : User Defined Encoder
Selected bitrate : 1024 kBit/s
Quality : High
Add ID3 tag : Yes
Command line compressor : C:\Program Files\Exact Audio Copy New\Flac\flac.exe
Additional command line options : -V -5 -T "artist=%artist%" -T "title=%title%" -T "album=%albumtitle%" -T "tracknumber=%tracknr2%" -T "genre=%genre%" -5 %source%


TOC of the extracted CD

Track | Start | Length | Start sector | End sector
––––––––––––––––––––––––––––-
1 | 0:00.00 | 3:11.08 | 0 | 14332
2 | 3:11.08 | 3:00.09 | 14333 | 27841
3 | 6:11.17 | 2:54.08 | 27842 | 40899
4 | 9:05.25 | 2:55.14 | 40900 | 54038
5 | 12:00.39 | 3:06.04 | 54039 | 67992
6 | 15:06.43 | 3:28.01 | 67993 | 83593
7 | 18:34.44 | 4:58.12 | 83594 | 105955
8 | 23:32.56 | 3:28.38 | 105956 | 121593
9 | 27:01.19 | 2:43.09 | 121594 | 133827
10 | 29:44.28 | 3:26.08 | 133828 | 149285


Range status and errors

Selected range

Filename K:\MUSIC\JDownloaded\JeanFerrat - L' integrale\CD06 - Maria\Jean FERRAT - Maria.wav

Peak level 100.0 %
Extraction speed 4.4 X
Range quality 99.9 %
Test CRC DD7976C7
Copy CRC DD7976C7
Copy OK

No errors occurred


AccurateRip summary

Track 1 accurately ripped (confidence 6) [101DEAB9] (AR v2)
Track 2 accurately ripped (confidence 6) [9FE413CA] (AR v2)
Track 3 accurately ripped (confidence 6) [1579DD2B] (AR v2)
Track 4 accurately ripped (confidence 6) [4FCE46D0] (AR v2)
Track 5 accurately ripped (confidence 6) [D4E32988] (AR v2)
Track 6 accurately ripped (confidence 6) [E3278DD1] (AR v2)
Track 7 accurately ripped (confidence 6) [9D7D9842] (AR v2)
Track 8 accurately ripped (confidence 6) [D066D61A] (AR v2)
Track 9 accurately ripped (confidence 6) [03287EFD] (AR v2)
Track 10 accurately ripped (confidence 6) [E4AE523B] (AR v2)

All tracks accurately ripped

End of status report

–– CUETools DB Plugin V2.1.3

[CTDB TOCID: n8m9dDHNWi5B8RiRcS7FnRfGz9c-] found, Submit result: n8m9dDHNWi5B8RiRcS7FnRfGz9c- has been confirmed
[eb561e04] (3/3) Accurately ripped


==== Log checksum 5D9782A503E1C97E54BEE86712F330FC5649EEB88358F8B1B067C53F36943EBF ====
––––-
CD07
––––-
Exact Audio Copy V1.0 beta 3 from 29. August 2011

EAC extraction logfile from 17. January 2014, 14:59

Jean FERRAT / Cuba si

Used drive : HL-DT-STDVDRAM GH10N Adapter: 1 ID: 1

Read mode : Secure
Utilize accurate stream : Yes
Defeat audio cache : Yes
Make use of C2 pointers : No

Read offset correction : 667
Overread into Lead-In and Lead-Out : No
Fill up missing offset samples with silence : Yes
Delete leading and trailing silent blocks : No
Null samples used in CRC calculations : Yes
Used interface : Native Win32 interface for Win NT & 2000

Used output format : User Defined Encoder
Selected bitrate : 1024 kBit/s
Quality : High
Add ID3 tag : Yes
Command line compressor : C:\Program Files\Exact Audio Copy New\Flac\flac.exe
Additional command line options : -V -5 -T "artist=%artist%" -T "title=%title%" -T "album=%albumtitle%" -T "tracknumber=%tracknr2%" -T "genre=%genre%" -5 %source%


TOC of the extracted CD

Track | Start | Length | Start sector | End sector
––––––––––––––––––––––––––––-
1 | 0:00.00 | 2:51.59 | 0 | 12883
2 | 2:51.59 | 2:58.68 | 12884 | 26301
3 | 5:50.52 | 2:39.57 | 26302 | 38283
4 | 8:30.34 | 2:56.20 | 38284 | 51503
5 | 11:26.54 | 2:45.38 | 51504 | 63916
6 | 14:12.17 | 2:47.05 | 63917 | 76446
7 | 16:59.22 | 2:58.06 | 76447 | 89802
8 | 19:57.28 | 2:42.01 | 89803 | 101953
9 | 22:39.29 | 3:09.40 | 101954 | 116168
10 | 25:48.69 | 3:33.02 | 116169 | 132145


Range status and errors

Selected range

Filename K:\MUSIC\JDownloaded\JeanFerrat - L' integrale\CD07 - Cuba si\Jean FERRAT - Cuba si.wav

Peak level 98.8 %
Extraction speed 4.7 X
Range quality 99.9 %
Test CRC 8ED64546
Copy CRC 8ED64546
Copy OK

No errors occurred


AccurateRip summary

Track 1 accurately ripped (confidence 6) [37D138B0] (AR v2)
Track 2 accurately ripped (confidence 6) [4367589D] (AR v2)
Track 3 accurately ripped (confidence 6) [BF217276] (AR v2)
Track 4 accurately ripped (confidence 6) [A1C4BBC0] (AR v2)
Track 5 accurately ripped (confidence 6) [69EABA40] (AR v2)
Track 6 accurately ripped (confidence 6) [38923FCC] (AR v2)
Track 7 accurately ripped (confidence 6) [DD0F193C] (AR v2)
Track 8 accurately ripped (confidence 6) [1A78838B] (AR v2)
Track 9 accurately ripped (confidence 6) [52149DD5] (AR v2)
Track 10 accurately ripped (confidence 6) [AC02D44B] (AR v2)

All tracks accurately ripped

End of status report

–– CUETools DB Plugin V2.1.3

[CTDB TOCID: OPSbc9utkMgtfBbxn9whFKNWslE-] found, Submit result: OPSbc9utkMgtfBbxn9whFKNWslE- has been confirmed
[d15d50c0] (3/3) Accurately ripped


==== Log checksum E3D24D75D2C601D834F616C649DE69063455B8DF42A81E4E3419B3AE7ABC88AB ====
––––-
CD08
––––-
Exact Audio Copy V1.0 beta 3 from 29. August 2011

EAC extraction logfile from 17. January 2014, 19:28

Jean FERRAT / Ma France

Used drive : HL-DT-STDVDRAM GH10N Adapter: 1 ID: 1

Read mode : Secure
Utilize accurate stream : Yes
Defeat audio cache : Yes
Make use of C2 pointers : No

Read offset correction : 667
Overread into Lead-In and Lead-Out : No
Fill up missing offset samples with silence : Yes
Delete leading and trailing silent blocks : No
Null samples used in CRC calculations : Yes
Used interface : Native Win32 interface for Win NT & 2000

Used output format : User Defined Encoder
Selected bitrate : 1024 kBit/s
Quality : High
Add ID3 tag : Yes
Command line compressor : C:\Program Files\Exact Audio Copy New\Flac\flac.exe
Additional command line options : -V -5 -T "artist=%artist%" -T "title=%title%" -T "album=%albumtitle%" -T "tracknumber=%tracknr2%" -T "genre=%genre%" -5 %source%


TOC of the extracted CD

Track | Start | Length | Start sector | End sector
––––––––––––––––––––––––––––-
1 | 0:00.00 | 3:13.60 | 0 | 14534
2 | 3:13.60 | 2:56.13 | 14535 | 27747
3 | 6:09.73 | 3:21.60 | 27748 | 42882
4 | 9:31.58 | 4:08.22 | 42883 | 61504
5 | 13:40.05 | 2:26.54 | 61505 | 72508
6 | 16:06.59 | 3:04.04 | 72509 | 86312
7 | 19:10.63 | 3:44.06 | 86313 | 103118
8 | 22:54.69 | 2:17.51 | 103119 | 113444
9 | 25:12.45 | 4:27.26 | 113445 | 133495
10 | 29:39.71 | 2:36.63 | 133496 | 145258
11 | 32:16.59 | 3:22.15 | 145259 | 160423
12 | 35:38.74 | 2:01.06 | 160424 | 169504


Range status and errors

Selected range

Filename K:\MUSIC\JDownloaded\JeanFerrat - L' integrale\CD08 - Ma France\Jean FERRAT - Ma France.wav

Peak level 98.8 %
Extraction speed 5.1 X
Range quality 99.9 %
Test CRC 51349DB9
Copy CRC AE354537
Copy OK

No errors occurred


AccurateRip summary

Track 1 accurately ripped (confidence 5) [0725381B] (AR v2)
Track 2 accurately ripped (confidence 5) [9FCF7138] (AR v2)
Track 3 accurately ripped (confidence 5) [808C5F58] (AR v2)
Track 4 accurately ripped (confidence 5) [1E211267] (AR v2)
Track 5 accurately ripped (confidence 5) [C1520728] (AR v2)
Track 6 accurately ripped (confidence 5) [9FF11396] (AR v2)
Track 7 accurately ripped (confidence 5) [B83A4652] (AR v2)
Track 8 cannot be verified as accurate (confidence 5) [72E4363B], AccurateRip returned [ECD74EEE] (AR v2)
Track 9 accurately ripped (confidence 5) [B2100CFC] (AR v2)
Track 10 accurately ripped (confidence 5) [DCC9A0C6] (AR v2)
Track 11 accurately ripped (confidence 5) [8233E4CF] (AR v2)
Track 12 accurately ripped (confidence 5) [3E90E626] (AR v2)

11 track(s) accurately ripped
1 track(s) could not be verified as accurate

Some tracks could not be verified as accurate

End of status report

–– CUETools DB Plugin V2.1.3

[CTDB TOCID: v5q1ao6u_OzOBNd8Zhtz2GLSQTc-] found, Submit result: insufficient quality
[50b31cca] (5/5) Differs in 5 samples @23:42:14-23:42:15
You can use CUETools to repair this rip.


==== Log checksum 9EB70C4B1E18393F7D7DCE9816C6391129A5A2DCD491BCC1671717D83E4F1F3A ====
––––-
CD09
––––-
Exact Audio Copy V1.0 beta 3 from 29. August 2011

EAC extraction logfile from 18. January 2014, 3:52

Jean FERRAT / Camarade

Used drive : HL-DT-STDVDRAM GH10N Adapter: 1 ID: 1

Read mode : Secure
Utilize accurate stream : Yes
Defeat audio cache : Yes
Make use of C2 pointers : No

Read offset correction : 667
Overread into Lead-In and Lead-Out : No
Fill up missing offset samples with silence : Yes
Delete leading and trailing silent blocks : No
Null samples used in CRC calculations : Yes
Used interface : Native Win32 interface for Win NT & 2000

Used output format : User Defined Encoder
Selected bitrate : 1024 kBit/s
Quality : High
Add ID3 tag : Yes
Command line compressor : C:\Program Files\Exact Audio Copy New\Flac\flac.exe
Additional command line options : -V -5 -T "artist=%artist%" -T "title=%title%" -T "album=%albumtitle%" -T "tracknumber=%tracknr2%" -T "genre=%genre%" -5 %source%


TOC of the extracted CD

Track | Start | Length | Start sector | End sector
––––––––––––––––––––––––––––-
1 | 0:00.00 | 2:38.32 | 0 | 11881
2 | 2:38.32 | 3:00.28 | 11882 | 25409
3 | 5:38.60 | 2:39.44 | 25410 | 37378
4 | 8:18.29 | 2:59.29 | 37379 | 50832
5 | 11:17.58 | 2:08.72 | 50833 | 60504
6 | 13:26.55 | 2:30.68 | 60505 | 71822
7 | 15:57.48 | 2:36.48 | 71823 | 83570
8 | 18:34.21 | 2:46.54 | 83571 | 96074
9 | 21:21.00 | 3:46.60 | 96075 | 113084
10 | 25:07.60 | 2:49.40 | 113085 | 125799


Range status and errors

Selected range

Filename K:\MUSIC\JDownloaded\JeanFerrat - L' integrale\CD09 - Camarade\Jean FERRAT - Camarade.wav

Peak level 100.0 %
Extraction speed 4.2 X
Range quality 99.9 %
Test CRC E6436B02
Copy CRC E6436B02
Copy OK

No errors occurred


AccurateRip summary

Track 1 accurately ripped (confidence 5) [6FA50BF5] (AR v2)
Track 2 accurately ripped (confidence 5) [A6F94D07] (AR v2)
Track 3 accurately ripped (confidence 5) [B8CA88AC] (AR v2)
Track 4 accurately ripped (confidence 5) [FDB096D8] (AR v2)
Track 5 accurately ripped (confidence 5) [E150148D] (AR v2)
Track 6 accurately ripped (confidence 5) [C137E52E] (AR v2)
Track 7 accurately ripped (confidence 5) [E3306FD4] (AR v2)
Track 8 accurately ripped (confidence 5) [A17C6A43] (AR v2)
Track 9 accurately ripped (confidence 5) [FC50C710] (AR v2)
Track 10 accurately ripped (confidence 5) [949AAAE5] (AR v2)

All tracks accurately ripped

End of status report

–– CUETools DB Plugin V2.1.3

[CTDB TOCID: Sl.CDi60rAFXHd3FclKLo3sGP_I-] found, Submit result: Sl.CDi60rAFXHd3FclKLo3sGP_I- has been confirmed
[317b8973] (3/3) Accurately ripped


==== Log checksum 9A06027F658AB5A6FEE9499CD9B7605619CAADE381DCCA70A1E0B1F7FD631C36 ====
––––-
CD10
––––-
Exact Audio Copy V1.0 beta 3 from 29. August 2011

EAC extraction logfile from 18. January 2014, 4:41

Jean FERRAT / La Commune

Used drive : HL-DT-STDVDRAM GH10N Adapter: 1 ID: 1

Read mode : Secure
Utilize accurate stream : Yes
Defeat audio cache : Yes
Make use of C2 pointers : No

Read offset correction : 667
Overread into Lead-In and Lead-Out : No
Fill up missing offset samples with silence : Yes
Delete leading and trailing silent blocks : No
Null samples used in CRC calculations : Yes
Used interface : Native Win32 interface for Win NT & 2000

Used output format : User Defined Encoder
Selected bitrate : 1024 kBit/s
Quality : High
Add ID3 tag : Yes
Command line compressor : C:\Program Files\Exact Audio Copy New\Flac\flac.exe
Additional command line options : -V -5 -T "artist=%artist%" -T "title=%title%" -T "album=%albumtitle%" -T "tracknumber=%tracknr2%" -T "genre=%genre%" -5 %source%


TOC of the extracted CD

Track | Start | Length | Start sector | End sector
––––––––––––––––––––––––––––-
1 | 0:00.00 | 2:38.05 | 0 | 11854
2 | 2:38.05 | 2:57.24 | 11855 | 25153
3 | 5:35.29 | 3:28.66 | 25154 | 40819
4 | 9:04.20 | 3:21.61 | 40820 | 55955
5 | 12:26.06 | 3:14.09 | 55956 | 70514
6 | 15:40.15 | 2:19.23 | 70515 | 80962
7 | 17:59.38 | 3:02.63 | 80963 | 94675
8 | 21:02.26 | 2:41.26 | 94676 | 106776
9 | 23:43.52 | 2:32.48 | 106777 | 118224
10 | 26:16.25 | 2:37.56 | 118225 | 130055
11 | 28:54.06 | 2:49.63 | 130056 | 142793


Range status and errors

Selected range

Filename K:\MUSIC\JDownloaded\JeanFerrat - L' integrale\CD10 - La Commune\Jean FERRAT - La Commune.wav

Peak level 98.8 %
Extraction speed 5.0 X
Range quality 99.9 %
Test CRC 2119255A
Copy CRC 2119255A
Copy OK

No errors occurred


AccurateRip summary

Track 1 accurately ripped (confidence 5) [BD948EAF] (AR v2)
Track 2 accurately ripped (confidence 5) [A5DDBEB2] (AR v2)
Track 3 accurately ripped (confidence 5) [41119861] (AR v2)
Track 4 accurately ripped (confidence 5) [2BEF7F1A] (AR v2)
Track 5 accurately ripped (confidence 5) [DF262995] (AR v2)
Track 6 accurately ripped (confidence 5) [5BB7D3DC] (AR v2)
Track 7 accurately ripped (confidence 5) [795EB2B4] (AR v2)
Track 8 accurately ripped (confidence 5) [E2D4F56F] (AR v2)
Track 9 accurately ripped (confidence 5) [9B4CE9C9] (AR v2)
Track 10 accurately ripped (confidence 5) [941678FA] (AR v2)
Track 11 accurately ripped (confidence 5) [F71E7014] (AR v2)

All tracks accurately ripped

End of status report

–– CUETools DB Plugin V2.1.3

[CTDB TOCID: uY0qFPr0YWyGPtmcHCt_LqUg7Ao-] found, Submit result: uY0qFPr0YWyGPtmcHCt_LqUg7Ao- has been confirmed
[26cbf159] (4/4) Accurately ripped


==== Log checksum AE9E0A5F3C9132C932F23E68DF187921F106F7A645B186F545DF26D4DA5E8FB7 ====
––––-
CD11
––––-
Exact Audio Copy V1.0 beta 3 from 29. August 2011

EAC extraction logfile from 18. January 2014, 5:20

Jean Ferrat / Ferrat chante Aragon

Used drive : HL-DT-STDVDRAM GH10N Adapter: 1 ID: 1

Read mode : Secure
Utilize accurate stream : Yes
Defeat audio cache : Yes
Make use of C2 pointers : No

Read offset correction : 667
Overread into Lead-In and Lead-Out : No
Fill up missing offset samples with silence : Yes
Delete leading and trailing silent blocks : No
Null samples used in CRC calculations : Yes
Used interface : Native Win32 interface for Win NT & 2000

Used output format : User Defined Encoder
Selected bitrate : 1024 kBit/s
Quality : High
Add ID3 tag : Yes
Command line compressor : C:\Program Files\Exact Audio Copy New\Flac\flac.exe
Additional command line options : -V -5 -T "artist=%artist%" -T "title=%title%" -T "album=%albumtitle%" -T "tracknumber=%tracknr2%" -T "genre=%genre%" -5 %source%


TOC of the extracted CD

Track | Start | Length | Start sector | End sector
––––––––––––––––––––––––––––-
1 | 0:00.00 | 4:58.57 | 0 | 22406
2 | 4:58.57 | 3:11.30 | 22407 | 36761
3 | 8:10.12 | 4:08.65 | 36762 | 55426
4 | 12:19.02 | 2:22.03 | 55427 | 66079
5 | 14:41.05 | 2:53.10 | 66080 | 79064
6 | 17:34.15 | 3:21.45 | 79065 | 94184
7 | 20:55.60 | 3:06.65 | 94185 | 108199
8 | 24:02.50 | 4:56.37 | 108200 | 130436
9 | 28:59.12 | 2:25.53 | 130437 | 141364
10 | 31:24.65 | 2:58.27 | 141365 | 154741


Range status and errors

Selected range

Filename K:\MUSIC\JDownloaded\JeanFerrat - L' integrale\CD11 - Ferrat chante Aragon\Jean Ferrat - Ferrat chante Aragon.wav

Peak level 100.0 %
Extraction speed 5.0 X
Range quality 99.9 %
Test CRC 112A8527
Copy CRC 112A8527
Copy OK

No errors occurred


AccurateRip summary

Track 1 accurately ripped (confidence 6) [EED19166] (AR v2)
Track 2 accurately ripped (confidence 6) [3AA91711] (AR v2)
Track 3 accurately ripped (confidence 6) [9BBC79C8] (AR v2)
Track 4 accurately ripped (confidence 6) [40FB77B5] (AR v2)
Track 5 accurately ripped (confidence 6) [9F51E12D] (AR v2)
Track 6 accurately ripped (confidence 6) [81CAB8C5] (AR v2)
Track 7 accurately ripped (confidence 6) [8800F8B4] (AR v2)
Track 8 accurately ripped (confidence 6) [93F828FE] (AR v2)
Track 9 accurately ripped (confidence 6) [A136D72C] (AR v2)
Track 10 accurately ripped (confidence 6) [AB9DA2EF] (AR v2)

All tracks accurately ripped

End of status report

–– CUETools DB Plugin V2.1.3

[CTDB TOCID: IsRxiPtQkqF6nNMxaYuU8bI84iU-] found, Submit result: IsRxiPtQkqF6nNMxaYuU8bI84iU- has been confirmed
[8f08026a] (5/5) Accurately ripped


==== Log checksum A68E225DB2FEB2DA2E4A8F8015D37FD91D960B99E1FEE49510BA6D9A047B69D5 ====
––––-
CD12
––––-
Exact Audio Copy V1.0 beta 3 from 29. August 2011

EAC extraction logfile from 18. January 2014, 5:45

Jean FERRAT / A moi l'Afrique

Used drive : HL-DT-STDVDRAM GH10N Adapter: 1 ID: 1

Read mode : Secure
Utilize accurate stream : Yes
Defeat audio cache : Yes
Make use of C2 pointers : No

Read offset correction : 667
Overread into Lead-In and Lead-Out : No
Fill up missing offset samples with silence : Yes
Delete leading and trailing silent blocks : No
Null samples used in CRC calculations : Yes
Used interface : Native Win32 interface for Win NT & 2000

Used output format : User Defined Encoder
Selected bitrate : 1024 kBit/s
Quality : High
Add ID3 tag : Yes
Command line compressor : C:\Program Files\Exact Audio Copy New\Flac\flac.exe
Additional command line options : -V -5 -T "artist=%artist%" -T "title=%title%" -T "album=%albumtitle%" -T "tracknumber=%tracknr2%" -T "genre=%genre%" -5 %source%


TOC of the extracted CD

Track | Start | Length | Start sector | End sector
––––––––––––––––––––––––––––-
1 | 0:00.00 | 4:35.52 | 0 | 20676
2 | 4:35.52 | 2:59.35 | 20677 | 34136
3 | 7:35.12 | 3:07.05 | 34137 | 48166
4 | 10:42.17 | 2:32.06 | 48167 | 59572
5 | 13:14.23 | 2:28.23 | 59573 | 70695
6 | 15:42.46 | 3:45.21 | 70696 | 87591
7 | 19:27.67 | 3:00.27 | 87592 | 101118
8 | 22:28.19 | 2:55.14 | 101119 | 114257
9 | 25:23.33 | 3:33.23 | 114258 | 130255
10 | 28:56.56 | 3:04.65 | 130256 | 144120


Range status and errors

Selected range

Filename K:\MUSIC\JDownloaded\JeanFerrat - L' integrale\CD12 - A moi l'Afrique\Jean FERRAT - A moi l'Afrique.wav

Peak level 98.8 %
Extraction speed 5.1 X
Range quality 99.9 %
Test CRC 44D99C49
Copy CRC 44D99C49
Copy OK

No errors occurred


AccurateRip summary

Track 1 accurately ripped (confidence 5) [97F67D66] (AR v2)
Track 2 accurately ripped (confidence 5) [DB77B1BF] (AR v2)
Track 3 accurately ripped (confidence 5) [52A73E21] (AR v2)
Track 4 accurately ripped (confidence 5) [A6074779] (AR v2)
Track 5 accurately ripped (confidence 5) [3966CD12] (AR v2)
Track 6 accurately ripped (confidence 5) [10116175] (AR v2)
Track 7 accurately ripped (confidence 5) [5C19651B] (AR v2)
Track 8 accurately ripped (confidence 5) [E796FB5E] (AR v2)
Track 9 accurately ripped (confidence 5) [9CC22B58] (AR v2)
Track 10 accurately ripped (confidence 5) [352872EF] (AR v2)

All tracks accurately ripped

End of status report

–– CUETools DB Plugin V2.1.3

[CTDB TOCID: .3jOs3y0yGjOvbv3ttHDgGCRm24-] found, Submit result: .3jOs3y0yGjOvbv3ttHDgGCRm24- has been confirmed
[e9a6b62e] (3/3) Accurately ripped


==== Log checksum 9A44DFBA644B503DEEAF45DD47597E158B830F10A0C2D33D61F902D5B92C262D ====
––––-
CD13
––––-
Exact Audio Copy V1.0 beta 3 from 29. August 2011

EAC extraction logfile from 18. January 2014, 6:09

Jean FERRAT / CD Bonus

Used drive : HL-DT-STDVDRAM GH10N Adapter: 1 ID: 1

Read mode : Secure
Utilize accurate stream : Yes
Defeat audio cache : Yes
Make use of C2 pointers : No

Read offset correction : 667
Overread into Lead-In and Lead-Out : No
Fill up missing offset samples with silence : Yes
Delete leading and trailing silent blocks : No
Null samples used in CRC calculations : Yes
Used interface : Native Win32 interface for Win NT & 2000

Used output format : User Defined Encoder
Selected bitrate : 1024 kBit/s
Quality : High
Add ID3 tag : Yes
Command line compressor : C:\Program Files\Exact Audio Copy New\Flac\flac.exe
Additional command line options : -V -5 -T "artist=%artist%" -T "title=%title%" -T "album=%albumtitle%" -T "tracknumber=%tracknr2%" -T "genre=%genre%" -5 %source%


TOC of the extracted CD

Track | Start | Length | Start sector | End sector
––––––––––––––––––––––––––––-
1 | 0:00.00 | 2:53.26 | 0 | 13000
2 | 2:53.26 | 2:26.04 | 13001 | 23954
3 | 5:19.30 | 2:11.10 | 23955 | 33789
4 | 7:30.40 | 2:29.68 | 33790 | 45032
5 | 10:00.33 | 2:38.63 | 45033 | 56945
6 | 12:39.21 | 2:18.63 | 56946 | 67358
7 | 14:58.09 | 1:57.14 | 67359 | 76147
8 | 16:55.23 | 3:04.01 | 76148 | 89948
9 | 19:59.24 | 2:29.39 | 89949 | 101162
10 | 22:28.63 | 2:22.43 | 101163 | 111855
11 | 24:51.31 | 2:18.15 | 111856 | 122220


Range status and errors

Selected range

Filename K:\MUSIC\JDownloaded\JeanFerrat - L' integrale\CD13 - CD Bonus\Jean FERRAT - CD Bonus.wav

Peak level 100.0 %
Extraction speed 5.0 X
Range quality 100.0 %
Test CRC 3220A37C
Copy CRC 3220A37C
Copy OK

No errors occurred


AccurateRip summary

Track 1 accurately ripped (confidence 5) [D142A7E5] (AR v2)
Track 2 accurately ripped (confidence 5) [3217E732] (AR v2)
Track 3 accurately ripped (confidence 5) [16FB27D9] (AR v2)
Track 4 accurately ripped (confidence 5) [C880D8C7] (AR v2)
Track 5 accurately ripped (confidence 5) [0B1AA830] (AR v2)
Track 6 accurately ripped (confidence 5) [328396E4] (AR v2)
Track 7 accurately ripped (confidence 5) [BD8FF1C4] (AR v2)
Track 8 accurately ripped (confidence 5) [E53361A8] (AR v2)
Track 9 accurately ripped (confidence 5) [B6306E8C] (AR v2)
Track 10 accurately ripped (confidence 5) [D731446E] (AR v2)
Track 11 accurately ripped (confidence 5) [BB895975] (AR v2)

All tracks accurately ripped

End of status report

–– CUETools DB Plugin V2.1.3

[CTDB TOCID: 8IXEiL9YWeiI8NOJezvejJVoPXw-] found, Submit result: 8IXEiL9YWeiI8NOJezvejJVoPXw- has been confirmed
[4c8c7e3e] (3/3) Accurately ripped


==== Log checksum E5C994F8EEF417FB939BAD3021206878C34D6CF0D8438C54E06FFCFDEFEEBEA1 ====

All credits to the original ripper / uploader of this collection