Subcategories

Jean Francaix – The Music for Solo Piano, Duo and Duet (2012)

Posted By: d'Avignon
Jean Francaix – The Music for Solo Piano, Duo and Duet (2012)

Jean Francaix – The Music for Solo Piano, Duo and Duet (2012)
Classical/Early 20th century/contemporary | FLAC lossless/3cd | cuesheets+logs | covers+booklet | 3h11m | 564mb
Label: Nimbus Records | cat. no. NI 5880/2


Request from a user for this brand new set.
It is a box full of dainty, funny and witty gems, I like it a lot. And although the dazzling accelerations of a Prokofiev are never reached, the mood of many of these pieces certainly remind me of the Russian’s compositions

Tracks:

Cd1
01. Scherzo [0:02:16.84]
02. 5 Portraits de jeunes filles I - La Capricieuse [0:01:44.88]
03. 5 Portraits de jeunes filles II - La Tendre [0:02:28.84]
04. 5 Portraits de jeunes filles III - La Pretentieuse [0:02:05.72]
05. 5 Portraits de jeunes filles IV - La Pensive [0:01:57.40]
06. 5 Portraits de jeunes filles V - La Moderne [0:04:42.48]
07. Eloge de la danse I [0:02:06.72]
08. Eloge de la danse II [0:01:31.00]
09. Eloge de la danse III [0:01:26.04]
10. Eloge de la danse IV [0:01:11.36]
11. Eloge de la danse V [0:01:35.48]
12. Eloge de la danse VI [0:03:33.12]
13. Sonate pour piano I - Prelude [0:02:12.80]
14. Sonate pour piano II - Elegie [0:02:28.60]
15. Sonate pour piano III - Scherzo [0:01:19.36]
16. Sonate pour piano IV - Toccata [0:03:10.08]
17. Cinq Bis I - pour allecher l'auditoire [0:01:40.80]
18. Cinq Bis II - pour les dames sentimentales [0:03:28.40]
19. Cinq Bis III - en cas de succes [0:00:58.40]
20. Cinq Bis IV - en cas de triomphe [0:01:41.92]
21. Cinq Bis V - en cas de delire [0:01:48.92]
22. Dans des Trois Arlequins [0:01:57.56]
23. Huit Variations [0:07:30.96]
24. Nocturne [0:04:23.78]

Cd2
01. Huit danses exotiques pour deux pianos (1957): I. Pambiche [0:01:12.49]
02. Huit danses exotiques pour deux pianos (1957): II. Baiao [0:01:27.48]
03. Huit danses exotiques pour deux pianos (1957): III. Nube gris [0:01:03.84]
04. Huit danses exotiques pour deux pianos (1957): IV. Merengue [0:00:38.72]
05. Huit danses exotiques pour deux pianos (1957): V. Mambo [0:01:45.88]
06. Huit danses exotiques pour deux pianos (1957): VI. Samba lente [0:01:10.40]
07. Huit danses exotiques pour deux pianos (1957): VII. Malambeando [0:01:08.32]
08. Huit danses exotiques pour deux pianos (1957): VIII. Rock 'n' Roll [0:02:13.60]
09. 15 portraits d'enfants d'Auguste Renoir (1972): I. Le bebe a la cuiller [0:00:55.60]
10. 15 portraits d'enfants d'Auguste Renoir (1972): II. Jeune Bretonne [0:00:31.20]
11. 15 portraits d'enfants d'Auguste Renoir (1972): III. Adolescente se peignant [0:00:58.80]
12. 15 portraits d'enfants d'Auguste Renoir (1972): IV. Fillette lisant [0:00:55.20]
13. 15 portraits d'enfants d'Auguste Renoir (1972): V. Les deux sœurs [0:00:35.68]
14. 15 portraits d'enfants d'Auguste Renoir (1972): VI. Au Jardin du Luxembourg [0:01:44.96]
15. 15 portraits d'enfants d'Auguste Renoir (1972): VII. Fillette au chapeau bleu [0:01:18.62]
16. 15 portraits d'enfants d'Auguste Renoir (1972): VIII. Fillette a la gerbe [0:00:28.08]
17. 15 portraits d'enfants d'Auguste Renoir (1972): IX. Mademoiselle Cahen d'Anvers [0:01:15.49]
18. 15 portraits d'enfants d'Auguste Renoir (1972): X. La petite pêcheuse [0:00:28.24]
19. 15 portraits d'enfants d'Auguste Renoir (1972): XI. Mademoiselle Grimprel au ruban bleu [0:00:57.02]
20. 15 portraits d'enfants d'Auguste Renoir (1972): XII. Au piano [0:00:30.88]
21. 15 portraits d'enfants d'Auguste Renoir (1972): XIII. Fillette au chapeau a plume rose [0:01:29.12]
22. 15 portraits d'enfants d'Auguste Renoir (1972): XIV. Les enfants de Madame Charpentier [0:01:21.81]
23. 15 portraits d'enfants d'Auguste Renoir (1972): XV. Le petit collegien [0:00:55.98]
24. Trois esquisses sur les touches blanches (posth): I. Le Chérubin provisoire [0:01:50.49]
25. Trois esquisses sur les touches blanches (posth): II. Le Rêveur [0:02:00.48]
26. Trois esquisses sur les touches blanches (posth): III. Le Diablotin libéré… [0:00:47.36]
27. La Promenade d'un Musicologue Eclectique (1987): I. Hommage à Haendel [0:02:24.48]
28. La Promenade d'un Musicologue Eclectique (1987): II. Hommage à Frédéric Chopin [0:02:49.92]
29. La Promenade d'un Musicologue Eclectique (1987): III. Hommage à Domenico Scarlatti [0:03:20.48]
30. La Promenade d'un Musicologue Eclectique (1987): IV. Hommage à Maurice Ravel [0:03:34.24]
31. La Promenade d'un Musicologue Eclectique (1987): V. Petit Hommage à la Musique Contemporaine [0:02:15.00]
32. La Promenade d'un Musicologue Eclectique (1987): VI. Hommage à Adolphe Adam (de l'Institut) [0:04:21.76]
33. "De la Musique avant tout chose" (1975). Dix Pièces enfantines pour le Piano. I. Le Nouveau-Né. - II. Le Bébé - III. Les Jumeaux - IV. L'Enfant égaré [0:02:10.89]
34. "De la Musique avant tout chose" (1975). Dix Pièces enfantines pour le Piano. V. L'Enfant sage - VI. L'Enfant rêveur - VII. L'Ingénue [0:02:38.60]
35. "De la Musique avant tout chose" (1975). Dix Pièces enfantines pour le Piano. VIII. Le petit Soldat - IX. Le petit Rat - X. Un Jeune Loustic, ou le Mineur émancipé [0:03:58.40]
36. Pour Jacqueline (1922): I. L'été aux perrières - II. On berce linette - III. Les petits pas de linette - IV. Sous les ombrages - V. La danse des ours [0:07:27.04]

Cd3
01. Suite pour piano - Si Versailles m'etait conte I [0:04:49.98]
02. Suite pour piano - Si Versailles m'etait conte II [0:10:54.00]
03. Suite pour piano a 4 mains I [0:07:17.73]
04. Suite pour piano a 4 mains II [0:08:59.76]
05. Suite pour piano a 4 mains III [0:10:23.05]
06. Scuola di Ballo - Allegro-Presto-Andantino-Allegro assai [0:06:17.73]
07. Scuola di Ballo - Larghetto vivo-Allegretto-Allegro con moto-Subito allegro vivo [0:08:30.80]
08. Scuola di Ballo - Pastorale-Allegro alla turca-Poco sostenuto-Allegro furioso-Allegro [0:09:39.58]

Performer:

Martin Jones – piano

Exact Audio Copy V1.0 beta 3 from 29. August 2011

EAC extraction logfile from 7. August 2012, 18:35

Jean Francaix / The Music for Solo Piano, Duo and Duet

Used drive : TSSTcorpCDDVDW SH-216AB Adapter: 1 ID: 0

Read mode : Secure
Utilize accurate stream : Yes
Defeat audio cache : Yes
Make use of C2 pointers : No

Read offset correction : 6
Overread into Lead-In and Lead-Out : No
Fill up missing offset samples with silence : Yes
Delete leading and trailing silent blocks : No
Null samples used in CRC calculations : Yes
Used interface : Native Win32 interface for Win NT & 2000
Gap handling : Appended to previous track

Used output format : User Defined Encoder
Selected bitrate : 768 kBit/s
Quality : High
Add ID3 tag : No
Command line compressor : C:\Program Files (x86)\Exact Audio Copy\FLAC\FLAC.EXE
Additional command line options : -6 -V -T "ARTIST=%artist%" -T "TITLE=%title%" -T "ALBUM=%albumtitle%" -T "DATE=%year%" -T "TRACKNUMBER=%tracknr%" -T "GENRE=%genre%" -T "COMMENT=%comment%" -T "BAND=%albuminterpret%" -T "ALBUMARTIST=%albuminterpret%" -T "COMPOSER=%composer%" %haslyrics%–tag-from-file=LYRICS="%lyricsfile%"%haslyrics% -T "DISCNUMBER=%cdnumber%" -T "TOTALDISCS=%totalcds%" -T "TOTALTRACKS=%numtracks%" %hascover%–picture="%coverfile%"%hascover% %source% -o %dest%


TOC of the extracted CD

Track | Start | Length | Start sector | End sector
––––––––––––––––––––––––––––-
1 | 0:00.00 | 2:16.63 | 0 | 10262
2 | 2:16.63 | 1:44.66 | 10263 | 18128
3 | 4:01.54 | 2:28.63 | 18129 | 29291
4 | 6:30.42 | 2:05.54 | 29292 | 38720
5 | 8:36.21 | 1:57.30 | 38721 | 47525
6 | 10:33.51 | 4:42.36 | 47526 | 68711
7 | 15:16.12 | 2:06.54 | 68712 | 78215
8 | 17:22.66 | 1:31.00 | 78216 | 85040
9 | 18:53.66 | 1:26.03 | 85041 | 91493
10 | 20:19.69 | 1:11.27 | 91494 | 96845
11 | 21:31.21 | 1:35.36 | 96846 | 104006
12 | 23:06.57 | 3:33.09 | 104007 | 119990
13 | 26:39.66 | 2:12.60 | 119991 | 129950
14 | 28:52.51 | 2:28.45 | 129951 | 141095
15 | 31:21.21 | 1:19.27 | 141096 | 147047
16 | 32:40.48 | 3:10.06 | 147048 | 161303
17 | 35:50.54 | 1:40.60 | 161304 | 168863
18 | 37:31.39 | 3:28.30 | 168864 | 184493
19 | 40:59.69 | 0:58.30 | 184494 | 188873
20 | 41:58.24 | 1:41.69 | 188874 | 196517
21 | 43:40.18 | 1:48.69 | 196518 | 204686
22 | 45:29.12 | 1:57.42 | 204687 | 213503
23 | 47:26.54 | 7:30.72 | 213504 | 247325
24 | 54:57.51 | 4:23.59 | 247326 | 267109


Track 1

Filename C:\Users\astarte\03. POST\francaix\1\01. Scherzo.wav

Pre-gap length 0:00:02.00

Peak level 31.9 %
Extraction speed 4.3 X
Track quality 100.0 %
Copy CRC 381202F8
Track not present in AccurateRip database
Copy OK

Track 2

Filename C:\Users\astarte\03. POST\francaix\1\02. 5 Portraits de jeunes filles I - La Capricieuse.wav

Peak level 46.3 %
Extraction speed 3.0 X
Track quality 99.8 %
Copy CRC F3D00FD6
Track not present in AccurateRip database
Copy OK

Track 3

Filename C:\Users\astarte\03. POST\francaix\1\03. 5 Portraits de jeunes filles II - La Tendre.wav

Peak level 14.3 %
Extraction speed 4.7 X
Track quality 100.0 %
Copy CRC C6691ABB
Track not present in AccurateRip database
Copy OK

Track 4

Filename C:\Users\astarte\03. POST\francaix\1\04. 5 Portraits de jeunes filles III - La Pretentieuse.wav

Peak level 42.3 %
Extraction speed 4.9 X
Track quality 100.0 %
Copy CRC F4779CB4
Track not present in AccurateRip database
Copy OK

Track 5

Filename C:\Users\astarte\03. POST\francaix\1\05. 5 Portraits de jeunes filles IV - La Pensive.wav

Peak level 17.9 %
Extraction speed 4.9 X
Track quality 100.0 %
Copy CRC 51CC3948
Track not present in AccurateRip database
Copy OK

Track 6

Filename C:\Users\astarte\03. POST\francaix\1\06. 5 Portraits de jeunes filles V - La Moderne.wav

Peak level 75.6 %
Extraction speed 6.1 X
Track quality 100.0 %
Copy CRC 676C6753
Track not present in AccurateRip database
Copy OK

Track 7

Filename C:\Users\astarte\03. POST\francaix\1\07. Eloge de la danse I.wav

Peak level 60.1 %
Extraction speed 5.5 X
Track quality 100.0 %
Copy CRC 7F97C44A
Track not present in AccurateRip database
Copy OK

Track 8

Filename C:\Users\astarte\03. POST\francaix\1\08. Eloge de la danse II.wav

Peak level 19.3 %
Extraction speed 5.2 X
Track quality 100.0 %
Copy CRC 18838A8A
Track not present in AccurateRip database
Copy OK

Track 9

Filename C:\Users\astarte\03. POST\francaix\1\09. Eloge de la danse III.wav

Peak level 38.0 %
Extraction speed 5.3 X
Track quality 100.0 %
Copy CRC ECCA804A
Track not present in AccurateRip database
Copy OK

Track 10

Filename C:\Users\astarte\03. POST\francaix\1\10. Eloge de la danse IV.wav

Peak level 22.7 %
Extraction speed 3.2 X
Track quality 99.8 %
Copy CRC 473DFE1A
Track not present in AccurateRip database
Copy OK

Track 11

Filename C:\Users\astarte\03. POST\francaix\1\11. Eloge de la danse V.wav

Peak level 34.1 %
Extraction speed 5.2 X
Track quality 100.0 %
Copy CRC 0CC6AD86
Track not present in AccurateRip database
Copy OK

Track 12

Filename C:\Users\astarte\03. POST\francaix\1\12. Eloge de la danse VI.wav

Peak level 89.1 %
Extraction speed 5.4 X
Track quality 99.9 %
Copy CRC 8BAD4613
Track not present in AccurateRip database
Copy OK

Track 13

Filename C:\Users\astarte\03. POST\francaix\1\13. Sonate pour piano I - Prelude.wav

Peak level 73.4 %
Extraction speed 4.5 X
Track quality 99.9 %
Copy CRC 67107DDD
Track not present in AccurateRip database
Copy OK

Track 14

Filename C:\Users\astarte\03. POST\francaix\1\14. Sonate pour piano II - Elegie.wav

Peak level 18.8 %
Extraction speed 6.4 X
Track quality 100.0 %
Copy CRC ECFB88DC
Track not present in AccurateRip database
Copy OK

Track 15

Filename C:\Users\astarte\03. POST\francaix\1\15. Sonate pour piano III - Scherzo.wav

Peak level 73.7 %
Extraction speed 3.8 X
Track quality 99.8 %
Copy CRC F1A83001
Track not present in AccurateRip database
Copy OK

Track 16

Filename C:\Users\astarte\03. POST\francaix\1\16. Sonate pour piano IV - Toccata.wav

Peak level 39.8 %
Extraction speed 7.1 X
Track quality 100.0 %
Copy CRC A264CF2D
Track not present in AccurateRip database
Copy OK

Track 17

Filename C:\Users\astarte\03. POST\francaix\1\17. Cinq Bis I - pour allecher l'auditoire.wav

Peak level 58.2 %
Extraction speed 6.5 X
Track quality 100.0 %
Copy CRC 8CC26755
Track not present in AccurateRip database
Copy OK

Track 18

Filename C:\Users\astarte\03. POST\francaix\1\18. Cinq Bis II - pour les dames sentimentales.wav

Peak level 58.5 %
Extraction speed 7.7 X
Track quality 100.0 %
Copy CRC 32AB7F0B
Track not present in AccurateRip database
Copy OK

Track 19

Filename C:\Users\astarte\03. POST\francaix\1\19. Cinq Bis III - en cas de succes.wav

Peak level 80.5 %
Extraction speed 3.3 X
Track quality 99.8 %
Copy CRC 5A3485E9
Track not present in AccurateRip database
Copy OK

Track 20

Filename C:\Users\astarte\03. POST\francaix\1\20. Cinq Bis IV - en cas de triomphe.wav

Peak level 99.9 %
Extraction speed 4.5 X
Track quality 99.8 %
Copy CRC 42507774
Track not present in AccurateRip database
Copy OK

Track 21

Filename C:\Users\astarte\03. POST\francaix\1\21. Cinq Bis V - en cas de delire.wav

Peak level 89.2 %
Extraction speed 6.5 X
Track quality 100.0 %
Copy CRC A965A627
Track not present in AccurateRip database
Copy OK

Track 22

Filename C:\Users\astarte\03. POST\francaix\1\22. Dans des Trois Arlequins.wav

Peak level 89.0 %
Extraction speed 7.2 X
Track quality 100.0 %
Copy CRC 0082C3A9
Track not present in AccurateRip database
Copy OK

Track 23

Filename C:\Users\astarte\03. POST\francaix\1\23. Huit Variations.wav

Peak level 55.3 %
Extraction speed 9.3 X
Track quality 100.0 %
Copy CRC DA1703F9
Track not present in AccurateRip database
Copy OK

Track 24

Filename C:\Users\astarte\03. POST\francaix\1\24. Nocturne.wav

Peak level 36.1 %
Extraction speed 9.1 X
Track quality 100.0 %
Copy CRC 78520C86
Track not present in AccurateRip database
Copy OK


None of the tracks are present in the AccurateRip database

No errors occurred

End of status report

==== Log checksum 3D2290B48EFE7E4AB7CC7BB24971F5B40807EE00D412E5A60EAB51488A41C278 ====


Exact Audio Copy V1.0 beta 3 from 29. August 2011

EAC extraction logfile from 7. August 2012, 18:53

Jean Françaix / The music for solo piano, duo & duet

Used drive : TSSTcorpCDDVDW SH-216AB Adapter: 1 ID: 0

Read mode : Secure
Utilize accurate stream : Yes
Defeat audio cache : Yes
Make use of C2 pointers : No

Read offset correction : 6
Overread into Lead-In and Lead-Out : No
Fill up missing offset samples with silence : Yes
Delete leading and trailing silent blocks : No
Null samples used in CRC calculations : Yes
Used interface : Native Win32 interface for Win NT & 2000
Gap handling : Appended to previous track

Used output format : User Defined Encoder
Selected bitrate : 768 kBit/s
Quality : High
Add ID3 tag : No
Command line compressor : C:\Program Files (x86)\Exact Audio Copy\FLAC\FLAC.EXE
Additional command line options : -6 -V -T "ARTIST=%artist%" -T "TITLE=%title%" -T "ALBUM=%albumtitle%" -T "DATE=%year%" -T "TRACKNUMBER=%tracknr%" -T "GENRE=%genre%" -T "COMMENT=%comment%" -T "BAND=%albuminterpret%" -T "ALBUMARTIST=%albuminterpret%" -T "COMPOSER=%composer%" %haslyrics%–tag-from-file=LYRICS="%lyricsfile%"%haslyrics% -T "DISCNUMBER=%cdnumber%" -T "TOTALDISCS=%totalcds%" -T "TOTALTRACKS=%numtracks%" %hascover%–picture="%coverfile%"%hascover% %source% -o %dest%


TOC of the extracted CD

Track | Start | Length | Start sector | End sector
––––––––––––––––––––––––––––-
1 | 0:00.00 | 1:12.37 | 0 | 5436
2 | 1:12.37 | 1:27.36 | 5437 | 11997
3 | 2:39.73 | 1:03.63 | 11998 | 16785
4 | 3:43.61 | 0:38.54 | 16786 | 19689
5 | 4:22.40 | 1:45.66 | 19690 | 27630
6 | 6:08.31 | 1:10.30 | 27631 | 32910
7 | 7:18.61 | 1:08.24 | 32911 | 38034
8 | 8:27.10 | 2:13.45 | 38035 | 48054
9 | 10:40.55 | 0:55.45 | 48055 | 52224
10 | 11:36.25 | 0:31.15 | 52225 | 54564
11 | 12:07.40 | 0:58.60 | 54565 | 58974
12 | 13:06.25 | 0:55.15 | 58975 | 63114
13 | 14:01.40 | 0:35.51 | 63115 | 65790
14 | 14:37.16 | 1:44.72 | 65791 | 73662
15 | 16:22.13 | 1:18.47 | 73663 | 79559
16 | 17:40.60 | 0:28.06 | 79560 | 81665
17 | 18:08.66 | 1:15.37 | 81666 | 87327
18 | 19:24.28 | 0:28.18 | 87328 | 89445
19 | 19:52.46 | 0:57.02 | 89446 | 93722
20 | 20:49.48 | 0:30.66 | 93723 | 96038
21 | 21:20.39 | 1:29.09 | 96039 | 102722
22 | 22:49.48 | 1:21.61 | 102723 | 108858
23 | 24:11.34 | 0:55.74 | 108859 | 113057
24 | 25:07.33 | 1:50.37 | 113058 | 121344
25 | 26:57.70 | 2:00.36 | 121345 | 130380
26 | 28:58.31 | 0:47.27 | 130381 | 133932
27 | 29:45.58 | 2:24.36 | 133933 | 144768
28 | 32:10.19 | 2:49.69 | 144769 | 157512
29 | 35:00.13 | 3:20.36 | 157513 | 172548
30 | 38:20.49 | 3:34.18 | 172549 | 188616
31 | 41:54.67 | 2:15.00 | 188617 | 198741
32 | 44:09.67 | 4:21.57 | 198742 | 218373
33 | 48:31.49 | 2:10.67 | 218374 | 228190
34 | 50:42.41 | 2:38.45 | 228191 | 240085
35 | 53:21.11 | 3:58.30 | 240086 | 257965
36 | 57:19.41 | 7:27.03 | 257966 | 291493


Track 1

Filename C:\Users\astarte\03. POST\francaix\2\01. Huit danses exotiques pour deux pianos (1957)- I. Pambiche.wav

Pre-gap length 0:00:02.00

Peak level 44.8 %
Extraction speed 3.6 X
Track quality 100.0 %
Copy CRC CB944825
Track not present in AccurateRip database
Copy OK

Track 2

Filename C:\Users\astarte\03. POST\francaix\2\02. Huit danses exotiques pour deux pianos (1957)- II. Baiao.wav

Peak level 15.3 %
Extraction speed 3.9 X
Track quality 100.0 %
Copy CRC 777187D0
Track not present in AccurateRip database
Copy OK

Track 3

Filename C:\Users\astarte\03. POST\francaix\2\03. Huit danses exotiques pour deux pianos (1957)- III. Nube gris.wav

Peak level 37.4 %
Extraction speed 3.6 X
Track quality 100.0 %
Copy CRC E9C5E49A
Track not present in AccurateRip database
Copy OK

Track 4

Filename C:\Users\astarte\03. POST\francaix\2\04. Huit danses exotiques pour deux pianos (1957)- IV. Merengue.wav

Peak level 45.1 %
Extraction speed 3.0 X
Track quality 100.0 %
Copy CRC B63231A2
Track not present in AccurateRip database
Copy OK

Track 5

Filename C:\Users\astarte\03. POST\francaix\2\05. Huit danses exotiques pour deux pianos (1957)- V. Mambo.wav

Peak level 48.2 %
Extraction speed 3.1 X
Track quality 99.8 %
Copy CRC BDE751D3
Track not present in AccurateRip database
Copy OK

Track 6

Filename C:\Users\astarte\03. POST\francaix\2\06. Huit danses exotiques pour deux pianos (1957)- VI. Samba lente.wav

Peak level 37.1 %
Extraction speed 2.4 X
Track quality 99.8 %
Copy CRC 5D75CF4D
Track not present in AccurateRip database
Copy OK

Track 7

Filename C:\Users\astarte\03. POST\francaix\2\07. Huit danses exotiques pour deux pianos (1957)- VII. Malambeando.wav

Peak level 74.2 %
Extraction speed 3.8 X
Track quality 100.0 %
Copy CRC 381730EB
Track not present in AccurateRip database
Copy OK

Track 8

Filename C:\Users\astarte\03. POST\francaix\2\08. Huit danses exotiques pour deux pianos (1957)- VIII. Rock 'n' Roll.wav

Peak level 85.3 %
Extraction speed 5.1 X
Track quality 100.0 %
Copy CRC EE30B524
Track not present in AccurateRip database
Copy OK

Track 9

Filename C:\Users\astarte\03. POST\francaix\2\09. 15 portraits d'enfants d'Auguste Renoir (1972)- I. Le bebe a la cuiller.wav

Peak level 17.2 %
Extraction speed 3.9 X
Track quality 100.0 %
Copy CRC 3A182A64
Track not present in AccurateRip database
Copy OK

Track 10

Filename C:\Users\astarte\03. POST\francaix\2\10. 15 portraits d'enfants d'Auguste Renoir (1972)- II. Jeune Bretonne.wav

Peak level 25.6 %
Extraction speed 1.5 X
Track quality 99.6 %
Copy CRC F2F3E6B3
Track not present in AccurateRip database
Copy OK

Track 11

Filename C:\Users\astarte\03. POST\francaix\2\11. 15 portraits d'enfants d'Auguste Renoir (1972)- III. Adolescente se peignant.wav

Peak level 22.0 %
Extraction speed 3.8 X
Track quality 100.0 %
Copy CRC 2BFFA8D1
Track not present in AccurateRip database
Copy OK

Track 12

Filename C:\Users\astarte\03. POST\francaix\2\12. 15 portraits d'enfants d'Auguste Renoir (1972)- IV. Fillette lisant.wav

Peak level 18.6 %
Extraction speed 4.1 X
Track quality 100.0 %
Copy CRC 777C7F50
Track not present in AccurateRip database
Copy OK

Track 13

Filename C:\Users\astarte\03. POST\francaix\2\13. 15 portraits d'enfants d'Auguste Renoir (1972)- V. Les deux sœurs.wav

Peak level 29.7 %
Extraction speed 3.4 X
Track quality 100.0 %
Copy CRC 8BAAB56B
Track not present in AccurateRip database
Copy OK

Track 14

Filename C:\Users\astarte\03. POST\francaix\2\14. 15 portraits d'enfants d'Auguste Renoir (1972)- VI. Au Jardin du Luxembourg.wav

Peak level 60.9 %
Extraction speed 5.3 X
Track quality 100.0 %
Copy CRC 4E4A42CF
Track not present in AccurateRip database
Copy OK

Track 15

Filename C:\Users\astarte\03. POST\francaix\2\15. 15 portraits d'enfants d'Auguste Renoir (1972)- VII. Fillette au chapeau bleu.wav

Peak level 22.1 %
Extraction speed 4.9 X
Track quality 100.0 %
Copy CRC 672A1231
Track not present in AccurateRip database
Copy OK

Track 16

Filename C:\Users\astarte\03. POST\francaix\2\16. 15 portraits d'enfants d'Auguste Renoir (1972)- VIII. Fillette a la gerbe.wav

Peak level 28.9 %
Extraction speed 3.0 X
Track quality 100.0 %
Copy CRC FF525A88
Track not present in AccurateRip database
Copy OK

Track 17

Filename C:\Users\astarte\03. POST\francaix\2\17. 15 portraits d'enfants d'Auguste Renoir (1972)- IX. Mademoiselle Cahen d'Anvers.wav

Peak level 29.7 %
Extraction speed 4.9 X
Track quality 100.0 %
Copy CRC 3203168E
Track not present in AccurateRip database
Copy OK

Track 18

Filename C:\Users\astarte\03. POST\francaix\2\18. 15 portraits d'enfants d'Auguste Renoir (1972)- X. La petite pêcheuse.wav

Peak level 33.6 %
Extraction speed 3.0 X
Track quality 100.0 %
Copy CRC 6A81DDC9
Track not present in AccurateRip database
Copy OK

Track 19

Filename C:\Users\astarte\03. POST\francaix\2\19. 15 portraits d'enfants d'Auguste Renoir (1972)- XI. Mademoiselle Grimprel au ruban bleu.wav

Peak level 22.3 %
Extraction speed 4.5 X
Track quality 100.0 %
Copy CRC 6F0649F2
Track not present in AccurateRip database
Copy OK

Track 20

Filename C:\Users\astarte\03. POST\francaix\2\20. 15 portraits d'enfants d'Auguste Renoir (1972)- XII. Au piano.wav

Peak level 54.1 %
Extraction speed 1.7 X
Track quality 99.6 %
Copy CRC EA0AEF7E
Track not present in AccurateRip database
Copy OK

Track 21

Filename C:\Users\astarte\03. POST\francaix\2\21. 15 portraits d'enfants d'Auguste Renoir (1972)- XIII. Fillette au chapeau a plume rose.wav

Peak level 23.6 %
Extraction speed 5.1 X
Track quality 100.0 %
Copy CRC 03E27B02
Track not present in AccurateRip database
Copy OK

Track 22

Filename C:\Users\astarte\03. POST\francaix\2\22. 15 portraits d'enfants d'Auguste Renoir (1972)- XIV. Les enfants de Madame Charpentier.wav

Peak level 24.6 %
Extraction speed 5.4 X
Track quality 100.0 %
Copy CRC 1385DEA4
Track not present in AccurateRip database
Copy OK

Track 23

Filename C:\Users\astarte\03. POST\francaix\2\23. 15 portraits d'enfants d'Auguste Renoir (1972)- XV. Le petit collegien.wav

Peak level 54.0 %
Extraction speed 4.8 X
Track quality 100.0 %
Copy CRC E40186FC
Track not present in AccurateRip database
Copy OK

Track 24

Filename C:\Users\astarte\03. POST\francaix\2\24. Trois esquisses sur les touches blanches (posth)- I. Le Chérubin provisoire.wav

Peak level 11.1 %
Extraction speed 6.1 X
Track quality 100.0 %
Copy CRC 17750E49
Track not present in AccurateRip database
Copy OK

Track 25

Filename C:\Users\astarte\03. POST\francaix\2\25. Trois esquisses sur les touches blanches (posth)- II. Le Rêveur.wav

Peak level 33.3 %
Extraction speed 4.4 X
Track quality 99.9 %
Copy CRC FEB6F5EF
Track not present in AccurateRip database
Copy OK

Track 26

Filename C:\Users\astarte\03. POST\francaix\2\26. Trois esquisses sur les touches blanches (posth)- III. Le Diablotin libéré….wav

Peak level 25.5 %
Extraction speed 4.2 X
Track quality 100.0 %
Copy CRC 1E7B7A48
Track not present in AccurateRip database
Copy OK

Track 27

Filename C:\Users\astarte\03. POST\francaix\2\27. La Promenade d'un Musicologue Eclectique (1987)- I. Hommage à Haendel.wav

Peak level 66.4 %
Extraction speed 6.8 X
Track quality 100.0 %
Copy CRC CFF2DA47
Track not present in AccurateRip database
Copy OK

Track 28

Filename C:\Users\astarte\03. POST\francaix\2\28. La Promenade d'un Musicologue Eclectique (1987)- II. Hommage à Frédéric Chopin.wav

Peak level 30.6 %
Extraction speed 7.2 X
Track quality 100.0 %
Copy CRC ACC53394
Track not present in AccurateRip database
Copy OK

Track 29

Filename C:\Users\astarte\03. POST\francaix\2\29. La Promenade d'un Musicologue Eclectique (1987)- III. Hommage à Domenico Scarlatti.wav

Peak level 36.3 %
Extraction speed 5.9 X
Track quality 99.9 %
Copy CRC 00F9A310
Track not present in AccurateRip database
Copy OK

Track 30

Filename C:\Users\astarte\03. POST\francaix\2\30. La Promenade d'un Musicologue Eclectique (1987)- IV. Hommage à Maurice Ravel.wav

Peak level 21.0 %
Extraction speed 7.6 X
Track quality 100.0 %
Copy CRC A2A5D033
Track not present in AccurateRip database
Copy OK

Track 31

Filename C:\Users\astarte\03. POST\francaix\2\31. La Promenade d'un Musicologue Eclectique (1987)- V. Petit Hommage à la Musique Contemporaine.wav

Peak level 100.0 %
Extraction speed 7.3 X
Track quality 100.0 %
Copy CRC E7C0CF4F
Track not present in AccurateRip database
Copy OK

Track 32

Filename C:\Users\astarte\03. POST\francaix\2\32. La Promenade d'un Musicologue Eclectique (1987)- VI. Hommage à Adolphe Adam (de l'Institut).wav

Peak level 75.9 %
Extraction speed 8.5 X
Track quality 100.0 %
Copy CRC 76CE8A49
Track not present in AccurateRip database
Copy OK

Track 33

Filename C:\Users\astarte\03. POST\francaix\2\33. ''De la Musique avant tout chose'' (1975). Dix Pièces enfantines pour le Piano. I. Le Nouveau-Né. - II. Le Bébé - III. Les Jumeaux - IV. L'Enfant égaré.wav

Peak level 19.1 %
Extraction speed 7.7 X
Track quality 100.0 %
Copy CRC 371DACB9
Track not present in AccurateRip database
Copy OK

Track 34

Filename C:\Users\astarte\03. POST\francaix\2\34. ''De la Musique avant tout chose'' (1975). Dix Pièces enfantines pour le Piano. V. L'Enfant sage - VI. L'Enfant rêveur - VII. L'Ingénue.wav

Peak level 23.4 %
Extraction speed 8.1 X
Track quality 100.0 %
Copy CRC A75D7962
Track not present in AccurateRip database
Copy OK

Track 35

Filename C:\Users\astarte\03. POST\francaix\2\35. ''De la Musique avant tout chose'' (1975). Dix Pièces enfantines pour le Piano. VIII. Le petit Soldat - IX. Le petit Rat - X. Un Jeune Loustic, ou le Mineur émancipé.wav

Peak level 60.6 %
Extraction speed 7.1 X
Track quality 99.9 %
Copy CRC 460F9EDF
Track not present in AccurateRip database
Copy OK

Track 36

Filename C:\Users\astarte\03. POST\francaix\2\36. Pour Jacqueline (1922)- I. L'été aux perrières - II. On berce linette - III. Les petits pas de linette - IV. Sous les ombrages - V. La danse des ours.wav

Peak level 55.0 %
Extraction speed 9.6 X
Track quality 100.0 %
Copy CRC ABE05833
Track not present in AccurateRip database
Copy OK


None of the tracks are present in the AccurateRip database

No errors occurred

End of status report

==== Log checksum EEB5599EF31A356D2C2469C71B012E4277F695BCA4FFF095D7A1A653C409B23E ====


Exact Audio Copy V1.0 beta 3 from 29. August 2011

EAC extraction logfile from 7. August 2012, 19:16

Jean Francaix / The Music for solo piano, duo and duet cd3

Used drive : TSSTcorpCDDVDW SH-216AB Adapter: 1 ID: 0

Read mode : Secure
Utilize accurate stream : Yes
Defeat audio cache : Yes
Make use of C2 pointers : No

Read offset correction : 6
Overread into Lead-In and Lead-Out : No
Fill up missing offset samples with silence : Yes
Delete leading and trailing silent blocks : No
Null samples used in CRC calculations : Yes
Used interface : Native Win32 interface for Win NT & 2000
Gap handling : Appended to previous track

Used output format : User Defined Encoder
Selected bitrate : 768 kBit/s
Quality : High
Add ID3 tag : No
Command line compressor : C:\Program Files (x86)\Exact Audio Copy\FLAC\FLAC.EXE
Additional command line options : -6 -V -T "ARTIST=%artist%" -T "TITLE=%title%" -T "ALBUM=%albumtitle%" -T "DATE=%year%" -T "TRACKNUMBER=%tracknr%" -T "GENRE=%genre%" -T "COMMENT=%comment%" -T "BAND=%albuminterpret%" -T "ALBUMARTIST=%albuminterpret%" -T "COMPOSER=%composer%" %haslyrics%–tag-from-file=LYRICS="%lyricsfile%"%haslyrics% -T "DISCNUMBER=%cdnumber%" -T "TOTALDISCS=%totalcds%" -T "TOTALTRACKS=%numtracks%" %hascover%–picture="%coverfile%"%hascover% %source% -o %dest%


TOC of the extracted CD

Track | Start | Length | Start sector | End sector
––––––––––––––––––––––––––––-
1 | 0:00.00 | 4:49.74 | 0 | 21748
2 | 4:49.74 | 10:54.00 | 21749 | 70798
3 | 15:43.74 | 7:17.55 | 70799 | 103628
4 | 23:01.54 | 8:59.57 | 103629 | 144110
5 | 32:01.36 | 10:23.04 | 144111 | 190839
6 | 42:24.40 | 6:17.55 | 190840 | 219169
7 | 48:42.20 | 8:30.60 | 219170 | 257479
8 | 57:13.05 | 9:39.44 | 257480 | 300948


Track 1

Filename C:\Users\astarte\03. POST\francaix\3\01. Suite pour piano - Si Versailles m'etait conte I.wav

Pre-gap length 0:00:02.00

Peak level 50.7 %
Extraction speed 5.1 X
Track quality 100.0 %
Copy CRC A81E07AD
Track not present in AccurateRip database
Copy OK

Track 2

Filename C:\Users\astarte\03. POST\francaix\3\02. Suite pour piano - Si Versailles m'etait conte II.wav

Peak level 98.8 %
Extraction speed 5.8 X
Track quality 99.9 %
Copy CRC 868B1415
Track not present in AccurateRip database
Copy OK

Track 3

Filename C:\Users\astarte\03. POST\francaix\3\03. Suite pour piano a 4 mains I.wav

Peak level 61.2 %
Extraction speed 6.9 X
Track quality 100.0 %
Copy CRC 4F7A573E
Track not present in AccurateRip database
Copy OK

Track 4

Filename C:\Users\astarte\03. POST\francaix\3\04. Suite pour piano a 4 mains II.wav

Peak level 70.9 %
Extraction speed 7.8 X
Track quality 100.0 %
Copy CRC 33F0A5B2
Track not present in AccurateRip database
Copy OK

Track 5

Filename C:\Users\astarte\03. POST\francaix\3\05. Suite pour piano a 4 mains III.wav

Peak level 96.3 %
Extraction speed 8.6 X
Track quality 100.0 %
Copy CRC EED047C5
Track not present in AccurateRip database
Copy OK

Track 6

Filename C:\Users\astarte\03. POST\francaix\3\06. Scuola di Ballo - Allegro-Presto-Andantino-Allegro assai.wav

Peak level 66.9 %
Extraction speed 8.8 X
Track quality 100.0 %
Copy CRC 30561775
Track not present in AccurateRip database
Copy OK

Track 7

Filename C:\Users\astarte\03. POST\francaix\3\07. Scuola di Ballo - Larghetto vivo-Allegretto-Allegro con moto-Subito allegro vivo.wav

Peak level 100.0 %
Extraction speed 9.5 X
Track quality 100.0 %
Copy CRC 502CBDBF
Track not present in AccurateRip database
Copy OK

Track 8

Filename C:\Users\astarte\03. POST\francaix\3\08. Scuola di Ballo - Pastorale-Allegro alla turca-Poco sostenuto-Allegro furioso-Allegro.wav

Peak level 97.8 %
Extraction speed 10.1 X
Track quality 100.0 %
Copy CRC BC2F80F5
Track not present in AccurateRip database
Copy OK


None of the tracks are present in the AccurateRip database

No errors occurred

End of status report

==== Log checksum E2CC3C145F470BF517CB5CA313AA85138FBACDBDB32C7BCB92BE3F33BCDCA8F1 ====