Subcategories

Jean-Paul Celea - Yes Ornette! (2012) {OutNote Music}

Posted By: ruskaval
Jean-Paul Celea - Yes Ornette! (2012) {OutNote Music}

Jean-Paul Celea - Yes Ornette! (2012) {OutNote Music}
EAC rip (secure mode) | FLAC (tracks)+CUE+LOG -> 242 Mb | MP3 @320 -> 103 Mb
Full Artwork @ 300 dpi (jpg) -> 65 Mb | 5% repair rar
© 2012 OutNote Music / OutThere Music | OTN 016
Jazz / Avant-Garde Jazz / Double Bass

Virtuoso musician and professor of classical double bass at the Paris Conservatoire, Jean-Paul Celea is one of those rare soloists who is as convincing in classical or contemporary music as in jazz – where the rigour of his aesthetic choices and openness to the freest forms of today's music are served by a sumptuous sonority.

Constantly affirming his taste for bridges, Celea is now initiating this new trio with his longstanding accomplice Wolfgang Reisinger, a major player on the Austrian scene, in particular within the Vienna Art Orchestra. Sought after by such masters as Dave Liebman and Joachim Kühn, their tandem stands out as one of the most luxurious European rhythmics of the time. At their side, Émile Parisien, a young saxophonist of surprising maturity, whose modernity and energy wonderfully prolong Coltrane's heritage.

The trio takes a new look at historical or unpublished compositions by Ornette Coleman, whose melodic invention and rhythmic flexibility offer musicians, and in particular bass players, great freedom of execution and exceptional harmonic invention. Here, in perfect interactivity with Émile Parisien and Wolfgang Reisinger, Celea imposes his contrasted vision of Colemanian universes: intense, luminous, refined, and always with this consummate art of immediacy coupled with a knowledge of the instrument and its languages that place him in the forefront of bass players on the current scene.

Personnel:
Jean-Paul Celea: Double Bass ; Emile Parisien: Soprano Saxophone ; Wolfgang Reisinger: Drums.

tracklist:
01. Fixed Goal
02. Researching Has No Limits
03. Happy House
04. Sex Is for Woman
05. Homogeneous Emotions
06. Lonely Woman
07. Latin Genetics
08. Pointe Dancing
09. Three Ways to One
10. Allotropes, Elements Different Forms or Same
11. Semantic Expressions
12. Cosy Penty

Exact Audio Copy V1.0 beta 3 from 29. August 2011

EAC extraction logfile from 30. December 2012, 6:15

Jean-Paul Celea / Yes Ornette !

Used drive : PLEXTOR DVDR PX-860A Adapter: 0 ID: 0

Read mode : Secure
Utilize accurate stream : Yes
Defeat audio cache : Yes
Make use of C2 pointers : No

Read offset correction : 96
Overread into Lead-In and Lead-Out : No
Fill up missing offset samples with silence : Yes
Delete leading and trailing silent blocks : No
Null samples used in CRC calculations : Yes
Used interface : Native Win32 interface for Win NT & 2000
Gap handling : Appended to previous track

Used output format : User Defined Encoder
Selected bitrate : 1024 kBit/s
Quality : High
Add ID3 tag : No
Command line compressor : C:\Program Files\Exact Audio Copy\Flac\flac.exe
Additional command line options : -8 -V -T "ARTIST=%artist%" -T "TITLE=%title%" -T "ALBUM=%albumtitle%" -T "DATE=%year%" -T "TRACKNUMBER=%tracknr%" -T "GENRE=%genre%" -T "PERFORMER=%albuminterpret%" -T "COMPOSER=%composer%" %haslyrics%–tag-from-file=LYRICS="%lyricsfile%"%haslyrics% -T "ALBUMARTIST=%albumartist%" -T "DISCNUMBER=%cdnumber%" -T "TOTALDISCS=%totalcds%" -T "TOTALTRACKS=%numtracks%" -T "COMMENT=EAC Secure Mode, Test & Copy, AccurateRip, FLAC -8" %source% -o %dest%


TOC of the extracted CD

Track | Start | Length | Start sector | End sector
––––––––––––––––––––––––––––-
1 | 0:00.00 | 2:57.09 | 0 | 13283
2 | 2:57.09 | 4:05.57 | 13284 | 31715
3 | 7:02.66 | 3:40.38 | 31716 | 48253
4 | 10:43.29 | 4:39.37 | 48254 | 69215
5 | 15:22.66 | 4:02.15 | 69216 | 87380
6 | 19:25.06 | 5:38.08 | 87381 | 112738
7 | 25:03.14 | 2:23.41 | 112739 | 123504
8 | 27:26.55 | 2:41.59 | 123505 | 135638
9 | 30:08.39 | 2:58.63 | 135639 | 149051
10 | 33:07.27 | 4:01.24 | 149052 | 167150
11 | 37:08.51 | 3:18.04 | 167151 | 182004
12 | 40:26.55 | 2:40.20 | 182005 | 194024


Track 1

Filename I:\DL\Jean-Paul Celea - Yes Ornette ! (2012) [FLAC]\01 - Fixed Goal.wav

Pre-gap length 0:00:02.00

Peak level 100.0 %
Extraction speed 4.1 X
Track quality 100.0 %
Test CRC 0BACD871
Copy CRC 0BACD871
Track not present in AccurateRip database
Copy OK

Track 2

Filename I:\DL\Jean-Paul Celea - Yes Ornette ! (2012) [FLAC]\02 - Researching has no Limits.wav

Peak level 100.0 %
Extraction speed 4.7 X
Track quality 100.0 %
Test CRC 24809881
Copy CRC 24809881
Track not present in AccurateRip database
Copy OK

Track 3

Filename I:\DL\Jean-Paul Celea - Yes Ornette ! (2012) [FLAC]\03 - Happy House.wav

Peak level 100.0 %
Extraction speed 5.0 X
Track quality 100.0 %
Test CRC 4231CD83
Copy CRC 4231CD83
Track not present in AccurateRip database
Copy OK

Track 4

Filename I:\DL\Jean-Paul Celea - Yes Ornette ! (2012) [FLAC]\04 - Sex is for woman.wav

Peak level 100.0 %
Extraction speed 5.0 X
Track quality 99.9 %
Test CRC DBD9B156
Copy CRC DBD9B156
Track not present in AccurateRip database
Copy OK

Track 5

Filename I:\DL\Jean-Paul Celea - Yes Ornette ! (2012) [FLAC]\05 - Homogeneous Emotions.wav

Peak level 100.0 %
Extraction speed 5.8 X
Track quality 100.0 %
Test CRC 7B20585E
Copy CRC 7B20585E
Track not present in AccurateRip database
Copy OK

Track 6

Filename I:\DL\Jean-Paul Celea - Yes Ornette ! (2012) [FLAC]\06 - Lonely Woman.wav

Peak level 99.4 %
Extraction speed 6.5 X
Track quality 100.0 %
Test CRC 522E7F5F
Copy CRC 522E7F5F
Track not present in AccurateRip database
Copy OK

Track 7

Filename I:\DL\Jean-Paul Celea - Yes Ornette ! (2012) [FLAC]\07 - Latin Genetics.wav

Peak level 96.3 %
Extraction speed 5.9 X
Track quality 100.0 %
Test CRC 1B7ECF65
Copy CRC 1B7ECF65
Track not present in AccurateRip database
Copy OK

Track 8

Filename I:\DL\Jean-Paul Celea - Yes Ornette ! (2012) [FLAC]\08 - Pointe Dancing.wav

Peak level 98.1 %
Extraction speed 6.2 X
Track quality 100.0 %
Test CRC 0A6C3FCD
Copy CRC 0A6C3FCD
Track not present in AccurateRip database
Copy OK

Track 9

Filename I:\DL\Jean-Paul Celea - Yes Ornette ! (2012) [FLAC]\09 - Three Ways to One.wav

Peak level 97.9 %
Extraction speed 6.6 X
Track quality 100.0 %
Test CRC 9E87DCEF
Copy CRC 9E87DCEF
Track not present in AccurateRip database
Copy OK

Track 10

Filename I:\DL\Jean-Paul Celea - Yes Ornette ! (2012) [FLAC]\10 - Allotropes, Elements Different forms or Same.wav

Peak level 97.2 %
Extraction speed 6.2 X
Track quality 99.9 %
Test CRC C260093E
Copy CRC C260093E
Track not present in AccurateRip database
Copy OK

Track 11

Filename I:\DL\Jean-Paul Celea - Yes Ornette ! (2012) [FLAC]\11 - Semantic Expressions.wav

Peak level 99.4 %
Extraction speed 7.1 X
Track quality 100.0 %
Test CRC A4BCBCDD
Copy CRC A4BCBCDD
Track not present in AccurateRip database
Copy OK

Track 12

Filename I:\DL\Jean-Paul Celea - Yes Ornette ! (2012) [FLAC]\12 - Cosy Penty.wav

Peak level 85.2 %
Extraction speed 6.9 X
Track quality 100.0 %
Test CRC 05B583AD
Copy CRC 05B583AD
Track not present in AccurateRip database
Copy OK


None of the tracks are present in the AccurateRip database

No errors occurred

End of status report

–– CUETools DB Plugin V2.1.3

[CTDB TOCID: dSaYsyPcqjtoCuLwTwGY4gXwjkw-] disk not present in database, Submit result: dSaYsyPcqjtoCuLwTwGY4gXwjkw- has been uploaded


==== Log checksum 89A65F1C5CED98972023906A85C59CD8FE0A41D51C01D22741C8D9484274E0BB ====


Jean-Paul Celea - Yes Ornette! (2012) {OutNote Music}

Jean-Paul Celea - Yes Ornette! (2012) {OutNote Music}


Thanks to dtromp!