Johan Helmich Roman (1694-1758) - 12 Sonatas for Flute and B.C. - Jed Wentz & Musica ad Rhenum (2015) {2CD Brilliant Classics}

Posted By: ruskaval
Johan Helmich Roman (1694-1758) - 12 Sonatas for Flute and B.C. -  Jed Wentz & Musica ad Rhenum (2015) {2CD Brilliant Classics}

Johan Helmich Roman (1694-1758) - 12 Sonatas for Flute and B.C. - Jed Wentz & Musica ad Rhenum (2015) {2CD Brilliant Classics}
EAC rip (secure mode) | FLAC (tracks)+CUE+LOG -> 801 Mb | MP3 @320 -> 341 Mb
Full Artwork @ 300 dpi (png) -> 32 Mb | 5% repair rar
© 2015 Brilliant Classics | 95214
Classical / Baroque / Chamber Music / Flute

Here comes from a guy nickname as "The Handel of Sweden". Johan Helmich Roman is Baroque composer born in Stockholm. He was a violinist and oboist. He was leading figure in Swedish Royal Orchestra back then in 1720s. His most famous work happened to be a wedding compilation called "Drottningholmsmusique" a large orchestral suite for the wedding of the Crown Prince Adolf Frederick of Sweden and Louisa Ulrika of Prussia.

In this CD we found 12 flute sonatas for Basso Continuo, which replaced by harpsichord and cello. The form was most famous back then for flute enthusiast as they are simple. The pieces are somehow Handellian in spirit. This CD will enrich our experience and knowledge in Baroque flute repertoire. The whole CD is given performance by flutist Jed Wentz, who happened to be American flutist born in New Brighton PA. He is expert in Baroque repertoire.
Johan Helmich Roman (1694-1758) - 12 Sonatas for Flute and B.C. -  Jed Wentz & Musica ad Rhenum (2015) {2CD Brilliant Classics}

Johan Helmich Roman (1694-1758) has a fair claim to the title of the Swedish Handel, and these twelve sonatas for flute and basso continuo represent the best of his fresh and charming music. He evidently thought highly of them too, having them published in 1727; they were his only music to be printed during his lifetime. In the preface to his edition, Roman referred to the sonatas as youthful works, which should not imply artistic immaturity but may indicate that they had been written in England. He also includes a quotation from Cicero to the effect that although he wishes the sonatas to appeal to amateur musicians, they should be taken seriously, and approached only by dilettantes in the best, old-fashioned sense of the term, well-versed in both style and technique. Having spent some time in England, where he made associations with Geminiani and Handel, among others, by then he had returned to his homeland and that year became leader of the court orchestra in Stockholm. Handels influence undoubtedly travelled with him, not only in the German composers works which he promoted at home but in the galant style of his instrumental music which is formally more innovative than many of his Baroque contemporaries, and lighter in texture. Indeed, the last movement of the Sonata No.12 contains a direct quotation from Handels F major Sonata Op.1. Jed Wentz and Musica ad Rhenum have made a series of fine Baroque-music recordings for Brilliant Classics, including CPE Bach, JS Bach, Couperin, Telemann, Handel and several lesser-known names. Of their recent release of CPE Bachs flute sonatas (BC94323), Gramophones critic remarked that I cant imagine them being played with more aplomb or artistic precision. Johan Helmich Roman (1694-1758) is called the Father of Swedish music and also the Swedish Handel. And with good reason, as his instrumental works match Handels chamber music in charm, virtuosity formal structure and tunefulness. In fact Roman met Handel during his stay in England, and Romans admiration for the master is evident. No better advocate for these somewhat neglected works than Jed Wentz and his musical companions of Musica ad Rhenum. Not only are they thoroughly aware of the stylistic details of the music and its performance, but they also hugely enjoy themselves playing these flute sonatas, written for the advanced dilettante, well versed in style and technique (as Roman himself describes it). Excellent liner notes by Jed Wentz (a fine player as well as an eminent scholar).
Johan Helmich Roman (1694-1758) - 12 Sonatas for Flute and B.C. -  Jed Wentz & Musica ad Rhenum (2015) {2CD Brilliant Classics}


Personnel:
Musica Ad Rhenum

Jed Wentz flauto traverso
Job ter Haar violoncello
Michael Borgstede harpsichord

Johan Helmich Roman (1694-1758) - 12 Sonatas for Flute and B.C. -  Jed Wentz & Musica ad Rhenum (2015) {2CD Brilliant Classics}


tracklist:
Disk 1

1 Flute Sonata VI in B Minor, BeRI 206: I. Larghetto
2 Flute Sonata VI in B Minor, BeRI 206: II. Allegro
3 Flute Sonata VI in B Minor, BeRI 206: III. Non troppo allegro
4 Flute Sonata VI in B Minor, BeRI 206: IV. Grave
5 Flute Sonata VI in B Minor, BeRI 206: V. Allegro
6 Flute Sonata II in D Major, BeRI 202: I. Vivace - Adagio – Da capo
7 Flute Sonata II in D Major, BeRI 202: II. A tempo giusto
8 Flute Sonata II in D Major, BeRI 202: III. Larghetto - Andante – Adagio
9 Flute Sonata II in D Major, BeRI 202: IV. Non presto
10 Flute Sonata IV in G Major, BeRI 204: I. Largo
11 Flute Sonata IV in G Major, BeRI 204: II. Allegro
12 Flute Sonata IV in G Major, BeRI 204: III. Larghetto
13 Flute Sonata IV in G Major, BeRI 204: IV. Vivace
14 Flute Sonata IV in G Major, BeRI 204: V. Allegro
15 Flute Sonata IV in G Major, BeRI 204: VI. Non presto
16 Flute Sonata V in E Minor, BeRI 205: I. Lento
17 Flute Sonata V in E Minor, BeRI 205: II. Allegro
18 Flute Sonata V in E Minor, BeRI 205: III. Grave
19 Flute Sonata V in E Minor, BeRI 205: IV. Allegro
20 Flute Sonata V in E Minor, BeRI 205: V. Vivace
21 Flute Sonata V in E Minor, BeRI 205: VI. Andante
22 Flute Sonata V in E Minor, BeRI 205: VII. Allegro
23 Flute Sonata VII in G Major, BeRI 207: I. Largo
24 Flute Sonata VII in G Major, BeRI 207: II. Larghetto
25 Flute Sonata VII in G Major, BeRI 207: III. Lento
26 Flute Sonata VII in G Major, BeRI 207: IV. Allegro assai
27 Flute Sonata III in C Minor, BeRI 203: I. Largo
28 Flute Sonata III in C Minor, BeRI 203: II. Allegro
29 Flute Sonata III in C Minor, BeRI 203: III. Adagio - Non tanto
30 Flute Sonata III in C Minor, BeRI 203: IV. Vivace
31 Flute Sonata III in C Minor, BeRI 203: V. Alla francese

Disk 2
1 Flute Sonata IX in C Major, BeRI 209: I. Cantabile
2 Flute Sonata IX in C Major, BeRI 209: II. Vivace
3 Flute Sonata IX in C Major, BeRI 209: III. Andante
4 Flute Sonata IX in C Major, BeRI 209: IV. Allegro
5 Flute Sonata IX in C Major, BeRI 209: V. Minuetto
6 Flute Sonata VIII in A Major, BeRI 208: I. Largo
7 Flute Sonata VIII in A Major, BeRI 208: II. Allegro
8 Flute Sonata VIII in A Major, BeRI 208: III. Andante
9 Flute Sonata VIII in A Major, BeRI 208: IV. Adagio – Allegro
10 Flute Sonata VIII in A Major, BeRI 208: V. Allegro
11 Flute Sonata X in E Minor, BeRI 210: I. Larghetto
12 Flute Sonata X in E Minor, BeRI 210: II. Andante
13 Flute Sonata X in E Minor, BeRI 210: III. Piva
14 Flute Sonata X in E Minor, BeRI 210: IV. Non presto
15 Flute Sonata X in E Minor, BeRI 210: V. Villanella
16 Flute Sonata I in G Major, BeRI 201: I. Largo
17 Flute Sonata I in G Major, BeRI 201: II. Allegro
18 Flute Sonata I in G Major, BeRI 201: III. Larghetto
19 Flute Sonata I in G Major, BeRI 201: IV. Andante
20 Flute Sonata I in G Major, BeRI 201: V. Vivace
21 Flute Sonata XI in G Minor, BeRI 211: I. Largo
22 Flute Sonata XI in G Minor, BeRI 211: II. Allegro
23 Flute Sonata XI in G Minor, BeRI 211: III. Larghetto
24 Flute Sonata XI in G Minor, BeRI 211: IV. Allegro
25 Flute Sonata XII in D Major, BeRI 212: I. Con spirit
26 Flute Sonata XII in D Major, BeRI 212: II. Allegro
27 Flute Sonata XII in D Major, BeRI 212: III. Con affetto
28 Flute Sonata XII in D Major, BeRI 212: IV. Allegro

Exact Audio Copy V1.1 from 23. June 2015

EAC extraction logfile from 26. May 2016, 17:46

Jed Wentz, Musica Ad Rhenum / J. H. Roman Flute Sonatas CD1

Used drive : ATAPI iHBS112 2 Adapter: 1 ID: 1

Read mode : Secure
Utilize accurate stream : Yes
Defeat audio cache : Yes
Make use of C2 pointers : No

Read offset correction : 6
Overread into Lead-In and Lead-Out : No
Fill up missing offset samples with silence : Yes
Delete leading and trailing silent blocks : No
Null samples used in CRC calculations : Yes
Used interface : Native Win32 interface for Win NT & 2000
Gap handling : Appended to previous track

Used output format : User Defined Encoder
Selected bitrate : 768 kBit/s
Quality : High
Add ID3 tag : No
Command line compressor : C:\Program Files\Exact Audio Copy\FLAC\FLAC.EXE
Additional command line options : -8 -V -T "ARTIST=%artist%" -T "TITLE=%title%" -T "ALBUM=%albumtitle%" -T "DATE=%year%" -T "TRACKNUMBER=%tracknr%" -T "GENRE=%genre%" -T "PERFORMER=%albuminterpret%" -T "COMPOSER=%composer%" -T "ALBUMARTIST=%albumartist%" -T "DISCNUMBER=%cdnumber%" -T "TOTALDISCS=%totalcds%" -T "TOTALTRACKS=%numtracks%" -T "COMMENT=EAC Secure Mode, Test & Copy, AccurateRip, FLAC -8" %source% -o %dest%


TOC of the extracted CD

Track | Start | Length | Start sector | End sector
––––––––––––––––––––––––––––-
1 | 0:00.00 | 5:18.05 | 0 | 23854
2 | 5:18.05 | 2:47.39 | 23855 | 36418
3 | 8:05.44 | 3:04.68 | 36419 | 50286
4 | 11:10.37 | 1:34.69 | 50287 | 57405
5 | 12:45.31 | 0:59.28 | 57406 | 61858
6 | 13:44.59 | 4:38.13 | 61859 | 82721
7 | 18:22.72 | 3:17.31 | 82722 | 97527
8 | 21:40.28 | 1:38.16 | 97528 | 104893
9 | 23:18.44 | 0:43.47 | 104894 | 108165
10 | 24:02.16 | 4:24.33 | 108166 | 127998
11 | 28:26.49 | 3:40.27 | 127999 | 144525
12 | 32:07.01 | 2:06.09 | 144526 | 153984
13 | 34:13.10 | 1:02.31 | 153985 | 158665
14 | 35:15.41 | 2:10.55 | 158666 | 168470
15 | 37:26.21 | 0:58.18 | 168471 | 172838
16 | 38:24.39 | 3:20.48 | 172839 | 187886
17 | 41:45.12 | 2:45.04 | 187887 | 200265
18 | 44:30.16 | 3:03.64 | 200266 | 214054
19 | 47:34.05 | 2:02.59 | 214055 | 223263
20 | 49:36.64 | 0:59.64 | 223264 | 227752
21 | 50:36.53 | 1:20.70 | 227753 | 233822
22 | 51:57.48 | 0:36.28 | 233823 | 236550
23 | 52:34.01 | 2:24.15 | 236551 | 247365
24 | 54:58.16 | 3:04.17 | 247366 | 261182
25 | 58:02.33 | 1:38.65 | 261183 | 268597
26 | 59:41.23 | 1:22.53 | 268598 | 274800
27 | 61:04.01 | 2:18.23 | 274801 | 285173
28 | 63:22.24 | 2:51.00 | 285174 | 297998
29 | 66:13.24 | 2:29.54 | 297999 | 309227
30 | 68:43.03 | 2:20.56 | 309228 | 319783
31 | 71:03.59 | 1:58.08 | 319784 | 328641


Track 1

Filename F:\DL\Jed Wentz, Musica Ad Rhenum - J. H. Roman Flute Sonatas CD1 (2015) [FLAC]\01 - Sonata VI in B minor - I. Larghetto.wav

Pre-gap length 0:00:02.00

Peak level 75.3 %
Extraction speed 3.6 X
Track quality 99.9 %
Test CRC 8479FB9B
Copy CRC 8479FB9B
Accurately ripped (confidence 2) [BD9AB74C] (AR v2)
Copy OK

Track 2

Filename F:\DL\Jed Wentz, Musica Ad Rhenum - J. H. Roman Flute Sonatas CD1 (2015) [FLAC]\02 - Sonata VI in B minor - II. Allegro.wav

Peak level 66.7 %
Extraction speed 3.9 X
Track quality 100.0 %
Test CRC 98D73290
Copy CRC 98D73290
Accurately ripped (confidence 2) [3B6060CB] (AR v2)
Copy OK

Track 3

Filename F:\DL\Jed Wentz, Musica Ad Rhenum - J. H. Roman Flute Sonatas CD1 (2015) [FLAC]\03 - Sonata VI in B minor - III. Non troppo allegro.wav

Peak level 83.8 %
Extraction speed 3.6 X
Track quality 99.9 %
Test CRC 466BB7E2
Copy CRC 466BB7E2
Accurately ripped (confidence 2) [5C28DF65] (AR v2)
Copy OK

Track 4

Filename F:\DL\Jed Wentz, Musica Ad Rhenum - J. H. Roman Flute Sonatas CD1 (2015) [FLAC]\04 - Sonata VI in B minor - IV. Grave.wav

Peak level 43.6 %
Extraction speed 3.0 X
Track quality 99.8 %
Test CRC 22B7863F
Copy CRC 22B7863F
Accurately ripped (confidence 2) [8444428C] (AR v2)
Copy OK

Track 5

Filename F:\DL\Jed Wentz, Musica Ad Rhenum - J. H. Roman Flute Sonatas CD1 (2015) [FLAC]\05 - Sonata VI in B minor - V. Allegro.wav

Peak level 63.5 %
Extraction speed 3.3 X
Track quality 100.0 %
Test CRC E5954EAB
Copy CRC E5954EAB
Accurately ripped (confidence 2) [5EE9CE85] (AR v2)
Copy OK

Track 6

Filename F:\DL\Jed Wentz, Musica Ad Rhenum - J. H. Roman Flute Sonatas CD1 (2015) [FLAC]\06 - Sonata II in D major - I. Vivace - Adagio da capo.wav

Peak level 85.8 %
Extraction speed 4.9 X
Track quality 100.0 %
Test CRC 0E22903E
Copy CRC 0E22903E
Accurately ripped (confidence 2) [E4F8D06D] (AR v2)
Copy OK

Track 7

Filename F:\DL\Jed Wentz, Musica Ad Rhenum - J. H. Roman Flute Sonatas CD1 (2015) [FLAC]\07 - Sonata II in D major - II. A tempo giusto.wav

Peak level 80.1 %
Extraction speed 5.0 X
Track quality 100.0 %
Test CRC CB914DB6
Copy CRC CB914DB6
Accurately ripped (confidence 2) [8F005E9B] (AR v2)
Copy OK

Track 8

Filename F:\DL\Jed Wentz, Musica Ad Rhenum - J. H. Roman Flute Sonatas CD1 (2015) [FLAC]\08 - Sonata II in D major - III. Larghetto - Andante - Adagio.wav

Peak level 67.1 %
Extraction speed 4.4 X
Track quality 100.0 %
Test CRC E91DA94A
Copy CRC E91DA94A
Accurately ripped (confidence 2) [88875850] (AR v2)
Copy OK

Track 9

Filename F:\DL\Jed Wentz, Musica Ad Rhenum - J. H. Roman Flute Sonatas CD1 (2015) [FLAC]\09 - Sonata II in D major - IV. Non presto.wav

Peak level 69.2 %
Extraction speed 3.3 X
Track quality 100.0 %
Test CRC 0E7123F9
Copy CRC 0E7123F9
Accurately ripped (confidence 2) [256146EC] (AR v2)
Copy OK

Track 10

Filename F:\DL\Jed Wentz, Musica Ad Rhenum - J. H. Roman Flute Sonatas CD1 (2015) [FLAC]\10 - Sonata IV in G major - I. Largo.wav

Peak level 79.6 %
Extraction speed 5.6 X
Track quality 100.0 %
Test CRC 1C088619
Copy CRC 1C088619
Accurately ripped (confidence 2) [B7A82DAE] (AR v2)
Copy OK

Track 11

Filename F:\DL\Jed Wentz, Musica Ad Rhenum - J. H. Roman Flute Sonatas CD1 (2015) [FLAC]\11 - Sonata IV in G major - II. Allegro.wav

Peak level 82.0 %
Extraction speed 5.6 X
Track quality 100.0 %
Test CRC 160AD693
Copy CRC 160AD693
Accurately ripped (confidence 2) [823AE550] (AR v2)
Copy OK

Track 12

Filename F:\DL\Jed Wentz, Musica Ad Rhenum - J. H. Roman Flute Sonatas CD1 (2015) [FLAC]\12 - Sonata IV in G major - III. Larghetto.wav

Peak level 49.2 %
Extraction speed 5.3 X
Track quality 100.0 %
Test CRC A00CE772
Copy CRC A00CE772
Accurately ripped (confidence 2) [554A4B91] (AR v2)
Copy OK

Track 13

Filename F:\DL\Jed Wentz, Musica Ad Rhenum - J. H. Roman Flute Sonatas CD1 (2015) [FLAC]\13 - Sonata IV in G major - IV. Vivace.wav

Peak level 56.6 %
Extraction speed 3.2 X
Track quality 99.8 %
Test CRC 0B75CA4C
Copy CRC 0B75CA4C
Accurately ripped (confidence 2) [45F62000] (AR v2)
Copy OK

Track 14

Filename F:\DL\Jed Wentz, Musica Ad Rhenum - J. H. Roman Flute Sonatas CD1 (2015) [FLAC]\14 - Sonata IV in G major - V. Allegro.wav

Peak level 72.1 %
Extraction speed 5.4 X
Track quality 100.0 %
Test CRC 9E910A7D
Copy CRC 9E910A7D
Accurately ripped (confidence 2) [527F09A8] (AR v2)
Copy OK

Track 15

Filename F:\DL\Jed Wentz, Musica Ad Rhenum - J. H. Roman Flute Sonatas CD1 (2015) [FLAC]\15 - Sonata IV in G major - VI. Non presto.wav

Peak level 72.1 %
Extraction speed 4.4 X
Track quality 100.0 %
Test CRC 3E0E01F3
Copy CRC 3E0E01F3
Accurately ripped (confidence 2) [326D11C4] (AR v2)
Copy OK

Track 16

Filename F:\DL\Jed Wentz, Musica Ad Rhenum - J. H. Roman Flute Sonatas CD1 (2015) [FLAC]\16 - Sonata V in E minor - I. Lento.wav

Peak level 67.9 %
Extraction speed 6.0 X
Track quality 100.0 %
Test CRC 4DBFEE35
Copy CRC 4DBFEE35
Accurately ripped (confidence 2) [AE053532] (AR v2)
Copy OK

Track 17

Filename F:\DL\Jed Wentz, Musica Ad Rhenum - J. H. Roman Flute Sonatas CD1 (2015) [FLAC]\17 - Sonata V in E minor - II. [Allegro].wav

Peak level 83.0 %
Extraction speed 6.0 X
Track quality 100.0 %
Test CRC A842363C
Copy CRC A842363C
Accurately ripped (confidence 2) [C5313BFF] (AR v2)
Copy OK

Track 18

Filename F:\DL\Jed Wentz, Musica Ad Rhenum - J. H. Roman Flute Sonatas CD1 (2015) [FLAC]\18 - Sonata V in E minor - III. Grave.wav

Peak level 66.2 %
Extraction speed 6.3 X
Track quality 100.0 %
Test CRC 2755DBA1
Copy CRC 2755DBA1
Accurately ripped (confidence 2) [DEF80EA1] (AR v2)
Copy OK

Track 19

Filename F:\DL\Jed Wentz, Musica Ad Rhenum - J. H. Roman Flute Sonatas CD1 (2015) [FLAC]\19 - Sonata V in E minor - IV. Allegro.wav

Peak level 76.3 %
Extraction speed 5.9 X
Track quality 100.0 %
Test CRC BA4A7A3F
Copy CRC BA4A7A3F
Accurately ripped (confidence 2) [040DE208] (AR v2)
Copy OK

Track 20

Filename F:\DL\Jed Wentz, Musica Ad Rhenum - J. H. Roman Flute Sonatas CD1 (2015) [FLAC]\20 - Sonata V in E minor - V. Vivace.wav

Peak level 72.3 %
Extraction speed 4.9 X
Track quality 100.0 %
Test CRC F4C532D2
Copy CRC F4C532D2
Accurately ripped (confidence 2) [C4DDF152] (AR v2)
Copy OK

Track 21

Filename F:\DL\Jed Wentz, Musica Ad Rhenum - J. H. Roman Flute Sonatas CD1 (2015) [FLAC]\21 - Sonata V in E minor - VI. Andante.wav

Peak level 44.9 %
Extraction speed 5.3 X
Track quality 100.0 %
Test CRC 31742EF5
Copy CRC 31742EF5
Accurately ripped (confidence 2) [E8B6FBF1] (AR v2)
Copy OK

Track 22

Filename F:\DL\Jed Wentz, Musica Ad Rhenum - J. H. Roman Flute Sonatas CD1 (2015) [FLAC]\22 - Sonata V in E minor - VII. [Allegro].wav

Peak level 46.7 %
Extraction speed 3.9 X
Track quality 100.0 %
Test CRC FB2F3D68
Copy CRC FB2F3D68
Accurately ripped (confidence 2) [18D21793] (AR v2)
Copy OK

Track 23

Filename F:\DL\Jed Wentz, Musica Ad Rhenum - J. H. Roman Flute Sonatas CD1 (2015) [FLAC]\23 - Sonata VII in G major - I. Largo.wav

Peak level 82.9 %
Extraction speed 6.3 X
Track quality 100.0 %
Test CRC 7293C7C7
Copy CRC 7293C7C7
Accurately ripped (confidence 2) [EEEFF478] (AR v2)
Copy OK

Track 24

Filename F:\DL\Jed Wentz, Musica Ad Rhenum - J. H. Roman Flute Sonatas CD1 (2015) [FLAC]\24 - Sonata VII in G major - II. Larghetto.wav

Peak level 78.3 %
Extraction speed 5.8 X
Track quality 99.9 %
Test CRC D113F65A
Copy CRC D113F65A
Accurately ripped (confidence 2) [97ED532B] (AR v2)
Copy OK

Track 25

Filename F:\DL\Jed Wentz, Musica Ad Rhenum - J. H. Roman Flute Sonatas CD1 (2015) [FLAC]\25 - Sonata VII in G major - III. Lento.wav

Peak level 73.4 %
Extraction speed 5.9 X
Track quality 100.0 %
Test CRC 09E16329
Copy CRC 09E16329
Accurately ripped (confidence 2) [E4BB86DC] (AR v2)
Copy OK

Track 26

Filename F:\DL\Jed Wentz, Musica Ad Rhenum - J. H. Roman Flute Sonatas CD1 (2015) [FLAC]\26 - Sonata VII in G major - IV. Allegro assai.wav

Peak level 65.4 %
Extraction speed 5.7 X
Track quality 100.0 %
Test CRC 834CF26F
Copy CRC 834CF26F
Accurately ripped (confidence 2) [8F3806BD] (AR v2)
Copy OK

Track 27

Filename F:\DL\Jed Wentz, Musica Ad Rhenum - J. H. Roman Flute Sonatas CD1 (2015) [FLAC]\27 - Sonata III in C minor - I. Largo.wav

Peak level 67.9 %
Extraction speed 6.6 X
Track quality 100.0 %
Test CRC 7204EA39
Copy CRC 7204EA39
Accurately ripped (confidence 2) [8758DC8A] (AR v2)
Copy OK

Track 28

Filename F:\DL\Jed Wentz, Musica Ad Rhenum - J. H. Roman Flute Sonatas CD1 (2015) [FLAC]\28 - Sonata III in C minor - II. Allegro.wav

Peak level 66.7 %
Extraction speed 5.9 X
Track quality 99.9 %
Test CRC 79E93A54
Copy CRC 79E93A54
Accurately ripped (confidence 2) [A1679474] (AR v2)
Copy OK

Track 29

Filename F:\DL\Jed Wentz, Musica Ad Rhenum - J. H. Roman Flute Sonatas CD1 (2015) [FLAC]\29 - Sonata III in C minor - III. Adagio - Non tanto.wav

Pre-gap length 0:01:23.37

Peak level 75.4 %
Extraction speed 5.8 X
Track quality 99.9 %
Test CRC F91ABEA1
Copy CRC F91ABEA1
Accurately ripped (confidence 2) [30BC55D6] (AR v2)
Copy OK

Track 30

Filename F:\DL\Jed Wentz, Musica Ad Rhenum - J. H. Roman Flute Sonatas CD1 (2015) [FLAC]\30 - Sonata III in C minor - IV. Vivace.wav

Peak level 83.0 %
Extraction speed 5.7 X
Track quality 99.9 %
Test CRC 6C9DBDA4
Copy CRC 6C9DBDA4
Accurately ripped (confidence 2) [F390E4B9] (AR v2)
Copy OK

Track 31

Filename F:\DL\Jed Wentz, Musica Ad Rhenum - J. H. Roman Flute Sonatas CD1 (2015) [FLAC]\31 - Sonata III in C minor - V. Alla francese.wav

Peak level 65.5 %
Extraction speed 6.6 X
Track quality 100.0 %
Test CRC 0528257F
Copy CRC 0528257F
Accurately ripped (confidence 2) [813D823C] (AR v2)
Copy OK


All tracks accurately ripped

No errors occurred

End of status report

–– CUETools DB Plugin V2.1.6

[CTDB TOCID: v.Rq5e3CuODwo0ikcwo58cYcM7Y-] found
Submit result: v.Rq5e3CuODwo0ikcwo58cYcM7Y- has been confirmed
Track | CTDB Status
1 | (1/1) Accurately ripped
2 | (1/1) Accurately ripped
3 | (1/1) Accurately ripped
4 | (1/1) Accurately ripped
5 | (1/1) Accurately ripped
6 | (1/1) Accurately ripped
7 | (1/1) Accurately ripped
8 | (1/1) Accurately ripped
9 | (1/1) Accurately ripped
10 | (1/1) Accurately ripped
11 | (1/1) Accurately ripped
12 | (1/1) Accurately ripped
13 | (1/1) Accurately ripped
14 | (1/1) Accurately ripped
15 | (1/1) Accurately ripped
16 | (1/1) Accurately ripped
17 | (1/1) Accurately ripped
18 | (1/1) Accurately ripped
19 | (1/1) Accurately ripped
20 | (1/1) Accurately ripped
21 | (1/1) Accurately ripped
22 | (1/1) Accurately ripped
23 | (1/1) Accurately ripped
24 | (1/1) Accurately ripped
25 | (1/1) Accurately ripped
26 | (1/1) Accurately ripped
27 | (1/1) Accurately ripped
28 | (1/1) Accurately ripped
29 | (1/1) Accurately ripped
30 | (1/1) Accurately ripped
31 | (1/1) Accurately ripped


==== Log checksum EEE28BA80D42AB6B78046EF8FA927110AD0CF3C6A6F69BF8BAB615B4442EF79B ====

Exact Audio Copy V1.1 from 23. June 2015

EAC extraction logfile from 26. May 2016, 18:33

Jed Wentz, Musica Ad Rhenum / J. H. Roman Flute Sonatas CD2

Used drive : ATAPI iHBS112 2 Adapter: 1 ID: 1

Read mode : Secure
Utilize accurate stream : Yes
Defeat audio cache : Yes
Make use of C2 pointers : No

Read offset correction : 6
Overread into Lead-In and Lead-Out : No
Fill up missing offset samples with silence : Yes
Delete leading and trailing silent blocks : No
Null samples used in CRC calculations : Yes
Used interface : Native Win32 interface for Win NT & 2000
Gap handling : Appended to previous track

Used output format : User Defined Encoder
Selected bitrate : 768 kBit/s
Quality : High
Add ID3 tag : No
Command line compressor : C:\Program Files\Exact Audio Copy\FLAC\FLAC.EXE
Additional command line options : -8 -V -T "ARTIST=%artist%" -T "TITLE=%title%" -T "ALBUM=%albumtitle%" -T "DATE=%year%" -T "TRACKNUMBER=%tracknr%" -T "GENRE=%genre%" -T "PERFORMER=%albuminterpret%" -T "COMPOSER=%composer%" -T "ALBUMARTIST=%albumartist%" -T "DISCNUMBER=%cdnumber%" -T "TOTALDISCS=%totalcds%" -T "TOTALTRACKS=%numtracks%" -T "COMMENT=EAC Secure Mode, Test & Copy, AccurateRip, FLAC -8" %source% -o %dest%


TOC of the extracted CD

Track | Start | Length | Start sector | End sector
––––––––––––––––––––––––––––-
1 | 0:00.00 | 4:11.48 | 0 | 18872
2 | 4:11.48 | 2:50.63 | 18873 | 31685
3 | 7:02.36 | 2:24.28 | 31686 | 42513
4 | 9:26.64 | 1:53.44 | 42514 | 51032
5 | 11:20.33 | 0:54.14 | 51033 | 55096
6 | 12:14.47 | 3:57.31 | 55097 | 72902
7 | 16:12.03 | 3:27.65 | 72903 | 88492
8 | 19:39.68 | 1:24.18 | 88493 | 94810
9 | 21:04.11 | 4:47.25 | 94811 | 116360
10 | 25:51.36 | 1:07.59 | 116361 | 121444
11 | 26:59.20 | 2:51.29 | 121445 | 134298
12 | 29:50.49 | 3:23.15 | 134299 | 149538
13 | 33:13.64 | 2:48.47 | 149539 | 162185
14 | 36:02.36 | 2:49.71 | 162186 | 174931
15 | 38:52.32 | 0:47.29 | 174932 | 178485
16 | 39:39.61 | 4:40.26 | 178486 | 199511
17 | 44:20.12 | 2:49.04 | 199512 | 212190
18 | 47:09.16 | 1:49.62 | 212191 | 220427
19 | 48:59.03 | 3:02.71 | 220428 | 234148
20 | 52:01.74 | 2:57.49 | 234149 | 247472
21 | 54:59.48 | 3:46.33 | 247473 | 264455
22 | 58:46.06 | 3:26.06 | 264456 | 279911
23 | 62:12.12 | 1:18.48 | 279912 | 285809
24 | 63:30.60 | 1:17.01 | 285810 | 291585
25 | 64:47.61 | 1:05.34 | 291586 | 296494
26 | 65:53.20 | 2:52.57 | 296495 | 309451
27 | 68:46.02 | 2:05.18 | 309452 | 318844
28 | 70:51.20 | 2:12.02 | 318845 | 328746


Track 1

Filename F:\DL\Jed Wentz, Musica Ad Rhenum - J. H. Roman Flute Sonatas CD2 (2015) [FLAC]\01 - Sonata IX in C major - 1. Cantabile.wav

Pre-gap length 0:00:02.00

Peak level 84.9 %
Extraction speed 4.6 X
Track quality 99.9 %
Test CRC 009428B3
Copy CRC 009428B3
Accurately ripped (confidence 2) [3FD58AE7] (AR v2)
Copy OK

Track 2

Filename F:\DL\Jed Wentz, Musica Ad Rhenum - J. H. Roman Flute Sonatas CD2 (2015) [FLAC]\02 - Sonata IX in C major - 2. Vivace.wav

Peak level 84.6 %
Extraction speed 5.4 X
Track quality 100.0 %
Test CRC 73779215
Copy CRC 73779215
Accurately ripped (confidence 2) [A087C47D] (AR v2)
Copy OK

Track 3

Filename F:\DL\Jed Wentz, Musica Ad Rhenum - J. H. Roman Flute Sonatas CD2 (2015) [FLAC]\03 - Sonata IX in C major - 3. Andante.wav

Peak level 77.2 %
Extraction speed 5.5 X
Track quality 100.0 %
Test CRC 18BF2ECA
Copy CRC 18BF2ECA
Accurately ripped (confidence 2) [32FD209D] (AR v2)
Copy OK

Track 4

Filename F:\DL\Jed Wentz, Musica Ad Rhenum - J. H. Roman Flute Sonatas CD2 (2015) [FLAC]\04 - Sonata IX in C major - 4. Allegro.wav

Peak level 73.7 %
Extraction speed 5.4 X
Track quality 100.0 %
Test CRC 885BA9BF
Copy CRC 885BA9BF
Accurately ripped (confidence 2) [54558E29] (AR v2)
Copy OK

Track 5

Filename F:\DL\Jed Wentz, Musica Ad Rhenum - J. H. Roman Flute Sonatas CD2 (2015) [FLAC]\05 - Sonata IX in C major - 5. Minuetto.wav

Peak level 51.0 %
Extraction speed 4.4 X
Track quality 100.0 %
Test CRC 03473FA6
Copy CRC 03473FA6
Accurately ripped (confidence 2) [7AF634E3] (AR v2)
Copy OK

Track 6

Filename F:\DL\Jed Wentz, Musica Ad Rhenum - J. H. Roman Flute Sonatas CD2 (2015) [FLAC]\06 - Sonata VIII in A major - 1. Largo.wav

Pre-gap length 0:00:04.62

Peak level 71.7 %
Extraction speed 6.5 X
Track quality 100.0 %
Test CRC FE1D6308
Copy CRC FE1D6308
Accurately ripped (confidence 2) [5AC24866] (AR v2)
Copy OK

Track 7

Filename F:\DL\Jed Wentz, Musica Ad Rhenum - J. H. Roman Flute Sonatas CD2 (2015) [FLAC]\07 - Sonata VIII in A major - 2. Allegro.wav

Peak level 74.3 %
Extraction speed 6.7 X
Track quality 100.0 %
Test CRC 98E53942
Copy CRC 98E53942
Accurately ripped (confidence 2) [D8848ED7] (AR v2)
Copy OK

Track 8

Filename F:\DL\Jed Wentz, Musica Ad Rhenum - J. H. Roman Flute Sonatas CD2 (2015) [FLAC]\08 - Sonata VIII in A major - 3. Andante.wav

Peak level 83.0 %
Extraction speed 5.7 X
Track quality 100.0 %
Test CRC 5D9F6789
Copy CRC 5D9F6789
Accurately ripped (confidence 2) [2254F21D] (AR v2)
Copy OK

Track 9

Filename F:\DL\Jed Wentz, Musica Ad Rhenum - J. H. Roman Flute Sonatas CD2 (2015) [FLAC]\09 - Sonata VIII in A major - 4. Adagio Allegro.wav

Peak level 65.6 %
Extraction speed 7.4 X
Track quality 100.0 %
Test CRC E65D4852
Copy CRC E65D4852
Accurately ripped (confidence 2) [215E6FE0] (AR v2)
Copy OK

Track 10

Filename F:\DL\Jed Wentz, Musica Ad Rhenum - J. H. Roman Flute Sonatas CD2 (2015) [FLAC]\10 - Sonata VIII in A major - 5. Allegro.wav

Peak level 63.7 %
Extraction speed 5.7 X
Track quality 100.0 %
Test CRC EA87CBA2
Copy CRC EA87CBA2
Accurately ripped (confidence 2) [1EFAD65B] (AR v2)
Copy OK

Track 11

Filename F:\DL\Jed Wentz, Musica Ad Rhenum - J. H. Roman Flute Sonatas CD2 (2015) [FLAC]\11 - Sonata X in E minor - 1. Larghetto.wav

Pre-gap length 0:00:04.06

Peak level 52.4 %
Extraction speed 7.3 X
Track quality 100.0 %
Test CRC DA5B06EA
Copy CRC DA5B06EA
Accurately ripped (confidence 2) [18158AC3] (AR v2)
Copy OK

Track 12

Filename F:\DL\Jed Wentz, Musica Ad Rhenum - J. H. Roman Flute Sonatas CD2 (2015) [FLAC]\12 - Sonata X in E minor - 2. Andante.wav

Peak level 59.2 %
Extraction speed 6.3 X
Track quality 99.9 %
Test CRC 1D08566E
Copy CRC 1D08566E
Accurately ripped (confidence 2) [E50FB58B] (AR v2)
Copy OK

Track 13

Filename F:\DL\Jed Wentz, Musica Ad Rhenum - J. H. Roman Flute Sonatas CD2 (2015) [FLAC]\13 - Sonata X in E minor - 3. Piva.wav

Peak level 49.3 %
Extraction speed 6.2 X
Track quality 99.9 %
Test CRC EC9C9126
Copy CRC EC9C9126
Accurately ripped (confidence 2) [7192A7BB] (AR v2)
Copy OK

Track 14

Filename F:\DL\Jed Wentz, Musica Ad Rhenum - J. H. Roman Flute Sonatas CD2 (2015) [FLAC]\14 - Sonata X in E minor - 4. Non Presto.wav

Peak level 85.0 %
Extraction speed 6.3 X
Track quality 99.9 %
Test CRC 5C4D0896
Copy CRC 5C4D0896
Accurately ripped (confidence 2) [EFC26831] (AR v2)
Copy OK

Track 15

Filename F:\DL\Jed Wentz, Musica Ad Rhenum - J. H. Roman Flute Sonatas CD2 (2015) [FLAC]\15 - Sonata X in E minor - 5. Villanella.wav

Peak level 42.0 %
Extraction speed 5.8 X
Track quality 100.0 %
Test CRC 2894AE49
Copy CRC 2894AE49
Accurately ripped (confidence 2) [50E739E2] (AR v2)
Copy OK

Track 16

Filename F:\DL\Jed Wentz, Musica Ad Rhenum - J. H. Roman Flute Sonatas CD2 (2015) [FLAC]\16 - Sonata I in G major - 1. Largo.wav

Pre-gap length 0:00:05.12

Peak level 74.9 %
Extraction speed 9.0 X
Track quality 100.0 %
Test CRC FCBEBEE5
Copy CRC FCBEBEE5
Accurately ripped (confidence 2) [6AADDA24] (AR v2)
Copy OK

Track 17

Filename F:\DL\Jed Wentz, Musica Ad Rhenum - J. H. Roman Flute Sonatas CD2 (2015) [FLAC]\17 - Sonata I in G major - 2. Allegro.wav

Peak level 72.5 %
Extraction speed 8.6 X
Track quality 100.0 %
Test CRC 89CFC823
Copy CRC 89CFC823
Accurately ripped (confidence 2) [14BC4282] (AR v2)
Copy OK

Track 18

Filename F:\DL\Jed Wentz, Musica Ad Rhenum - J. H. Roman Flute Sonatas CD2 (2015) [FLAC]\18 - Sonata I in G major - 3. Larghetto.wav

Peak level 66.6 %
Extraction speed 8.1 X
Track quality 100.0 %
Test CRC B4204A27
Copy CRC B4204A27
Accurately ripped (confidence 2) [105CD9CA] (AR v2)
Copy OK

Track 19

Filename F:\DL\Jed Wentz, Musica Ad Rhenum - J. H. Roman Flute Sonatas CD2 (2015) [FLAC]\19 - Sonata I in G major - 4. Andante.wav

Peak level 53.8 %
Extraction speed 7.3 X
Track quality 99.9 %
Test CRC 8CF2B8BB
Copy CRC 8CF2B8BB
Accurately ripped (confidence 2) [551B2DBF] (AR v2)
Copy OK

Track 20

Filename F:\DL\Jed Wentz, Musica Ad Rhenum - J. H. Roman Flute Sonatas CD2 (2015) [FLAC]\20 - Sonata I in G major - 5. Vivace.wav

Peak level 81.0 %
Extraction speed 9.2 X
Track quality 100.0 %
Test CRC D36CCD8F
Copy CRC D36CCD8F
Accurately ripped (confidence 2) [9B2C08EC] (AR v2)
Copy OK

Track 21

Filename F:\DL\Jed Wentz, Musica Ad Rhenum - J. H. Roman Flute Sonatas CD2 (2015) [FLAC]\21 - Sonata XI in G minor - 1. Largo.wav

Pre-gap length 0:00:06.04

Peak level 78.3 %
Extraction speed 9.5 X
Track quality 100.0 %
Test CRC D8BFA71A
Copy CRC D8BFA71A
Accurately ripped (confidence 2) [8A04D523] (AR v2)
Copy OK

Track 22

Filename F:\DL\Jed Wentz, Musica Ad Rhenum - J. H. Roman Flute Sonatas CD2 (2015) [FLAC]\22 - Sonata XI in G minor - 2. Allegro.wav

Peak level 77.7 %
Extraction speed 9.8 X
Track quality 100.0 %
Test CRC 67F89CCC
Copy CRC 67F89CCC
Accurately ripped (confidence 2) [51D5BB8B] (AR v2)
Copy OK

Track 23

Filename F:\DL\Jed Wentz, Musica Ad Rhenum - J. H. Roman Flute Sonatas CD2 (2015) [FLAC]\23 - Sonata XI in G minor - 3. Larghetto.wav

Peak level 50.3 %
Extraction speed 8.0 X
Track quality 100.0 %
Test CRC 918981FA
Copy CRC 918981FA
Accurately ripped (confidence 2) [DC854D46] (AR v2)
Copy OK

Track 24

Filename F:\DL\Jed Wentz, Musica Ad Rhenum - J. H. Roman Flute Sonatas CD2 (2015) [FLAC]\24 - Sonata XI in G minor - 4. Allegro.wav

Peak level 65.7 %
Extraction speed 5.2 X
Track quality 99.8 %
Test CRC 8BD113C8
Copy CRC 8BD113C8
Accurately ripped (confidence 2) [DD01553D] (AR v2)
Copy OK

Track 25

Filename F:\DL\Jed Wentz, Musica Ad Rhenum - J. H. Roman Flute Sonatas CD2 (2015) [FLAC]\25 - Sonata XII in D major - 1. Con Spirito.wav

Pre-gap length 0:00:05.13

Peak level 59.3 %
Extraction speed 7.7 X
Track quality 100.0 %
Test CRC 8BE7D63B
Copy CRC 8BE7D63B
Accurately ripped (confidence 2) [F13A2AB0] (AR v2)
Copy OK

Track 26

Filename F:\DL\Jed Wentz, Musica Ad Rhenum - J. H. Roman Flute Sonatas CD2 (2015) [FLAC]\26 - Sonata XII in D major - 2. Allegro.wav

Peak level 56.1 %
Extraction speed 9.3 X
Track quality 100.0 %
Test CRC 338001CF
Copy CRC 338001CF
Accurately ripped (confidence 2) [246FBB0F] (AR v2)
Copy OK

Track 27

Filename F:\DL\Jed Wentz, Musica Ad Rhenum - J. H. Roman Flute Sonatas CD2 (2015) [FLAC]\27 - Sonata XII in D major - 3. Con Affetto.wav

Peak level 82.9 %
Extraction speed 9.5 X
Track quality 100.0 %
Test CRC 818FCDD4
Copy CRC 818FCDD4
Accurately ripped (confidence 2) [FB3C4A52] (AR v2)
Copy OK

Track 28

Filename F:\DL\Jed Wentz, Musica Ad Rhenum - J. H. Roman Flute Sonatas CD2 (2015) [FLAC]\28 - Sonata XII in D major - 4. Allegro.wav

Peak level 57.5 %
Extraction speed 9.2 X
Track quality 100.0 %
Test CRC 08EEE03D
Copy CRC 08EEE03D
Accurately ripped (confidence 2) [058C9FB2] (AR v2)
Copy OK


All tracks accurately ripped

No errors occurred

End of status report

–– CUETools DB Plugin V2.1.6

[CTDB TOCID: 4gQFGnv9Lje8..e48ukYc6giMOc-] disk not present in database
Submit result: 4gQFGnv9Lje8..e48ukYc6giMOc- has been uploaded


==== Log checksum 6F5A164465F0B02987E381D4F87E44563ED3239A38B7BD3246D29138657B3BDC ====


Johan Helmich Roman (1694-1758) - 12 Sonatas for Flute and B.C. -  Jed Wentz & Musica ad Rhenum (2015) {2CD Brilliant Classics}


All thanks goes to the original releaser!


===