Subcategories

Jeff Buckley - In Transition (2019) [Vinyl Rip]

Posted By: delpotro
Jeff Buckley - In Transition (2019) [Vinyl Rip]

Jeff Buckley - In Transition (2019)
Vinyl Rip | FLAC (tracks) - 166 Mb | MP3 CBR 320 kbps - 85 Mb | 00:37:03
Folk Rock, Singer-Songwriter | Label: Legacy Recordings, Sony Music, Columbia Records

In Transition celebrates, with seven previously unreleased studio performances, the 25th anniversary of Grace, the sole studio album released by Jeff Buckley during his lifetime. Recorded during his first studio session for Columbia Records in 1993, In Transition, true to its name, paints a vivid picture of Buckley’s evolution from stripped-back live troubadour to worldly, captivating performer whose style inspired a generation. In Transition includes stunning early versions of original songs released on Grace (“Mojo Pin,” “Unforgiven aka Last Goodbye”) as well as unique interpretations of other people’s songs (Nina Simone’s “If You Knew,” an early rendition of Leonard Cohen’s “Hallelujah”), further underscoring the power of Buckley’s forever-enduring musical style.
Tracklist:
A1 Mojo Pin (Takes 1&2)
A2 Unforgiven aka Last Goodbye
A3 Strawberry Street
A4 Je N'en Connais Pas La Fin
B1 Hallelujah
B2 If You Knew
B3 Satisfied Mind

–––––––––––-

DON'T MODIFY THIS FILE

–––––––––––-

PERFORMER: auCDtect Task Manager, ver. 1.6.0 RC1 build 1.6.0.1
Copyright © 2008-2010 y-soft. All rights reserved

ANALYZER: auCDtect: CD records authenticity detector, version 0.8.2
Copyright © 2004 Oleg Berngardt. All rights reserved.
Copyright © 2004 Alexander Djourik. All rights reserved.


FILE: 07 - Satisfied Mind.flac
Size: 18898403 Hash: D4A5B39CA8D713D91F8464888C7E5A47 Accuracy: -m0
Conclusion: CDDA 100%
Signature: 64B2BC292F49CC9B7B99A16E3B3812CA57924D7C
FILE: 06 - If You Knew.flac
Size: 15419212 Hash: 30D17C07915CCB67D485C2D12F4E0B5B Accuracy: -m0
Conclusion: CDDA 100%
Signature: B04EA0D2A536D07077D9B5808B3E684B0632FDC1
FILE: 05 - Hallelujah.flac
Size: 32975452 Hash: 5AFDB498218BFE5DA56AA3359B11A644 Accuracy: -m0
Conclusion: CDDA 99%
Signature: 1940DDF64C28B59295B1FC8B13046914C7BDA3D2
FILE: 04 - Je N'en Connais Pas La Fin.flac
Size: 23660218 Hash: 6B00594656A6DF999710F7A3D9B42185 Accuracy: -m0
Conclusion: CDDA 100%
Signature: 3CEC402723A0CF2582CEA2B81E821157F96D1818
FILE: 03 - Strawberry Street.flac
Size: 28898151 Hash: B8B05E3EFC1D612652B46866F8B7AFDA Accuracy: -m0
Conclusion: CDDA 100%
Signature: C0787D02998CA50F675CB78CBF0000B189307247
FILE: 02 - Unforgiven aka Last Goodbye.flac
Size: 21568981 Hash: 6648773EB5BEF0F4BB3D31DD2F89A141 Accuracy: -m0
Conclusion: CDDA 100%
Signature: C3F010A0CAB7EBC89E6FF06331C5EA9897871460
FILE: 01 - Mojo Pin (takes 1 & 2).flac
Size: 32340566 Hash: 5DF19DCB25222021E1601F2BBF6C0EE1 Accuracy: -m0
Conclusion: CDDA 100%
Signature: C6CA858CF1E46658E131C50674FFE863BB72EEA7

foobar2000 1.3.17 / Dynamic Range Meter 1.1.1
log date: 2019-04-16 11:21:57

––––––––––––––––––––––––––––––––––––––––
Analyzed: Jeff Buckley / In Transition
––––––––––––––––––––––––––––––––––––––––

DR Peak RMS Duration Track
––––––––––––––––––––––––––––––––––––––––
DR15 -0.60 dB -22.67 dB 7:03 01-Mojo Pin (takes 1 & 2)
DR13 -0.11 dB -17.17 dB 4:11 02-Unforgiven aka Last Goodbye
DR13 -0.24 dB -18.74 dB 5:22 03-Strawberry Street
DR15 -4.19 dB -24.48 dB 5:25 04-Je N'en Connais Pas La Fin
DR14 -0.09 dB -21.03 dB 7:10 05-Hallelujah
DR13 -0.26 dB -20.42 dB 3:38 06-If You Knew
DR13 -1.10 dB -19.70 dB 4:15 07-Satisfied Mind
––––––––––––––––––––––––––––––––––––––––

Number of tracks: 7
Official DR value: DR14

Samplerate: 44100 Hz
Channels: 2
Bits per sample: 16
Bitrate: 590 kbps
Codec: FLAC
================================================================================


Ortofon 2M Bronze Cartridge -> Technics SL-1200MK2 Turntable ->
Denon PMA-720AE Stereo Amplifier -> Custom-made Cables -> AVID M Box 3 ->
Sound Forge 11 -> 96khz/24bit WAV -> foobar2000 -> FLAC 8 (tagging & artwork attached)
Manual click repair has been done when needed.
dBpoweramp DSP 24bit To 16bit With Triangular (TPDF) Dither
dBpoweramp DSP Resample To 44.1kHz

Thanks to the Original ripper jplaguna !