Subcategories

Jeff Scheetz - Pawn Shop (1997)

Posted By: KGmB
Jeff Scheetz - Pawn Shop (1997)

Jeff Scheetz - Pawn Shop (1997)
EAC Rip | FLAC, Tracks+CUE, LOG | 320 MB | MP3 CBR 320 Kbps | 108 MB | Complete Scans | 12 MB
Jazz-rock, fussion | Label: BAM-ZOOM! Records | Catalog Number: CD22212 | RAR 3% Rec. | RS.com, DF.com


Scheetz' third solo CD, Pawn Shop, covers a plethora of musical styles from blues to funk, rock to acoustic. Pawn Shop epitomizes instrumental guitar music, rocking hard with heart, soul and musical taste. Check out the screaming rock-and-wah improvisations in "Space Madness" and the smokin' gonzo blues guitar in "Coffeehouse Blues." Or the incredible sensitivity of the opening of "Lakota", which was inspired by different stages in the history of the Native American Indian. Pawn Shop is a 'complete' rock guitar album, in every sense of the word.

Tracklist:
01. Coffeehouse Blues
02. Pike
03. Soaring
04. Platform Shoes
05. Lakota
06. Legend
07. Return Of The Wolf
08. Uncle Glen Shuffle
09. Space Madness
10. Rock Of Ages

Personnel:
Jeff Scheetz: Guitar
Jim Riley: Drums
Ted Gardner: Organ
E. M. Pruitt: Bass
Brittany Scheetz: Clarinet

Exact Audio Copy V0.99 prebeta 4 from 23. January 2008

EAC extraction logfile from 8. August 2008, 15:46

Jeff Scheetz / Pawn Shop

Used drive : HL-DT-STRW/DVD GCC-4480B Adapter: 1 ID: 1

Read mode : Secure
Utilize accurate stream : Yes
Defeat audio cache : Yes
Make use of C2 pointers : No

Read offset correction : 116
Overread into Lead-In and Lead-Out : No
Fill up missing offset samples with silence : Yes
Delete leading and trailing silent blocks : No
Null samples used in CRC calculations : Yes
Used interface : Native Win32 interface for Win NT & 2000
Gap handling : Appended to previous track

Used output format : User Defined Encoder
Selected bitrate : 1024 kBit/s
Quality : High
Add ID3 tag : No
Command line compressor : C:\Program Files\Exact Audio Copy\FLAC\FLAC.EXE
Additional command line options : -8 -V -T "ARTIST=%a" -T "TITLE=%t" -T "ALBUM=%g" -T "DATE=%y" -T "TRACKNUMBER=%n" -T "GENRE=%m" -T "COMMENT=%e" %s -o %d


TOC of the extracted CD

Track | Start | Length | Start sector | End sector
––––––––––––––––––––––––––––-
1 | 0:00.00 | 4:43.32 | 0 | 21256
2 | 4:43.32 | 4:27.28 | 21257 | 41309
3 | 9:10.60 | 4:53.25 | 41310 | 63309
4 | 14:04.10 | 4:07.65 | 63310 | 81899
5 | 18:12.00 | 5:21.52 | 81900 | 106026
6 | 23:33.52 | 4:30.05 | 106027 | 126281
7 | 28:03.57 | 4:45.63 | 126282 | 147719
8 | 32:49.45 | 4:08.42 | 147720 | 166361
9 | 36:58.12 | 6:01.08 | 166362 | 193444
10 | 42:59.20 | 2:46.50 | 193445 | 205944


Track 1

Filename C:\Documents and Settings\martin schotman\Mijn documenten\Mijn muziek\Jeff Scheetz - Pawn Shop - 01. Coffehouse Blues .wav

Pre-gap length 0:00:02.00

Peak level 98.4 %
Track quality 100.0 %
Copy CRC 46461D4D
Copy OK

Track 2

Filename C:\Documents and Settings\martin schotman\Mijn documenten\Mijn muziek\Jeff Scheetz - Pawn Shop - 02. Pike .wav

Pre-gap length 0:00:01.73

Peak level 97.3 %
Track quality 100.0 %
Copy CRC F4B889BC
Copy OK

Track 3

Filename C:\Documents and Settings\martin schotman\Mijn documenten\Mijn muziek\Jeff Scheetz - Pawn Shop - 03. Soaring .wav

Pre-gap length 0:00:01.33

Peak level 98.1 %
Track quality 100.0 %
Copy CRC 51B36FB2
Copy OK

Track 4

Filename C:\Documents and Settings\martin schotman\Mijn documenten\Mijn muziek\Jeff Scheetz - Pawn Shop - 04. Platform Shoes .wav

Pre-gap length 0:00:01.93

Peak level 98.1 %
Track quality 100.0 %
Copy CRC A859364E
Copy OK

Track 5

Filename C:\Documents and Settings\martin schotman\Mijn documenten\Mijn muziek\Jeff Scheetz - Pawn Shop - 05. Lakota .wav

Peak level 99.4 %
Track quality 100.0 %
Copy CRC 5137EC4C
Copy OK

Track 6

Filename C:\Documents and Settings\martin schotman\Mijn documenten\Mijn muziek\Jeff Scheetz - Pawn Shop - 06. Legend .wav

Pre-gap length 0:00:01.73

Peak level 93.1 %
Track quality 100.0 %
Copy CRC 657AD293
Copy OK

Track 7

Filename C:\Documents and Settings\martin schotman\Mijn documenten\Mijn muziek\Jeff Scheetz - Pawn Shop - 07. Return Of The Wolf .wav

Pre-gap length 0:00:01.76

Peak level 97.2 %
Track quality 100.0 %
Copy CRC AED88558
Copy OK

Track 8

Filename C:\Documents and Settings\martin schotman\Mijn documenten\Mijn muziek\Jeff Scheetz - Pawn Shop - 08. Uncle Glen Shuffle .wav

Pre-gap length 0:00:02.06

Peak level 98.7 %
Track quality 100.0 %
Copy CRC 73CF1786
Copy OK

Track 9

Filename C:\Documents and Settings\martin schotman\Mijn documenten\Mijn muziek\Jeff Scheetz - Pawn Shop - 09. Space Madness .wav

Pre-gap length 0:00:02.13

Peak level 100.0 %
Track quality 100.0 %
Copy CRC B11421ED
Copy OK

Track 10

Filename C:\Documents and Settings\martin schotman\Mijn documenten\Mijn muziek\Jeff Scheetz - Pawn Shop - 10. Rock Of Ages .wav

Pre-gap length 0:00:02.50

Peak level 94.3 %
Track quality 100.0 %
Copy CRC 9E03DCF3
Copy OK

No errors occurred

End of status report


Download Rapidshare:

in Lossless
flac.part1 | flac.part2 | flac.part3 | flac.part4

MP3 lossy files
mp3.part1 | mp3.part2

Artwork
Covers

Download Depositfiles:
MP3 lossy files
mp3.part1 | mp3.part2

Artwork
Covers

Don't post mirrors, please