Subcategories

Jenny Scheinman - 12 Songs (2005)

Posted By: Domestos
Jenny Scheinman - 12 Songs (2005)

Jenny Scheinman - 12 Songs (2005)
EAC Rip | FLAC (tracks+.cue, log) ~ 309.53 Mb + 31.91 Mb (Scans) | 55:32
Modern Creative | Country: USA | Label: Cryptogramophone ‎– CG 125

No one can accuse violinist and composer Jenny Scheinman of promulgating any kind of jazz cliché, or even of fitting in especially well with the rest of the Cryptogramophone label's crew of off-kilter jazz experimentalists. Her obsession is with songs and with lyrics – neither of which appear on this paradoxically titled album. The 12 compositions here aren't actually songs, but are meant to feel like songs, by which Scheinman means that they're intended to be clear, straightforward, singable, and emotionally direct.

This they generally do achieve, but even when things get a bit opaque (as on the saucy and slightly goofy "Moe Hawk" and the meandering "Antenna") they're still emotionally compelling. On the album's finest moments, which include a tenderly beautiful composition titled "Sleeping in the Aquifer," which subtly evokes the old hymn "Abide with Me, 'Tis Eventide," a gorgeous violin-and-clarinets trio titled "Little Calypso," and the sweet and gentle "Albert," it really does feel as if Scheinman is sitting down and talking to you, or singing quietly into your ear. On the brilliant "Song of the Open Road," Scheinman and cornetist Ron Miles lock into a graceful waltz, while Bill Frisell's guitar churns away below with controlled ferocity and bassist Tim Luntzel thrums out an insistent pedal point. This kind of balance between directness, intensity, and complexity makes 12 Songs a more than usually impressive and compelling modern jazz album. Very highly recommended. ~ AllMusic Review by Rick Anderson

Jenny Scheinman - violin
Ron Miles - cornet
Doug Wieselman - clarinets
Bill Frisell - guitar
Rachelle Garniez - accordion, piano, claviola
Tim Luntzel - bass
Dan Rieser - drums

Track List:
1. The Frog Threw His Head Back and Laughed (for Jim Woodring) - 6:06
2. Song of The Open Road (for Walt Whitman) - 5:00
3. Moe Hawk - 6:33
4. Sleeping in the Aquifer (for Joan Penderel Taylor) - 3:16
5. The Bouy Song - 4:39
6. She Couldn't Believe it was True (for Nels and Carla) - 3:55
7. Suza - 5:23
8. Little Calypso - 2:57
9. Satelite - 2:04
10. Antenna - 7:32
11. Albert (for Albert Ayler) - 3:29
12. June 21 - 2:36

Jenny Scheinman - 12 Songs (2005)

Exact Audio Copy V0.99 prebeta 4 from 23. January 2008

EAC extraction logfile from 23. September 2008, 19:15

Jenny Scheinman / 12 Songs

Used drive : PLEXTOR DVDR PX-760A Adapter: 0 ID: 0

Read mode : Secure
Utilize accurate stream : Yes
Defeat audio cache : Yes
Make use of C2 pointers : No

Read offset correction : 30
Overread into Lead-In and Lead-Out : Yes
Fill up missing offset samples with silence : Yes
Delete leading and trailing silent blocks : No
Null samples used in CRC calculations : Yes
Used interface : Native Win32 interface for Win NT & 2000
Gap handling : Appended to previous track

Used output format : User Defined Encoder
Selected bitrate : 128 kBit/s
Quality : High
Add ID3 tag : No
Command line compressor : C:\Program Files\FLAC\flac.exe
Additional command line options : -8 -V -T "ARTIST=%a" -T "TITLE=%t" -T "ALBUM=%g" -T "DATE=%y" -T "TRACKNUMBER=%n" -T "GENRE=%m" -T "COMMENT=EAC FLAC -8" %s

TOC of the extracted CD

Track | Start | Length | Start sector | End sector
––––––––––––––––––––––––––––-
1 | 0:00.00 | 6:09.09 | 0 | 27683
2 | 6:09.09 | 5:00.67 | 27684 | 50250
3 | 11:10.01 | 6:36.69 | 50251 | 80019
4 | 17:46.70 | 3:16.07 | 80020 | 94726
5 | 21:03.02 | 4:39.46 | 94727 | 115697
6 | 25:42.48 | 3:58.73 | 115698 | 133620
7 | 29:41.46 | 5:23.46 | 133621 | 157891
8 | 35:05.17 | 2:59.63 | 157892 | 171379
9 | 38:05.05 | 1:56.44 | 171380 | 180123
10 | 40:01.49 | 7:31.19 | 180124 | 213967
11 | 47:32.68 | 3:27.33 | 213968 | 229525
12 | 51:00.26 | 4:32.07 | 229526 | 249932

Track 1

Filename H:\Jenny Scheinman - 12 Songs (2005) [FLAC]\01 - The Frog Threw His Head Back and Laughed.wav

Pre-gap length 0:00:02.00

Peak level 98.7 %
Track quality 100.0 %
Test CRC E371D7B8
Copy CRC E371D7B8
Track not present in AccurateRip database
Copy OK

Track 2

Filename H:\Jenny Scheinman - 12 Songs (2005) [FLAC]\02 - Song of The Open Road.wav

Peak level 98.7 %
Track quality 100.0 %
Test CRC 18AB6921
Copy CRC 18AB6921
Track not present in AccurateRip database
Copy OK

Track 3

Filename H:\Jenny Scheinman - 12 Songs (2005) [FLAC]\03 - Moe Hawk.wav

Peak level 98.7 %
Track quality 100.0 %
Test CRC 3D677048
Copy CRC 3D677048
Track not present in AccurateRip database
Copy OK

Track 4

Filename H:\Jenny Scheinman - 12 Songs (2005) [FLAC]\04 - Sleeping in the Aquifer.wav

Pre-gap length 0:00:01.54

Peak level 98.7 %
Track quality 100.0 %
Test CRC 44D0D158
Copy CRC 44D0D158
Track not present in AccurateRip database
Copy OK

Track 5

Filename H:\Jenny Scheinman - 12 Songs (2005) [FLAC]\05 - The Bouy Song.wav

Pre-gap length 0:00:01.56

Peak level 98.7 %
Track quality 100.0 %
Test CRC 3480D149
Copy CRC 3480D149
Track not present in AccurateRip database
Copy OK

Track 6

Filename H:\Jenny Scheinman - 12 Songs (2005) [FLAC]\06 - She Couldn't Beleive it was True.wav

Peak level 98.7 %
Track quality 100.0 %
Test CRC 61F20133
Copy CRC 61F20133
Track not present in AccurateRip database
Copy OK

Track 7

Filename H:\Jenny Scheinman - 12 Songs (2005) [FLAC]\07 - Suza.wav

Peak level 98.7 %
Track quality 100.0 %
Test CRC 04D58195
Copy CRC 04D58195
Track not present in AccurateRip database
Copy OK

Track 8

Filename H:\Jenny Scheinman - 12 Songs (2005) [FLAC]\08 - Little Calypso.wav

Pre-gap length 0:00:01.24

Peak level 98.7 %
Track quality 100.0 %
Test CRC 60C1FDE3
Copy CRC 60C1FDE3
Track not present in AccurateRip database
Copy OK

Track 9

Filename H:\Jenny Scheinman - 12 Songs (2005) [FLAC]\09 - Satelite.wav

Pre-gap length 0:00:01.72

Peak level 95.6 %
Track quality 100.0 %
Test CRC 439670CF
Copy CRC 439670CF
Track not present in AccurateRip database
Copy OK

Track 10

Filename H:\Jenny Scheinman - 12 Songs (2005) [FLAC]\10 - Antenna.wav

Peak level 98.7 %
Track quality 99.9 %
Test CRC 6B35D527
Copy CRC 6B35D527
Track not present in AccurateRip database
Copy OK

Track 11

Filename H:\Jenny Scheinman - 12 Songs (2005) [FLAC]\11 - Albert.wav

Peak level 98.7 %
Track quality 100.0 %
Test CRC D861AFEA
Copy CRC D861AFEA
Track not present in AccurateRip database
Copy OK

Track 12

Filename H:\Jenny Scheinman - 12 Songs (2005) [FLAC]\12 - June 21.wav

Peak level 98.7 %
Track quality 100.0 %
Test CRC 4B72ABB7
Copy CRC 4B72ABB7
Track not present in AccurateRip database
Copy OK

None of the tracks are present in the AccurateRip database

No errors occurred

End of status report

All thanks go to the almouse

More Music in My Blog
Follow My RSS Channel