Subcategories

Jimmy Smith - Straight Life (2007) Repost

Posted By: SuniR
Jimmy Smith - Straight Life (2007) Repost

Jimmy Smith - Straight Life (2007)
EAC | FLAC (log,tracks+cue) -> 344 Mb (5% Rec.)
Mp3 CBR320 Kbps -> 135 Mb (5% Rec.) | Scans included
Jazz | Label: Blue Note, #:0946 3 85192 2 5 | 0:50:19

The tracks that make up Straight Life had been sitting in the Blue Note vaults since they were recorded on June 22, 1961, representing the only recorded output that year by Jimmy Smith and his trio of the era, which included guitarist Quentin Warren and drummer Donald Bailey. Somehow these ten songs got lost in the shuffle between the 1960 Blue Note date Crazy! Baby and Smith's leap into the national spotlight with his first Verve release, Bashin', in 1962. The trio swings along on six standards and three originals "Straight Life," "Jimmy's Blues," and two versions of "Minor Fare." Although not in the same league as Midnight Special or Prayer Meetin', it's great to hear this long lost hard bop session from the master of the Hammond B-3. –Al Campbell, AllMusic

Tracklist:

01. Straight Life 05:09
02. Stuffy (Coleman Hawkins) 05:09
03. Stardust (Hoagy Carmichael, Mitchell Parish) 06:03
04. Sweet Sue, Just You (Will Harris, V. Young) 04:52
05. Minor Fare 05:39
06. Swanee (Irving Caesar, George Gershwin) 02:28
07. Jimmy's Blues 05:43
08. Yes Sir, That's My Baby (Walter Donaldson, Gus Kahn) 04:59
09. Here's to My Lady (Rube Bloom, Johnny Mercer) 04:55
10. Minor Fare [prise alternative] 05:15

Musicians:
Drums – Donald Bailey
Guitar – Quentin Warren
Organ – Jimmy Smith

Recorded on June 22, 1961 at the Van Gelder Studio, Englewood Cliffs, NJ.


EAC extraction logfile from 17. January 2008, 13:14 for CD
Jimmy Smith / Straight Life

Used drive : HL-DT-STDVDRAM GSA-4163B Adapter: 1 ID: 1
Read mode : Secure with NO C2, accurate stream, disable cache
Read offset correction : 667
Overread into Lead-In and Lead-Out : No

Used output format : Internal WAV Routines
44.100 Hz; 16 Bit; Stereo

Other options :
Fill up missing offset samples with silence : Yes
Delete leading and trailing silent blocks : No
Installed external ASPI interface


Track 1
Filename D:\Jimmy Smith - Straight Life (1961)[FLAC]{Connoisseur}\01 - Straight Life.wav

Pre-gap length 0:00:02.00

Peak level 88.1 %
Track quality 100.0 %
Test CRC F5157342
Copy CRC F5157342
Copy OK

Track 2
Filename D:\Jimmy Smith - Straight Life (1961)[FLAC]{Connoisseur}\02 - Stuffy.wav

Pre-gap length 0:00:01.65

Peak level 88.1 %
Track quality 100.0 %
Test CRC 8940BD74
Copy CRC 8940BD74
Copy OK

Track 3
Filename D:\Jimmy Smith - Straight Life (1961)[FLAC]{Connoisseur}\03 - Star Dust.wav

Pre-gap length 0:00:02.30

Peak level 88.1 %
Track quality 99.9 %
Test CRC CB5B33BE
Copy CRC CB5B33BE
Copy OK

Track 4
Filename D:\Jimmy Smith - Straight Life (1961)[FLAC]{Connoisseur}\04 - Sweet Sue, Just You.wav

Pre-gap length 0:00:01.31

Peak level 88.1 %
Track quality 100.0 %
Test CRC AC2AC6CF
Copy CRC AC2AC6CF
Copy OK

Track 5
Filename D:\Jimmy Smith - Straight Life (1961)[FLAC]{Connoisseur}\05 - Minor Fare.wav

Pre-gap length 0:00:01.67

Peak level 88.1 %
Track quality 99.9 %
Test CRC C18B3346
Copy CRC C18B3346
Copy OK

Track 6
Filename D:\Jimmy Smith - Straight Life (1961)[FLAC]{Connoisseur}\06 - Swanee.wav

Pre-gap length 0:00:01.51

Peak level 88.1 %
Track quality 100.0 %
Test CRC A4823AAB
Copy CRC A4823AAB
Copy OK

Track 7
Filename D:\Jimmy Smith - Straight Life (1961)[FLAC]{Connoisseur}\07 - Jimmy's Blues.wav

Pre-gap length 0:00:01.44

Peak level 88.1 %
Track quality 99.9 %
Test CRC FB7ABF8C
Copy CRC FB7ABF8C
Copy OK

Track 8
Filename D:\Jimmy Smith - Straight Life (1961)[FLAC]{Connoisseur}\08 - Yes Sir, That's My Baby.wav

Pre-gap length 0:00:02.02

Peak level 88.1 %
Track quality 100.0 %
Test CRC B4F8799E
Copy CRC B4F8799E
Copy OK

Track 9
Filename D:\Jimmy Smith - Straight Life (1961)[FLAC]{Connoisseur}\09 - Here's To My Lady.wav

Pre-gap length 0:00:02.20

Peak level 88.1 %
Track quality 100.0 %
Test CRC C6EB39A0
Copy CRC C6EB39A0
Copy OK

Track 10
Filename D:\Jimmy Smith - Straight Life (1961)[FLAC]{Connoisseur}\10 - Minor Fare (Alternate Take).wav

Pre-gap length 0:00:02.33

Peak level 88.1 %
Track quality 100.0 %
Test CRC 8A0EDE9A
Copy CRC 8A0EDE9A
Copy OK

No errors occured


End of status report

foobar2000 1.3.6 / Dynamic Range Meter 1.1.1
log date: 2017-11-15 10:16:18

––––––––––––––––––––––––––––––––––––––––
Analyzed: Jimmy Smith / Straight Life
––––––––––––––––––––––––––––––––––––––––

DR Peak RMS Duration Track
––––––––––––––––––––––––––––––––––––––––
DR8 -1.09 dB -10.57 dB 5:10 01-Straight Life
DR8 -1.09 dB -11.09 dB 5:09 02-Stuffy
DR11 -1.09 dB -16.84 dB 6:04 03-Star Dust
DR9 -1.09 dB -13.34 dB 4:53 04-Sweet Sue, Just You
DR7 -1.09 dB -10.63 dB 5:40 05-Minor Fare
DR8 -1.09 dB -12.05 dB 2:29 06-Swanee
DR9 -1.10 dB -12.01 dB 5:43 07-Jimmy's Blues
DR9 -1.09 dB -14.19 dB 5:00 08-Yes Sir, That's My Baby
DR11 -1.09 dB -14.71 dB 4:56 09-Here's To My Lady
DR6 -1.09 dB -9.75 dB 5:15 10-Minor Fare (alt tk)
––––––––––––––––––––––––––––––––––––––––

Number of tracks: 10
Official DR value: DR9

Samplerate: 44100 Hz
Channels: 2
Bits per sample: 16
Bitrate: 930 kbps
Codec: FLAC
================================================================================

Thanks to the original releaser