Subcategories

Joan Osborne - Relish (1995) {Japanese Edition}

Posted By: stfine
Joan Osborne - Relish (1995) {Japanese Edition}

Joan Osborne - Relish (1995) {Japanese Edition}
EAC rip | FLAC image + cue + log + scans / MP3 320 kbps | 01:01:11 | 443 MB / 144 MB (3% rec.)
Rock, Singer-Songwriter | Label: Blue Gorilla / Mercury (Japan), PHCR-1388

"Relish", the first studio album by Joan Osborne, is a mixture of raw styles of contemporary folk, rock, and sometimes pop-rock sounds. Its biggest hit single, "One of Us", was nominated (toghether with the album) for multiple Grammies in 1996.

Tracklist

1. St. Teresa [05:21]
2. Man in the Long Black Coat (Bob Dylan) [04:50]
3. Right Hand Man (Osborne, Bazilian, Hyman, Chertoff, Don Van Vliet) [05:00]
4. Pensacola [04:31]
5. Dracula Moon [06:19]
6. One of Us [05:20]
7. Ladder [04:12]
8. Spider Web (Osborne, Chertoff, Gary Lucas, Sammy Merendino, Chris Palmaro) [05:32]
9. Let's Just Get Naked (Osborne, Bazilian) [05:09]
10. Help Me (Sonny Boy Williamson II, Ralph Bass) [05:15]
11. Crazy Baby [06:33]
12. Lumina (Osborne, Bazilian) [03:09]

Total time 01:01:11

Exact Audio Copy V0.99 prebeta 4 from 23. January 2008

EAC extraction logfile from 22. November 2010, 21:53

Joan Osborne / Relish

Used drive : ASUS DRW-1612BL Adapter: 0 ID: 0

Read mode : Secure
Utilize accurate stream : Yes
Defeat audio cache : Yes
Make use of C2 pointers : No

Read offset correction : 6
Overread into Lead-In and Lead-Out : No
Fill up missing offset samples with silence : Yes
Delete leading and trailing silent blocks : No
Null samples used in CRC calculations : Yes
Used interface : Installed external ASPI interface

Used output format : User Defined Encoder
Selected bitrate : 768 kBit/s
Quality : High
Add ID3 tag : No
Command line compressor : C:\Program Files (x86)\Exact Audio Copy\Flac\flac.exe
Additional command line options : -6 -V -T "ARTIST=%a" -T "TITLE=%t" -T "ALBUM=%g" -T "DATE=%y" -T "TRACKNUMBER=%n" -T "GENRE=%m" -T "COMMENT=%e" %s -o %d


TOC of the extracted CD

Track | Start | Length | Start sector | End sector
––––––––––––––––––––––––––––-
1 | 0:00.37 | 5:21.65 | 37 | 24176
2 | 5:22.27 | 4:50.43 | 24177 | 45969
3 | 10:12.70 | 5:00.50 | 45970 | 68519
4 | 15:13.45 | 4:31.52 | 68520 | 88896
5 | 19:45.22 | 6:19.50 | 88897 | 117371
6 | 26:04.72 | 5:20.50 | 117372 | 141421
7 | 31:25.47 | 4:12.68 | 141422 | 160389
8 | 35:38.40 | 5:32.35 | 160390 | 185324
9 | 41:11.00 | 5:09.60 | 185325 | 208559
10 | 46:20.60 | 5:15.40 | 208560 | 232224
11 | 51:36.25 | 6:33.35 | 232225 | 261734
12 | 58:09.60 | 3:08.65 | 261735 | 275899


Range status and errors

Selected range

Filename E:\My Doom\Joan Osborne - Relish.wav

Peak level 100.0 %
Range quality 100.0 %
Test CRC 3C22648C
Copy CRC 3C22648C
Copy OK

No errors occurred


AccurateRip summary

Track 1 accurately ripped (confidence 1) [3CA45183]
Track 2 accurately ripped (confidence 1) [F40F8AA6]
Track 3 accurately ripped (confidence 1) [C952B171]
Track 4 accurately ripped (confidence 1) [2607C237]
Track 5 accurately ripped (confidence 1) [122FC842]
Track 6 accurately ripped (confidence 1) [04D76E70]
Track 7 accurately ripped (confidence 1) [6BBB699D]
Track 8 accurately ripped (confidence 1) [AF922D57]
Track 9 accurately ripped (confidence 1) [63B0F29C]
Track 10 accurately ripped (confidence 1) [472E21F3]
Track 11 accurately ripped (confidence 1) [8748F937]
Track 12 accurately ripped (confidence 1) [EFF6B3A6]

All tracks accurately ripped

End of status report

Main personnel:
* Joan Osborne – vocals, percussion, acoustic guitar
* Eric Bazilian – guitar, mandolin, chant, saxophone, harmonica, electric piano
* Mark Egan – bass
* Rob Hyman – piano, organ, synthesizer, Mellotron, backing vocals, drums on 6
* Andy Kravitz – drums, percussion

Joan Osborne - Relish (1995) {Japanese Edition}

Joan Osborne - Relish (1995) {Japanese Edition}