Subcategories

Joe Pass - What Is There to Say (1990/2001)

Posted By: Domestos
Joe Pass - What Is There to Say (1990/2001)

Joe Pass - What Is There to Say (1990/2001)
EAC Rip | FLAC (tracks+.cue, log) ~ 255.43 Mb | 59:42 | Covers
Bop | Country: USA | Label: Pablo Records - PACD-2310-971-2

Joe Pass was pretty much the undisputed king of jazz guitar during the last two decades of his life, and the appearance of yet one more set of previously unreleased material is cause for celebration. These unaccompanied performances come from a two-day engagement in 1990 at the Vine Street Bar & Grill in Hollywood, with the guitarist in fine form throughout, (though liner note writer Jim Ferguson notes a "surprise" chord by Pass in frustration at having missed a note near the end of "What Is There to Say?").

He was not one to rely on set arrangements but excelled in risk-taking improvisations, as is proven right away with the sensational opening version of John Lewis' "Django." Pass inserts some fast runs into the loping ballad "Old Folks" and another favorite, "I'll Be Around." All of the other songs also come from the Great American Songbook, with the possible exception of the lesser-known "It's All in the Game," though it serves as more of a brief detour to start a medley with Jerome Kern's timeless "Yesterdays." This solo outing ranks with any of the earlier Virtuoso series or solo live concerts that Pass recorded for Pablo during his long tenure with the label; fans of jazz guitar should consider this release an essential acquisition. ~ AllMusic Review by Ken Dryden

Track List:
01. Django (Lewis) - 5:02
02. Old Folks (Robison-Hill) - 4:14
03. I Concentrate on You (Porter) - 4:04
04. I'll Be Around (Wilder) - 5:01
05. They Can't Take That Away from Me (Gershwin-Gershwin) - 4:02
06. Medley: It's All in the Game (Sigman-Dawes)/Yesterdays (Harbach-Kern) - 6:29
07. Come Rain or Come Shine (Arlen-Mercer) - 4:30
08. On Green Dolphin Street (Kaper-Washington) - 7:02
09. What Is There to Say (Duke-Harburg) - 6:45
10. Nobody Else But Me (Hammerstein-Kern) - 5:17
11. Lush Life (Strayhorn) - 7:16

Joe Pass - electric guitar

Recorded live at Vine Street Bar & Grill, Hollywood, CA on September 13-14, 1990.

Joe Pass - What Is There to Say (1990/2001)

Exact Audio Copy V1.3 from 2. September 2016

EAC extraction logfile from 9. April 2018, 13:43

Joe Pass / What Is There to Say

Used drive : Memorex MRX-650LE v7 Adapter: 1 ID: 0

Read mode : Secure
Utilize accurate stream : Yes
Defeat audio cache : Yes
Make use of C2 pointers : No

Read offset correction : 6
Overread into Lead-In and Lead-Out : No
Fill up missing offset samples with silence : Yes
Delete leading and trailing silent blocks : No
Null samples used in CRC calculations : Yes
Used interface : Native Win32 interface for Win NT & 2000
Gap handling : Appended to previous track

Used output format : User Defined Encoder
Selected bitrate : 1024 kBit/s
Quality : High
Add ID3 tag : No
Command line compressor : C:\Program Files (x86)\Exact Audio Copy\FLAC\FLAC.EXE
Additional command line options : -8 -e -p -V -T "ARTIST=%artist%" -T "TITLE=%title%" -T "ALBUM=%albumtitle%" -T "DATE=%year%" -T "TRACKNUMBER=%tracknr%" -T "GENRE=%genre%" -T "PERFORMER=%albuminterpret%" -T "COMPOSER=%composer%" %haslyrics%–tag-from-file=LYRICS="%lyricsfile%"%haslyrics% -T "ALBUMARTIST=%albumartist%" -T "DISCNUMBER=%cdnumber%" -T "TOTALDISCS=%totalcds%" -T "TOTALTRACKS=%numtracks%" -T "COMMENT=%comment%" %source% -o %dest%

TOC of the extracted CD

Track | Start | Length | Start sector | End sector
––––––––––––––––––––––––––––-
1 | 0:00.00 | 5:02.35 | 0 | 22684
2 | 5:02.35 | 4:13.67 | 22685 | 41726
3 | 9:16.27 | 4:04.20 | 41727 | 60046
4 | 13:20.47 | 5:01.28 | 60047 | 82649
5 | 18:22.00 | 4:02.32 | 82650 | 100831
6 | 22:24.32 | 6:29.23 | 100832 | 130029
7 | 28:53.55 | 4:30.07 | 130030 | 150286
8 | 33:23.62 | 7:01.63 | 150287 | 181924
9 | 40:25.50 | 6:44.47 | 181925 | 212271
10 | 47:10.22 | 5:17.33 | 212272 | 236079
11 | 52:27.55 | 7:15.40 | 236080 | 268744

Track 1

Filename E:\01Music\Joe Pass - What Is There To Say (2001) [FLAC]\01 Django.wav

Pre-gap length 0:00:02.00

Peak level 94.7 %
Extraction speed 2.4 X
Track quality 99.9 %
Test CRC DFF1F2AE
Copy CRC DFF1F2AE
Accurately ripped (confidence 8) [C25B56C8] (AR v2)
Copy OK

Track 2

Filename E:\01Music\Joe Pass - What Is There To Say (2001) [FLAC]\02 Old Folks.wav

Peak level 98.5 %
Extraction speed 3.0 X
Track quality 100.0 %
Test CRC 5D904034
Copy CRC 5D904034
Accurately ripped (confidence 8) [A454DE6B] (AR v2)
Copy OK

Track 3

Filename E:\01Music\Joe Pass - What Is There To Say (2001) [FLAC]\03 I Concentrate On You.wav

Peak level 98.4 %
Extraction speed 3.3 X
Track quality 100.0 %
Test CRC 09596810
Copy CRC 09596810
Accurately ripped (confidence 8) [3AC0D714] (AR v2)
Copy OK

Track 4

Filename E:\01Music\Joe Pass - What Is There To Say (2001) [FLAC]\04 I'll Be Around.wav

Peak level 95.9 %
Extraction speed 3.7 X
Track quality 100.0 %
Test CRC 61A978ED
Copy CRC 61A978ED
Accurately ripped (confidence 8) [79154044] (AR v2)
Copy OK

Track 5

Filename E:\01Music\Joe Pass - What Is There To Say (2001) [FLAC]\05 They Can't Take That Away From Me.wav

Peak level 98.4 %
Extraction speed 3.9 X
Track quality 100.0 %
Test CRC 424F7FD3
Copy CRC 424F7FD3
Accurately ripped (confidence 8) [0551639D] (AR v2)
Copy OK

Track 6

Filename E:\01Music\Joe Pass - What Is There To Say (2001) [FLAC]\06 Medley- It's All in the Game - Yesterdays.wav

Peak level 93.2 %
Extraction speed 4.3 X
Track quality 100.0 %
Test CRC 2E6CC1A4
Copy CRC 2E6CC1A4
Accurately ripped (confidence 8) [3FFA09BF] (AR v2)
Copy OK

Track 7

Filename E:\01Music\Joe Pass - What Is There To Say (2001) [FLAC]\07 Come Rain or Come Shine.wav

Peak level 98.5 %
Extraction speed 4.4 X
Track quality 100.0 %
Test CRC 9E8A6655
Copy CRC 9E8A6655
Accurately ripped (confidence 8) [3C8C5180] (AR v2)
Copy OK

Track 8

Filename E:\01Music\Joe Pass - What Is There To Say (2001) [FLAC]\08 On Green Dolphin Street.wav

Peak level 98.7 %
Extraction speed 4.9 X
Track quality 100.0 %
Test CRC 9ECD6431
Copy CRC 9ECD6431
Accurately ripped (confidence 8) [6E0B2499] (AR v2)
Copy OK

Track 9

Filename E:\01Music\Joe Pass - What Is There To Say (2001) [FLAC]\09 What Is There to Say.wav

Peak level 98.5 %
Extraction speed 5.2 X
Track quality 100.0 %
Test CRC 79058F4C
Copy CRC 79058F4C
Accurately ripped (confidence 8) [CBBB3B4A] (AR v2)
Copy OK

Track 10

Filename E:\01Music\Joe Pass - What Is There To Say (2001) [FLAC]\10 Nobody Else But Me.wav

Peak level 97.6 %
Extraction speed 5.3 X
Track quality 100.0 %
Test CRC F566D0B2
Copy CRC F566D0B2
Accurately ripped (confidence 8) [2D90348E] (AR v2)
Copy OK

Track 11

Filename E:\01Music\Joe Pass - What Is There To Say (2001) [FLAC]\11 Lush Life.wav

Peak level 95.8 %
Extraction speed 5.7 X
Track quality 100.0 %
Test CRC 375EDD9C
Copy CRC 375EDD9C
Accurately ripped (confidence 8) [C0A6CC22] (AR v2)
Copy OK

All tracks accurately ripped

No errors occurred

End of status report

–– CUETools DB Plugin V2.1.6

[CTDB TOCID: TFUGa4fdJJFLrl0FSz.MTN8XH3g-] found
Submit result: TFUGa4fdJJFLrl0FSz.MTN8XH3g- has been confirmed
Track | CTDB Status
1 | (6/6) Accurately ripped
2 | (6/6) Accurately ripped
3 | (5/6) Accurately ripped
4 | (5/6) Accurately ripped
5 | (6/6) Accurately ripped
6 | (6/6) Accurately ripped
7 | (6/6) Accurately ripped
8 | (5/6) Accurately ripped
9 | (6/6) Accurately ripped
10 | (5/6) Accurately ripped
11 | (6/6) Accurately ripped

==== Log checksum 49A4F92A714FBA971D1A80B0691F6906CC5DC6D617AAFD6D519C54589DC9C48B ====

All thanks go to the dokuz

More Music in My Blog
Follow My RSS Channel