Subcategories

Joe Locke - Moment To Moment (1995) {Milestone MCD-9243-2}

Posted By: ruskaval
Joe Locke - Moment To Moment (1995) {Milestone MCD-9243-2}

Joe Locke - Moment To Moment (1995) {Milestone MCD-9243-2}
EAC rip (secure mode) | FLAC (tracks)+CUE+LOG -> 301 Mb | MP3 @320 -> 131 Mb
Full Artwork @ 300 dpi (jpg) -> 16 Mb | 5% repair rar
© 1995 Milestone / Videoarts | MCD-9243-2
Jazz / Post Bop / Hard Bop / Vibes

Vibraphonist Joe Locke offers a fresh look at works by Henry Mancini on this release, as he leads a powerhouse quartet that includes pianist Billy Childs, bassist Eddie Gomez, and drummer Gene Jackson. His dramatic and spacious treatment of one of Mancini's most beloved works, "Moon River," gives the oft-recorded song a very new sound, while another frequently played number, "Days of Wine and Roses," begins with a dreamy introduction before progressing into a head-shaking hard bop arrangement.

"Charade" is another well-loved movie theme that gets a thorough revamping; in Billy Childs' chart the piano alternates between a swirling line that contrasts with the leader as he plays its theme with a straight-ahead bop segment. But the group is not content just to stick to Mancini's best-known songs; "Loss of Love" is a straight-ahead ballad nailed on the first take, while "Whistling Away the Dark" showcases Eddie Gomez's lovely arco bass. When one combines great compositions and inventive, talented musicians such as the member of the Joe Locke Quartet, the results have to be highly recommended.

Musicians
Vibes Joe Locke
Piano Billy Childs
Drums Gene Jackson
Bass Eddie Gomez

tracklist:
01 Slow Hot Wind 07:30
02 Moon River 06:43
03 Moment To Moment 06:43
04 Whistling Away The Dark 03:37
05 Charade 06:22
06 Loss Of Love 07:27
07 Days Of Wine And Roses 06:29
08 Two For The Road 05:38
09 Dreamsville 05:46

Exact Audio Copy V1.0 beta 1 from 15. November 2010

EAC extraction logfile from 25. June 2011, 20:22

Joe Locke / Moment To Moment

Used drive : TSSTcorpCDDVDW SH-S203N Adapter: 0 ID: 2

Read mode : Secure
Utilize accurate stream : Yes
Defeat audio cache : Yes
Make use of C2 pointers : No

Read offset correction : 6
Overread into Lead-In and Lead-Out : No
Fill up missing offset samples with silence : Yes
Delete leading and trailing silent blocks : No
Null samples used in CRC calculations : Yes
Used interface : Installed external ASPI interface
Gap handling : Appended to previous track

Used output format : User Defined Encoder
Selected bitrate : 768 kBit/s
Quality : High
Add ID3 tag : No
Command line compressor : C:\Program Files\Exact Audio Copy-NEW\Flac\flac.exe
Additional command line options : -8 -V -T "ARTIST=%a" -T "TITLE=%t" -T "ALBUM=%g" -T "DATE=%y" -T "TRACKNUMBER=%n" -T "TOTALTRACKS=%x" -T "GENRE=%m" -T "ALBUMARTIST=%v" -T "ALBUM ARTIST=%v" -T "COMMENT=EAC V1.01b1, Secure Mode, Test & Copy, AccurateRip, FL


TOC of the extracted CD

Track | Start | Length | Start sector | End sector
––––––––––––––––––––––––––––-
1 | 0:00.00 | 7:32.47 | 0 | 33946
2 | 7:32.47 | 6:47.33 | 33947 | 64504
3 | 14:20.05 | 6:48.02 | 64505 | 95106
4 | 21:08.07 | 3:39.08 | 95107 | 111539
5 | 24:47.15 | 6:27.02 | 111540 | 140566
6 | 31:14.17 | 7:31.05 | 140567 | 174396
7 | 38:45.22 | 6:32.58 | 174397 | 203854
8 | 45:18.05 | 5:44.55 | 203855 | 229709
9 | 51:02.60 | 5:47.52 | 229710 | 255786


Track 1

Filename J:\New Rips\Joe Locke - Moment To Moment (1995) [FLAC]\01 - Slow Hot Wind.wav

Pre-gap length 0:00:02.00

Peak level 99.8 %
Extraction speed 4.8 X
Track quality 99.9 %
Test CRC 48F95A8D
Copy CRC 48F95A8D
Accurately ripped (confidence 2) [F6E58986]
Copy OK

Track 2

Filename J:\New Rips\Joe Locke - Moment To Moment (1995) [FLAC]\02 - Moon River.wav

Pre-gap length 0:00:01.40

Peak level 92.6 %
Extraction speed 5.4 X
Track quality 99.9 %
Test CRC 2798E545
Copy CRC 2798E545
Accurately ripped (confidence 2) [ADF10D1B]
Copy OK

Track 3

Filename J:\New Rips\Joe Locke - Moment To Moment (1995) [FLAC]\03 - Moment To Moment.wav

Pre-gap length 0:00:01.43

Peak level 99.9 %
Extraction speed 6.8 X
Track quality 100.0 %
Test CRC 3B97E82E
Copy CRC 3B97E82E
Accurately ripped (confidence 2) [32D352B8]
Copy OK

Track 4

Filename J:\New Rips\Joe Locke - Moment To Moment (1995) [FLAC]\04 - Whistling Away The Dark.wav

Pre-gap length 0:00:03.70

Peak level 83.7 %
Extraction speed 6.2 X
Track quality 100.0 %
Test CRC 61EDA6EF
Copy CRC 61EDA6EF
Accurately ripped (confidence 2) [F993B2D8]
Copy OK

Track 5

Filename J:\New Rips\Joe Locke - Moment To Moment (1995) [FLAC]\05 - Charad.wav

Pre-gap length 0:00:02.28

Peak level 99.9 %
Extraction speed 6.8 X
Track quality 100.0 %
Test CRC BB086B01
Copy CRC BB086B01
Accurately ripped (confidence 2) [8105F837]
Copy OK

Track 6

Filename J:\New Rips\Joe Locke - Moment To Moment (1995) [FLAC]\06 - Loss Of Love.wav

Pre-gap length 0:00:01.57

Peak level 73.6 %
Extraction speed 7.6 X
Track quality 100.0 %
Test CRC DE0D7FA1
Copy CRC DE0D7FA1
Accurately ripped (confidence 2) [4475A23B]
Copy OK

Track 7

Filename J:\New Rips\Joe Locke - Moment To Moment (1995) [FLAC]\07 - The Days Of Wine And Roses.wav

Pre-gap length 0:00:03.12

Peak level 94.9 %
Extraction speed 7.0 X
Track quality 100.0 %
Test CRC 0B2FCC92
Copy CRC 0B2FCC92
Accurately ripped (confidence 2) [35218A7C]
Copy OK

Track 8

Filename J:\New Rips\Joe Locke - Moment To Moment (1995) [FLAC]\08 - Two For The Road.wav

Pre-gap length 0:00:02.23

Peak level 99.6 %
Extraction speed 9.0 X
Track quality 100.0 %
Test CRC 62875F2D
Copy CRC 62875F2D
Accurately ripped (confidence 2) [507FD344]
Copy OK

Track 9

Filename J:\New Rips\Joe Locke - Moment To Moment (1995) [FLAC]\09 - Dreamsville.wav

Pre-gap length 0:00:02.13

Peak level 95.5 %
Extraction speed 7.5 X
Track quality 99.9 %
Test CRC 96AEA6EA
Copy CRC 96AEA6EA
Accurately ripped (confidence 2) [42B2CC77]
Copy OK


All tracks accurately ripped

No errors occurred

End of status report

==== Log checksum 1A59AEDEBDE9472FE87C45953181431CE8A1E3191FA30DA1DCD60660DCE95C40 ====


Joe Locke - Moment To Moment (1995) {Milestone MCD-9243-2}

Joe Locke - Moment To Moment (1995) {Milestone MCD-9243-2}



===