Subcategories

Joe Lovano - Folk Art (2009) {Blue Note}

Posted By: ruskaval
Joe Lovano - Folk Art (2009) {Blue Note}

Joe Lovano - Folk Art (2009) {Blue Note}
EAC rip (secure mode) | FLAC+CUE+LOG -> 390 Mb | MP3 @320 -> 146 Mb
Full Artwork @ 300 dpi (jpg) -> 12 Mb
© 2009 EMI / Blue Note | 0946 3 91528 2 7
Jazz / Post Bop / Hard Bop / Saxophone


Joe Lovano - Folk Art (2009) {Blue Note}

Big-toned tenor saxophonist Joe Lovano is a truly unpredictable talent, constantly pushing into new directions and contexts for his playing. On FOLK ART, his 21st recording for Blue Note and first album of entirely original material, Lovano debuts a new band, Us Five. With two drummers, Lovano can utilize and explore both funk and Afro-Cuban rhythms and work them into a context that includes hard bop and the post-John Coltrane era innovations. Simply put, this is a powerful, rhythm-charged session where leader and band push the envelope without leaving the audience behind.
tracklist:
1. Powerhouse
2. Folk Art
3. Wild Beauty
4. Us Five
5. Song For Judi
6. Drum Song
7. Dibango
8. Page 4
9. Ettenro

Joe Lovano - Folk Art (2009) {Blue Note}

Exact Audio Copy V0.99 prebeta 5 from 4. May 2009

EAC extraction logfile from 23. December 2009, 19:46

Joe Lovano / Folk Art

Used drive : TSSTcorpCD/DVDW TS-H552L Adapter: 3 ID: 0

Read mode : Secure
Utilize accurate stream : Yes
Defeat audio cache : Yes
Make use of C2 pointers : No

Read offset correction : 6
Overread into Lead-In and Lead-Out : No
Fill up missing offset samples with silence : Yes
Delete leading and trailing silent blocks : No
Null samples used in CRC calculations : Yes
Used interface : Native Win32 interface for Win NT & 2000
Gap handling : Appended to previous track

Used output format : User Defined Encoder
Selected bitrate : 1024 kBit/s
Quality : High
Add ID3 tag : No
Command line compressor : C:\Program Files\FLAC\flac.exe
Additional command line options : -6 -V -T "ARTIST=%a" -T "TITLE=%t" -T "ALBUM=%g" -T "DATE=%y" -T "TRACKNUMBER=%n" -T "GENRE=%m" -T "COMMENT=EAC FLAC -6" %s


TOC of the extracted CD

Track | Start | Length | Start sector | End sector
––––––––––––––––––––––––––––-
1 | 0:00.00 | 4:04.70 | 0 | 18369
2 | 4:04.70 | 10:06.48 | 18370 | 63867
3 | 14:11.43 | 7:17.54 | 63868 | 96696
4 | 21:29.22 | 8:09.67 | 96697 | 133438
5 | 29:39.14 | 5:46.12 | 133439 | 159400
6 | 35:25.26 | 8:30.53 | 159401 | 197703
7 | 43:56.04 | 6:44.10 | 197704 | 228013
8 | 50:40.14 | 5:52.51 | 228014 | 254464
9 | 56:32.65 | 8:12.17 | 254465 | 291381


Track 1

Filename C:\Joe Lovano - Folk Art (2009) {Blue Note}\01 - Powerhouse.wav

Pre-gap length 0:00:02.00

Peak level 99.8 %
Track quality 100.0 %
Test CRC 467AEA79
Copy CRC 467AEA79
Accurately ripped (confidence 3) [97B40200]
Copy OK

Track 2

Filename C:\Joe Lovano - Folk Art (2009) {Blue Note}\02 - Folk Art.wav

Peak level 99.8 %
Track quality 100.0 %
Test CRC 11C8BF89
Copy CRC 11C8BF89
Accurately ripped (confidence 3) [89466ED0]
Copy OK

Track 3

Filename C:\Joe Lovano - Folk Art (2009) {Blue Note}\03 - Wild Beauty.wav

Pre-gap length 0:00:00.66

Peak level 99.8 %
Track quality 100.0 %
Test CRC BB7F0CD2
Copy CRC BB7F0CD2
Accurately ripped (confidence 3) [E46ACD28]
Copy OK

Track 4

Filename C:\Joe Lovano - Folk Art (2009) {Blue Note}\04 - Us Five.wav

Peak level 99.8 %
Track quality 100.0 %
Test CRC 07DBA4EA
Copy CRC 07DBA4EA
Accurately ripped (confidence 3) [ED51F7AE]
Copy OK

Track 5

Filename C:\Joe Lovano - Folk Art (2009) {Blue Note}\05 - Song For Judi.wav

Peak level 86.0 %
Track quality 100.0 %
Test CRC 91CCF190
Copy CRC 91CCF190
Accurately ripped (confidence 3) [0857186C]
Copy OK

Track 6

Filename C:\Joe Lovano - Folk Art (2009) {Blue Note}\06 - Drum Song.wav

Peak level 99.8 %
Track quality 99.9 %
Test CRC 361A8D62
Copy CRC 361A8D62
Accurately ripped (confidence 3) [492A6C88]
Copy OK

Track 7

Filename C:\Joe Lovano - Folk Art (2009) {Blue Note}\07 - Dibango.wav

Peak level 99.8 %
Track quality 99.9 %
Test CRC 4034020E
Copy CRC 4034020E
Accurately ripped (confidence 3) [83EC3D06]
Copy OK

Track 8

Filename C:\Joe Lovano - Folk Art (2009) {Blue Note}\08 - Page 4.wav

Peak level 99.8 %
Track quality 100.0 %
Test CRC CA03A166
Copy CRC CA03A166
Accurately ripped (confidence 3) [FFA3EBE4]
Copy OK

Track 9

Filename C:\Joe Lovano - Folk Art (2009) {Blue Note}\09 - Ettenro.wav

Peak level 99.8 %
Track quality 100.0 %
Test CRC 14A947F7
Copy CRC 14A947F7
Accurately ripped (confidence 3) [F95D27E9]
Copy OK


All tracks accurately ripped

No errors occurred

End of status report

FileSonic Linkz

or

FileServe Linkz

p.s. the files are interchangeable…

pass: ruskaval

No Mirror, plz!