Subcategories

John Coltrane - Concert In Japan (1966) {Impulse!-Verve Originals B0015955-02 rel 2011}

Posted By: ruskaval
John Coltrane - Concert In Japan (1966) {Impulse!-Verve Originals B0015955-02 rel 2011}

John Coltrane - Concert In Japan (1966) {Impulse!-Verve Originals B0015955-02 rel 2011}
EAC rip (secure mode) | FLAC (tracks)+CUE+LOG -> 418 Mb | MP3 @320 -> 170 Mb
Full Artwork @ 600 dpi (png) -> 151 Mb | 5% repair rar
© 1966, 2011 Impulse! / Verve / UMG | Verve Originals Series | B0015955-02 | LP AS-9246-2
Jazz / Avant-Garde Jazz / Modal Music / Free Jazz / Saxophone

This single-disc Concert in Japan by John Coltrane's 1966 quintet is a reissue of the original double LP that was released as IMR 9036C in 1973. Its three selections include two long instrumental pieces and a spoken introduction of the musicians in Japanese. These performances are compiled from two Tokyo dates. This set is not to be confused with the four-disc document that includes both Tokyo concerts in their entirety. The band here performs a 25-minute "Peace on Earth," a ballad that Coltrane wrote especially for the tour, to express his empathy and sympathy for the nuclear destruction Japan experienced during WWII. The tune moves outside, but stays well within the realm of spiritual boundary-pushing that the band was easily capable of.

Alice Coltrane's piano (she is introduced as "Alice McLeod" by the announcer at the beginning of the recording) is utterly lovely and keeps both Coltrane's and Pharoah Sanders' (who plays an alto on this tune) solos in check. Drummer Rashied Ali and bassist Jimmy Garrison show an almost symbiotic interplay. The longer piece is a medley of "Meditations" and "Leo," and it begins as intensely and fiercely as it does on the album of the same name. Lasting nearly 45 minutes, the piece is a free-for-all with both horn players shoving one another to the limits of improvisation with their chosen instruments, and on percussion. Alice's piano phrasings are less percussive that McCoy Tyner's were, but they are equally far-reaching in timbre, color, and texture. She, Ali, and Garrison manage to just barely tether this group to the earth. The remastering job comes directly from analog tapes, so the sound is warm, rich, and full. No Coltrane fan – who doesn't possess the box anyway – should be without this fine recording.
John Coltrane - Concert In Japan (1966) {Impulse!-Verve Originals B0015955-02 rel 2011}


Personnel:
John Coltrane - saxophones, percussion
Alice Coltrane - piano
Pharoah Sanders - saxophones, bass clarinet, percussion
Jimmy Garrison - bass
Rashied Ali - drums

John Coltrane - Concert In Japan (1966) {Impulse!-Verve Originals B0015955-02 rel 2011}


tracklist:
01 - Spoken Introduction (In Japanese)
02 - Peace On Earth
03 - Meditations / Leo

Exact Audio Copy V1.1 from 23. June 2015

EAC extraction logfile from 26. May 2016, 17:49

John Coltrane / Concert In Japan

Used drive : TSSTcorpCDDVDW SE-208DB Adapter: 1 ID: 0

Read mode : Secure
Utilize accurate stream : Yes
Defeat audio cache : Yes
Make use of C2 pointers : No

Read offset correction : 6
Overread into Lead-In and Lead-Out : No
Fill up missing offset samples with silence : Yes
Delete leading and trailing silent blocks : No
Null samples used in CRC calculations : Yes
Used interface : Native Win32 interface for Win NT & 2000
Gap handling : Appended to previous track

Used output format : User Defined Encoder
Selected bitrate : 1024 kBit/s
Quality : High
Add ID3 tag : No
Command line compressor : C:\Program Files (x86)\FLAC Frontend\tools\flac.exe
Additional command line options : -8 -V -T "ARTIST=%artist%" -T "TITLE=%title%" -T "ALBUM=%albumtitle%" -T "DATE=%year%" -T "TRACKNUMBER=%tracknr%" -T "TOTALTRACKS=%numtracks%" -T "GENRE=%genre%" -T "ALBUMARTIST=%albumartist%" -T "ALBUM ARTIST=%albumartist%" -T "COMMENT=EAC Secure Mode, Test & Copy, AccurateRip, FLAC -8" %source%


TOC of the extracted CD

Track | Start | Length | Start sector | End sector
––––––––––––––––––––––––––––-
1 | 0:00.00 | 1:57.43 | 0 | 8817
2 | 1:57.43 | 25:01.10 | 8818 | 121402
3 | 26:58.53 | 44:45.07 | 121403 | 322784


Track 1

Filename D:\_EAC\John Coltrane - Concert In Japan (1966) [FLAC] {Impulse!-Verve Originals rel 2011}\01 - Spoken Introduction (In Japanese).wav

Pre-gap length 0:00:02.00

Peak level 63.0 %
Extraction speed 1.1 X
Track quality 100.0 %
Test CRC 7E720439
Copy CRC 7E720439
Accurately ripped (confidence 19) [4C23C2C5] (AR v2)
Copy OK

Track 2

Filename D:\_EAC\John Coltrane - Concert In Japan (1966) [FLAC] {Impulse!-Verve Originals rel 2011}\02 - Peace On Earth.wav

Peak level 99.9 %
Extraction speed 1.9 X
Track quality 100.0 %
Test CRC 69680E6B
Copy CRC 69680E6B
Accurately ripped (confidence 18) [F904F44C] (AR v2)
Copy OK

Track 3

Filename D:\_EAC\John Coltrane - Concert In Japan (1966) [FLAC] {Impulse!-Verve Originals rel 2011}\03 - Meditations - Leo.wav

Peak level 99.9 %
Extraction speed 2.7 X
Track quality 100.0 %
Test CRC EB98392E
Copy CRC EB98392E
Accurately ripped (confidence 16) [6E2CE53A] (AR v2)
Copy OK


All tracks accurately ripped

No errors occurred

End of status report

==== Log checksum 47D5C8CC457DFDC353F8E69F901B7DA8DC01B66FF942B0825267B6FEC65C0E14 ====


John Coltrane - Concert In Japan (1966) {Impulse!-Verve Originals B0015955-02 rel 2011}

John Coltrane - Concert In Japan (1966) {Impulse!-Verve Originals B0015955-02 rel 2011}


see more John Coltrane Verve Originals…


===