Subcategories

John Coltrane - Fearless Leader (2006) {6CD Box Set Prestige PRCD6-30059-6 rec 1957-1958}

Posted By: ruskaval
John Coltrane - Fearless Leader (2006) {6CD Box Set Prestige PRCD6-30059-6 rec 1957-1958}

John Coltrane - Fearless Leader (2006) {6CD Box Set Prestige PRCD6-30059-6 rec 1957-1958}
EAC rip (secure mode) | FLAC (tracks)+CUE+LOG -> 2.45 Gb | MP3 @320 -> 946 Mb
Full Artwork @ 600 dpi (png) -> 2.87 Gb | 5% repair rar
© 1957-58, 2006 Prestige / Concord | PRCD6-30059-2 | 24bit remaster
Jazz / Hard Bop / Saxophone

In celebration of John Coltrane's 80th birthday, Concord Music Group is now proud to present Fearless Leader, a special 6-CD boxed set focusing on his Prestige Records output as a band leader (1957-1958). This is the FIRST-EVER COMPREHENSIVE BOXED SET focusing on John Coltrane's Prestige Records output as a band leader. This BEAUTIFUL 6-CD boxed set is adorned with RARE PHOTOGRAPHS of John Coltrane as well as an EXTENSIVE 64-PAGE BOOKLET featuring COMPLETE ANNOTATED DISCOGRAPHICAL INFORMATION and liner notes by noted music historians RICHARD S. GINELL and LEWIS PORTER. Also features ORIGINAL SESSION NOTES and fully reproduced ORIGINAL ALBUM ARTWORK. Features noted sidemen RED GARLAND, PAUL CHAMBERS, DONALD BYRD, JIMMY COBB, FREDDIE HUBBARD and ART TAYLOR. 24-BIT REMASTERING from the Original Analog Master Tapes.
John Coltrane - Fearless Leader (2006) {6CD Box Set Prestige PRCD6-30059-6 rec 1957-1958}

In the spring of 1957, when he signed with Bob Weinstock's Prestige Records, John Coltrane was still a relative newcomer to the national jazz scene. He wasn't, at age 30, a youngster by any means, and he had already been playing professionally for more than a dozen years, but most of that had been as a sideman and he was known primarily to insiders. Most recently, since 1955, he'd worked for Miles Davis, who had first recognized Coltrane's potential in the late '40s. Coltrane's blowing with Davis' quintet was often brilliant, sometimes spotty, promising overall, but the saxophonist's heroin habit was getting the better of him and Davis cut him loose a number of times before finally disbanding the group in 1957. Weinstock was well familiar with Coltrane's growing reputation and had used him as a sideman at the label. When he gave him a contract as a leader, he could not have known, of course, that he was setting off one of the most monumentally influential careers jazz would ever know. At Prestige, Coltrane, now cleaned up from drugs, was ridiculously prolific, taking part in some 27 sessions in all during 1957 and 1958, the entirety of which, 125 tracks, can be heard on the 16-disc box set The Prestige Recordings. This six-disc set seems almost minimal in comparison, eschewing Coltrane's sideman work at Prestige to concentrate on his role as frontman. But by focusing on Coltrane as an increasingly creative, at times explosive, groundbreaking force, this "compact" set is, in its own way, the more potent of the two. And Fearless Leader is an appropriate title: Coltrane was by nature unafraid to take chances, eager to dare himself and his musicians to go places jazz had yet to travel. He wasn't quite up to running speed yet at Prestige, but he was well on his way to figuring out that the possibilities were boundless.
John Coltrane - Fearless Leader (2006) {6CD Box Set Prestige PRCD6-30059-6 rec 1957-1958}

While some of the Prestige recordings might seem almost tame and mainstream in comparison to the music Coltrane would later cut for Atlantic and Impulse!, that's really only in retrospect: seen in the context of its time, the sessions that Coltrane cut at Prestige – released originally on such albums as Coltrane, Traneing In, The Believer, Soultrane, and the stunning ballads/standards set Lush Life, on which Coltrane plays it relatively straight, displaying a debt to Charlie Parker that would dissipate as he proceeded to probe worlds Bird never dreamed of – raised the bar higher than it had ever been at the time. As Fearless Leader is arranged by session and does not attempt to replicate the original albums' running orders, however, those earlier contexts cease to exist and listeners are left to experience the music as Coltrane – working at Prestige mainly with such peers as pianist Red Garland, bassist Paul Chambers, drummers Art Taylor and Louis Hayes, and trumpeters Donald Byrd and Freddie Hubbard – cut it, chronologically. Whatever tentativeness he was still feeling early in the relationship slowly gives way, and by the end of Coltrane's tenure at the label, his signature aggressive probing is in full swing, notably on tracks such as "Bahia" and "Goldsboro Express," from his December 1958 session, and a breakneck "Lover Come Back to Me" from earlier that year. Although he was still capable of playing it straight and unadorned – his blues and romantic ballads are uniformly moving and elegantly laid out – and Coltrane's Prestige era was a transitional one to be sure, Fearless Leader makes clear that the roots of his genius were already firmly planted.
John Coltrane - Fearless Leader (2006) {6CD Box Set Prestige PRCD6-30059-6 rec 1957-1958}


AAJ INFO

Personnel: John Coltrane: tenor saxophone; Paul Chambers: bass; Red Garland: piano; Art Taylor: drums; Johnny Splawn: trumpet; Freddie Hubbard: trumpet; Mal Waldron: piano; Sahib Shihab: baritone saxophone; Wilbur Harden: trumpet and others…

tracklist:
DISC ONE

01. Straight Street 6:15
02. While My Lady Sleeps 4:38
03. Chronic Blues 8:13
04. Bakai 8:45
05. Violets For Your Furs 6:17
06. Time Was 7:29
07. I Hear A Rhapsody 6:02
08. Trane's Slo Blues 6:04
09. Slowtrane 7:16
10. Like Someone In Love 4:57
11. I Love You 5:28

John Coltrane - Fearless Leader (2006) {6CD Box Set Prestige PRCD6-30059-6 rec 1957-1958}


DISC TWO
01. You Leave Me Breathless 7:22
02. Bass Blues 7:44
03. Soft Lights And Sweet Music 4:40
04. Traneing In 12:33
05. Slow Dance 5:26
06. Lush Life 13:58
07. The Believer 13:47
08. Nakatini Serenade 11:02

DISC THREE
01. Come Rain Or Come Shine 8:45
02. Lover 7:59
03. Russian Lullaby 5:33
04. Theme For Ernie 4:55
05. You Say You Care 6:16
06. Good Bait 12:09
07. I Want To Talk About You 10:55
08. Rise 'n' Shine 7:17
09. I See Your Face Before Me 9:56

John Coltrane - Fearless Leader (2006) {6CD Box Set Prestige PRCD6-30059-6 rec 1957-1958}


DISC FOUR
01. If There Is Someone Lovelier Than You 9:21
02. Little Melonae 14:06
03. By The Numbers 12:06
04. Black Pearls 13:10
05. Lover, Come Back To Me 7:27
06. Sweet Sapphire Blues 18:14

DISC FIVE
01. Spring Is Here 6:57
02. Invitation 10:23
03. I'm A Dreamer (Aren't We All) 6:59
04. Love Thy Neighbor 9:26
05. Don't Take Your Love From Me 9:15
06. Stardust 10:43
07. My Ideal 7:35
08. I'll Get By (As Long As I Have You) 8:09

John Coltrane - Fearless Leader (2006) {6CD Box Set Prestige PRCD6-30059-6 rec 1957-1958}


DISC SIX
01. Do I Love You Because You're Beautiful? 5:12
02. Then I'll Be Tired Of You 9:30
03. Something I Dreamed Last Night 10:48
04. Bahia 6:15
05. Goldsboro Express 4:41
06. Time After Time 7:43

John Coltrane - Fearless Leader (2006) {6CD Box Set Prestige PRCD6-30059-6 rec 1957-1958}


Exact Audio Copy V1.1 from 23. June 2015

EAC extraction logfile from 1. December 2015, 13:08

John Coltrane / Fearless Leader (CD1)

Used drive : TSSTcorpCDDVDW SE-208DB Adapter: 7 ID: 0

Read mode : Secure
Utilize accurate stream : Yes
Defeat audio cache : Yes
Make use of C2 pointers : No

Read offset correction : 6
Overread into Lead-In and Lead-Out : No
Fill up missing offset samples with silence : Yes
Delete leading and trailing silent blocks : No
Null samples used in CRC calculations : Yes
Used interface : Installed external ASPI interface
Gap handling : Appended to previous track

Used output format : User Defined Encoder
Selected bitrate : 1024 kBit/s
Quality : High
Add ID3 tag : No
Command line compressor : C:\Program Files (x86)\FLAC Frontend\tools\flac.exe
Additional command line options : -8 -V -T "ARTIST=%artist%" -T "TITLE=%title%" -T "ALBUM=%albumtitle%" -T "DATE=%year%" -T "TRACKNUMBER=%tracknr%" -T "TOTALTRACKS=%numtracks%" -T "GENRE=%genre%" -T "ALBUMARTIST=%albumartist%" -T "ALBUM ARTIST=%albumartist%" -T "COMMENT=EAC Secure Mode, Test & Copy, AccurateRip, FLAC -8" %source%


TOC of the extracted CD

Track | Start | Length | Start sector | End sector
––––––––––––––––––––––––––––-
1 | 0:00.00 | 6:19.23 | 0 | 28447
2 | 6:19.23 | 4:44.04 | 28448 | 49751
3 | 11:03.27 | 8:14.28 | 49752 | 86829
4 | 19:17.55 | 8:42.26 | 86830 | 126005
5 | 28:00.06 | 6:17.41 | 126006 | 154321
6 | 34:17.47 | 7:29.28 | 154322 | 188024
7 | 41:47.00 | 6:03.05 | 188025 | 215254
8 | 47:50.05 | 6:06.15 | 215255 | 242719
9 | 53:56.20 | 7:20.19 | 242720 | 275738
10 | 61:16.39 | 5:00.60 | 275739 | 298298
11 | 66:17.24 | 5:31.27 | 298299 | 323150


Track 1

Filename M:\_EAC\John Coltrane - Fearless Leader (2006) [FLAC] {6CD Set Prestige PRCD6-30059-6}\CD1\01 - Straight Street.wav

Pre-gap length 0:00:02.00

Peak level 100.0 %
Extraction speed 1.2 X
Track quality 100.0 %
Test CRC 5B3AD322
Copy CRC 5B3AD322
Accurately ripped (confidence 10) [2C6188F7] (AR v2)
Copy OK

Track 2

Filename M:\_EAC\John Coltrane - Fearless Leader (2006) [FLAC] {6CD Set Prestige PRCD6-30059-6}\CD1\02 - While My Lady Sleeps.wav

Pre-gap length 0:00:02.37

Peak level 94.8 %
Extraction speed 1.3 X
Track quality 100.0 %
Test CRC B113918E
Copy CRC B113918E
Accurately ripped (confidence 10) [61D23B37] (AR v2)
Copy OK

Track 3

Filename M:\_EAC\John Coltrane - Fearless Leader (2006) [FLAC] {6CD Set Prestige PRCD6-30059-6}\CD1\03 - Chronic Blues.wav

Pre-gap length 0:00:02.37

Peak level 100.0 %
Extraction speed 1.5 X
Track quality 100.0 %
Test CRC 29F6116B
Copy CRC 29F6116B
Accurately ripped (confidence 10) [3BAC88CE] (AR v2)
Copy OK

Track 4

Filename M:\_EAC\John Coltrane - Fearless Leader (2006) [FLAC] {6CD Set Prestige PRCD6-30059-6}\CD1\04 - Bakai.wav

Pre-gap length 0:00:02.37

Peak level 100.0 %
Extraction speed 1.6 X
Track quality 100.0 %
Test CRC 8E7030A9
Copy CRC 8E7030A9
Accurately ripped (confidence 10) [E1D6C573] (AR v2)
Copy OK

Track 5

Filename M:\_EAC\John Coltrane - Fearless Leader (2006) [FLAC] {6CD Set Prestige PRCD6-30059-6}\CD1\05 - Violets For Your Furs.wav

Pre-gap length 0:00:02.37

Peak level 97.0 %
Extraction speed 1.7 X
Track quality 100.0 %
Test CRC CB082B70
Copy CRC CB082B70
Accurately ripped (confidence 10) [8EB321B3] (AR v2)
Copy OK

Track 6

Filename M:\_EAC\John Coltrane - Fearless Leader (2006) [FLAC] {6CD Set Prestige PRCD6-30059-6}\CD1\06 - Time Was.wav

Pre-gap length 0:00:02.37

Peak level 100.0 %
Extraction speed 1.8 X
Track quality 100.0 %
Test CRC 5C7B9888
Copy CRC 5C7B9888
Accurately ripped (confidence 10) [EF103E50] (AR v2)
Copy OK

Track 7

Filename M:\_EAC\John Coltrane - Fearless Leader (2006) [FLAC] {6CD Set Prestige PRCD6-30059-6}\CD1\07 - I Hear A Rhapsody.wav

Pre-gap length 0:00:02.37

Peak level 100.0 %
Extraction speed 1.9 X
Track quality 100.0 %
Test CRC FC746717
Copy CRC FC746717
Accurately ripped (confidence 10) [3B736A0A] (AR v2)
Copy OK

Track 8

Filename M:\_EAC\John Coltrane - Fearless Leader (2006) [FLAC] {6CD Set Prestige PRCD6-30059-6}\CD1\08 - Trane's Slo Blues.wav

Pre-gap length 0:00:02.37

Peak level 100.0 %
Extraction speed 1.7 X
Track quality 99.9 %
Test CRC B482457B
Copy CRC B482457B
Accurately ripped (confidence 10) [A949172E] (AR v2)
Copy OK

Track 9

Filename M:\_EAC\John Coltrane - Fearless Leader (2006) [FLAC] {6CD Set Prestige PRCD6-30059-6}\CD1\09 - Slowtrane.wav

Pre-gap length 0:00:02.36

Peak level 100.0 %
Extraction speed 1.8 X
Track quality 99.9 %
Test CRC 0ACAC669
Copy CRC 0ACAC669
Accurately ripped (confidence 10) [AD93A140] (AR v2)
Copy OK

Track 10

Filename M:\_EAC\John Coltrane - Fearless Leader (2006) [FLAC] {6CD Set Prestige PRCD6-30059-6}\CD1\10 - Like Someone In Love.wav

Pre-gap length 0:00:02.37

Peak level 75.4 %
Extraction speed 1.8 X
Track quality 99.9 %
Test CRC FEB96F4F
Copy CRC FEB96F4F
Accurately ripped (confidence 10) [BEFDC4D2] (AR v2)
Copy OK

Track 11

Filename M:\_EAC\John Coltrane - Fearless Leader (2006) [FLAC] {6CD Set Prestige PRCD6-30059-6}\CD1\11 - I Love You.wav

Pre-gap length 0:00:02.37

Peak level 100.0 %
Extraction speed 1.9 X
Track quality 99.9 %
Test CRC F1D4A514
Copy CRC F1D4A514
Accurately ripped (confidence 10) [5136F0D4] (AR v2)
Copy OK


All tracks accurately ripped

No errors occurred

End of status report

==== Log checksum A865672459A1C0F787CCA748B482CA05CADB58757908DBACF6251F257872FC89 ====

Exact Audio Copy V1.1 from 23. June 2015

EAC extraction logfile from 1. December 2015, 14:40

John Coltrane / Fearless Leader (CD2)

Used drive : TSSTcorpCDDVDW SE-208DB Adapter: 7 ID: 0

Read mode : Secure
Utilize accurate stream : Yes
Defeat audio cache : Yes
Make use of C2 pointers : No

Read offset correction : 6
Overread into Lead-In and Lead-Out : No
Fill up missing offset samples with silence : Yes
Delete leading and trailing silent blocks : No
Null samples used in CRC calculations : Yes
Used interface : Installed external ASPI interface
Gap handling : Appended to previous track

Used output format : User Defined Encoder
Selected bitrate : 1024 kBit/s
Quality : High
Add ID3 tag : No
Command line compressor : C:\Program Files (x86)\FLAC Frontend\tools\flac.exe
Additional command line options : -8 -V -T "ARTIST=%artist%" -T "TITLE=%title%" -T "ALBUM=%albumtitle%" -T "DATE=%year%" -T "TRACKNUMBER=%tracknr%" -T "TOTALTRACKS=%numtracks%" -T "GENRE=%genre%" -T "ALBUMARTIST=%albumartist%" -T "ALBUM ARTIST=%albumartist%" -T "COMMENT=EAC Secure Mode, Test & Copy, AccurateRip, FLAC -8" %source%


TOC of the extracted CD

Track | Start | Length | Start sector | End sector
––––––––––––––––––––––––––––-
1 | 0:00.00 | 7:25.25 | 0 | 33399
2 | 7:25.25 | 7:48.34 | 33400 | 68533
3 | 15:13.59 | 4:44.43 | 68534 | 89876
4 | 19:58.27 | 12:36.38 | 89877 | 146614
5 | 32:34.65 | 5:29.45 | 146615 | 171334
6 | 38:04.35 | 14:03.30 | 171335 | 234589
7 | 52:07.65 | 13:50.06 | 234590 | 296845
8 | 65:57.71 | 11:01.62 | 296846 | 346482


Track 1

Filename M:\_EAC\John Coltrane - Fearless Leader (2006) [FLAC] {6CD Set Prestige PRCD6-30059-6}\CD2\01 - You Leave Me Breathless.wav

Pre-gap length 0:00:02.00

Peak level 100.0 %
Extraction speed 1.2 X
Track quality 100.0 %
Test CRC 2103D4F2
Copy CRC 2103D4F2
Accurately ripped (confidence 10) [9935CD6A] (AR v2)
Copy OK

Track 2

Filename M:\_EAC\John Coltrane - Fearless Leader (2006) [FLAC] {6CD Set Prestige PRCD6-30059-6}\CD2\02 - Bass Blues.wav

Pre-gap length 0:00:04.00

Peak level 100.0 %
Extraction speed 1.3 X
Track quality 99.9 %
Test CRC 6A718318
Copy CRC 6A718318
Accurately ripped (confidence 10) [759BD22E] (AR v2)
Copy OK

Track 3

Filename M:\_EAC\John Coltrane - Fearless Leader (2006) [FLAC] {6CD Set Prestige PRCD6-30059-6}\CD2\03 - Soft Lights And Sweet Music.wav

Pre-gap length 0:00:04.00

Peak level 100.0 %
Extraction speed 1.5 X
Track quality 100.0 %
Test CRC FE2FF9B1
Copy CRC FE2FF9B1
Accurately ripped (confidence 10) [9AD7165D] (AR v2)
Copy OK

Track 4

Filename M:\_EAC\John Coltrane - Fearless Leader (2006) [FLAC] {6CD Set Prestige PRCD6-30059-6}\CD2\04 - Traneing In.wav

Pre-gap length 0:00:04.00

Peak level 100.0 %
Extraction speed 1.7 X
Track quality 100.0 %
Test CRC 1DF65A72
Copy CRC 1DF65A72
Accurately ripped (confidence 10) [8EB37290] (AR v2)
Copy OK

Track 5

Filename M:\_EAC\John Coltrane - Fearless Leader (2006) [FLAC] {6CD Set Prestige PRCD6-30059-6}\CD2\05 - Slow Dance.wav

Pre-gap length 0:00:04.00

Peak level 94.2 %
Extraction speed 1.7 X
Track quality 100.0 %
Test CRC 103EB83B
Copy CRC 103EB83B
Accurately ripped (confidence 10) [C5940BF3] (AR v2)
Copy OK

Track 6

Filename M:\_EAC\John Coltrane - Fearless Leader (2006) [FLAC] {6CD Set Prestige PRCD6-30059-6}\CD2\06 - Lush Life.wav

Pre-gap length 0:00:04.00

Peak level 100.0 %
Extraction speed 2.0 X
Track quality 100.0 %
Test CRC 7FEA165D
Copy CRC 7FEA165D
Accurately ripped (confidence 10) [A81B0545] (AR v2)
Copy OK

Track 7

Filename M:\_EAC\John Coltrane - Fearless Leader (2006) [FLAC] {6CD Set Prestige PRCD6-30059-6}\CD2\07 - The Believer.wav

Pre-gap length 0:00:04.00

Peak level 100.0 %
Extraction speed 2.2 X
Track quality 100.0 %
Test CRC 275C6F13
Copy CRC 275C6F13
Accurately ripped (confidence 10) [A1C17EBE] (AR v2)
Copy OK

Track 8

Filename M:\_EAC\John Coltrane - Fearless Leader (2006) [FLAC] {6CD Set Prestige PRCD6-30059-6}\CD2\08 - Nakatini Serenade.wav

Pre-gap length 0:00:04.00

Peak level 100.0 %
Extraction speed 2.2 X
Track quality 100.0 %
Test CRC 992E9801
Copy CRC 992E9801
Accurately ripped (confidence 10) [F1978010] (AR v2)
Copy OK


All tracks accurately ripped

No errors occurred

End of status report

==== Log checksum 1FB6C2CB281D926758AD4797E5907931B14F52CA1E280EF117568CCE2BC5108C ====

Exact Audio Copy V1.1 from 23. June 2015

EAC extraction logfile from 1. December 2015, 16:18

John Coltrane / Fearless Leader (CD3)

Used drive : TSSTcorpCDDVDW SE-208DB Adapter: 7 ID: 0

Read mode : Secure
Utilize accurate stream : Yes
Defeat audio cache : Yes
Make use of C2 pointers : No

Read offset correction : 6
Overread into Lead-In and Lead-Out : No
Fill up missing offset samples with silence : Yes
Delete leading and trailing silent blocks : No
Null samples used in CRC calculations : Yes
Used interface : Installed external ASPI interface
Gap handling : Appended to previous track

Used output format : User Defined Encoder
Selected bitrate : 1024 kBit/s
Quality : High
Add ID3 tag : No
Command line compressor : C:\Program Files (x86)\FLAC Frontend\tools\flac.exe
Additional command line options : -8 -V -T "ARTIST=%artist%" -T "TITLE=%title%" -T "ALBUM=%albumtitle%" -T "DATE=%year%" -T "TRACKNUMBER=%tracknr%" -T "TOTALTRACKS=%numtracks%" -T "GENRE=%genre%" -T "ALBUMARTIST=%albumartist%" -T "ALBUM ARTIST=%albumartist%" -T "COMMENT=EAC Secure Mode, Test & Copy, AccurateRip, FLAC -8" %source%


TOC of the extracted CD

Track | Start | Length | Start sector | End sector
––––––––––––––––––––––––––––-
1 | 0:00.00 | 8:47.34 | 0 | 39558
2 | 8:47.34 | 7:58.49 | 39559 | 75457
3 | 16:46.08 | 5:36.24 | 75458 | 100681
4 | 22:22.32 | 4:59.30 | 100682 | 123136
5 | 27:21.62 | 6:17.34 | 123137 | 151445
6 | 33:39.21 | 12:10.50 | 151446 | 206245
7 | 45:49.71 | 10:57.06 | 206246 | 255526
8 | 56:47.02 | 7:16.60 | 255527 | 288286
9 | 64:03.62 | 9:56.13 | 288287 | 332999


Track 1

Filename M:\_EAC\John Coltrane - Fearless Leader (2006) [FLAC] {6CD Set Prestige PRCD6-30059-6}\CD3\01 - Come Rain Or Come Shine.wav

Pre-gap length 0:00:02.00

Peak level 97.3 %
Extraction speed 1.1 X
Track quality 100.0 %
Test CRC 18ED24B5
Copy CRC 18ED24B5
Accurately ripped (confidence 10) [81F1DC74] (AR v2)
Copy OK

Track 2

Filename M:\_EAC\John Coltrane - Fearless Leader (2006) [FLAC] {6CD Set Prestige PRCD6-30059-6}\CD3\02 - Lover.wav

Peak level 100.0 %
Extraction speed 1.4 X
Track quality 100.0 %
Test CRC D2ACD215
Copy CRC D2ACD215
Accurately ripped (confidence 10) [6FEE1A4A] (AR v2)
Copy OK

Track 3

Filename M:\_EAC\John Coltrane - Fearless Leader (2006) [FLAC] {6CD Set Prestige PRCD6-30059-6}\CD3\03 - Russian Lullaby.wav

Peak level 99.2 %
Extraction speed 1.4 X
Track quality 99.9 %
Test CRC C945257B
Copy CRC C945257B
Accurately ripped (confidence 10) [B206B632] (AR v2)
Copy OK

Track 4

Filename M:\_EAC\John Coltrane - Fearless Leader (2006) [FLAC] {6CD Set Prestige PRCD6-30059-6}\CD3\04 - Theme For Ernie.wav

Peak level 87.6 %
Extraction speed 1.6 X
Track quality 100.0 %
Test CRC BAF854E4
Copy CRC BAF854E4
Accurately ripped (confidence 10) [27F5EBB7] (AR v2)
Copy OK

Track 5

Filename M:\_EAC\John Coltrane - Fearless Leader (2006) [FLAC] {6CD Set Prestige PRCD6-30059-6}\CD3\05 - You Say You Care.wav

Peak level 75.3 %
Extraction speed 1.5 X
Track quality 99.9 %
Test CRC 5151D0C9
Copy CRC 5151D0C9
Accurately ripped (confidence 10) [DDEF6DEF] (AR v2)
Copy OK

Track 6

Filename M:\_EAC\John Coltrane - Fearless Leader (2006) [FLAC] {6CD Set Prestige PRCD6-30059-6}\CD3\06 - Good Bait.wav

Peak level 88.4 %
Extraction speed 1.9 X
Track quality 100.0 %
Test CRC 519996C6
Copy CRC 519996C6
Accurately ripped (confidence 10) [C438C9D4] (AR v2)
Copy OK

Track 7

Filename M:\_EAC\John Coltrane - Fearless Leader (2006) [FLAC] {6CD Set Prestige PRCD6-30059-6}\CD3\07 - I Want To Talk About You.wav

Peak level 77.1 %
Extraction speed 2.0 X
Track quality 100.0 %
Test CRC 224FD586
Copy CRC 224FD586
Accurately ripped (confidence 10) [E853A596] (AR v2)
Copy OK

Track 8

Filename M:\_EAC\John Coltrane - Fearless Leader (2006) [FLAC] {6CD Set Prestige PRCD6-30059-6}\CD3\08 - Rise 'N Shine.wav

Peak level 100.0 %
Extraction speed 2.1 X
Track quality 100.0 %
Test CRC 69F31FBA
Copy CRC 69F31FBA
Accurately ripped (confidence 10) [00E883B9] (AR v2)
Copy OK

Track 9

Filename M:\_EAC\John Coltrane - Fearless Leader (2006) [FLAC] {6CD Set Prestige PRCD6-30059-6}\CD3\09 - I See Your Face Before Me.wav

Peak level 100.0 %
Extraction speed 2.2 X
Track quality 100.0 %
Test CRC F2047EC8
Copy CRC F2047EC8
Accurately ripped (confidence 10) [E77B5990] (AR v2)
Copy OK


All tracks accurately ripped

No errors occurred

End of status report

==== Log checksum ADD8F6019AE92A9779199BEA71D11A6D19AC95CADD76695F53BAEC1232D049AE ====

Exact Audio Copy V1.1 from 23. June 2015

EAC extraction logfile from 1. December 2015, 17:45

John Coltrane / Fearless Leader (CD4)

Used drive : TSSTcorpCDDVDW SE-208DB Adapter: 7 ID: 0

Read mode : Secure
Utilize accurate stream : Yes
Defeat audio cache : Yes
Make use of C2 pointers : No

Read offset correction : 6
Overread into Lead-In and Lead-Out : No
Fill up missing offset samples with silence : Yes
Delete leading and trailing silent blocks : No
Null samples used in CRC calculations : Yes
Used interface : Installed external ASPI interface
Gap handling : Appended to previous track

Used output format : User Defined Encoder
Selected bitrate : 1024 kBit/s
Quality : High
Add ID3 tag : No
Command line compressor : C:\Program Files (x86)\FLAC Frontend\tools\flac.exe
Additional command line options : -8 -V -T "ARTIST=%artist%" -T "TITLE=%title%" -T "ALBUM=%albumtitle%" -T "DATE=%year%" -T "TRACKNUMBER=%tracknr%" -T "TOTALTRACKS=%numtracks%" -T "GENRE=%genre%" -T "ALBUMARTIST=%albumartist%" -T "ALBUM ARTIST=%albumartist%" -T "COMMENT=EAC Secure Mode, Test & Copy, AccurateRip, FLAC -8" %source%


TOC of the extracted CD

Track | Start | Length | Start sector | End sector
––––––––––––––––––––––––––––-
1 | 0:00.00 | 9:22.48 | 0 | 42197
2 | 9:22.48 | 14:06.53 | 42198 | 105700
3 | 23:29.26 | 12:02.69 | 105701 | 159919
4 | 35:32.20 | 13:13.56 | 159920 | 219450
5 | 48:46.01 | 7:28.39 | 219451 | 253089
6 | 56:14.40 | 18:13.49 | 253090 | 335113


Track 1

Filename M:\_EAC\John Coltrane - Fearless Leader (2006) [FLAC] {6CD Set Prestige PRCD6-30059-6}\CD4\01 - If There Is Someone Lovelier Than You.wav

Pre-gap length 0:00:02.00

Peak level 93.9 %
Extraction speed 1.3 X
Track quality 100.0 %
Test CRC B6151A4B
Copy CRC B6151A4B
Accurately ripped (confidence 10) [935434B3] (AR v2)
Copy OK

Track 2

Filename M:\_EAC\John Coltrane - Fearless Leader (2006) [FLAC] {6CD Set Prestige PRCD6-30059-6}\CD4\02 - Little Melonae.wav

Peak level 100.0 %
Extraction speed 1.6 X
Track quality 100.0 %
Test CRC 5DD4E361
Copy CRC 5DD4E361
Accurately ripped (confidence 10) [C0F310ED] (AR v2)
Copy OK

Track 3

Filename M:\_EAC\John Coltrane - Fearless Leader (2006) [FLAC] {6CD Set Prestige PRCD6-30059-6}\CD4\03 - By The Numbers.wav

Peak level 63.0 %
Extraction speed 1.8 X
Track quality 100.0 %
Test CRC 16F751B5
Copy CRC 16F751B5
Accurately ripped (confidence 10) [B9E0A61B] (AR v2)
Copy OK

Track 4

Filename M:\_EAC\John Coltrane - Fearless Leader (2006) [FLAC] {6CD Set Prestige PRCD6-30059-6}\CD4\04 - Black Pearls.wav

Peak level 97.8 %
Extraction speed 2.0 X
Track quality 100.0 %
Test CRC A6811318
Copy CRC A6811318
Accurately ripped (confidence 10) [4C94698B] (AR v2)
Copy OK

Track 5

Filename M:\_EAC\John Coltrane - Fearless Leader (2006) [FLAC] {6CD Set Prestige PRCD6-30059-6}\CD4\05 - Lover Come Back To Me.wav

Peak level 100.0 %
Extraction speed 1.8 X
Track quality 99.9 %
Test CRC 6CA98FD5
Copy CRC 6CA98FD5
Accurately ripped (confidence 10) [EE2620C1] (AR v2)
Copy OK

Track 6

Filename M:\_EAC\John Coltrane - Fearless Leader (2006) [FLAC] {6CD Set Prestige PRCD6-30059-6}\CD4\06 - Sweet Sapphire Blues.wav

Peak level 100.0 %
Extraction speed 2.2 X
Track quality 100.0 %
Test CRC 1D6DE54E
Copy CRC 1D6DE54E
Accurately ripped (confidence 7) [DC444185] (AR v2)
Copy OK


All tracks accurately ripped

No errors occurred

End of status report

==== Log checksum D408FA30C66F0D8B50D74C325F755195C0A594ECE8A175BC15EC9DC773756336 ====

Exact Audio Copy V1.1 from 23. June 2015

EAC extraction logfile from 1. December 2015, 20:51

John Coltrane / Fearless Leader (CD5)

Used drive : TSSTcorpCDDVDW SE-208DB Adapter: 7 ID: 0

Read mode : Secure
Utilize accurate stream : Yes
Defeat audio cache : Yes
Make use of C2 pointers : No

Read offset correction : 6
Overread into Lead-In and Lead-Out : No
Fill up missing offset samples with silence : Yes
Delete leading and trailing silent blocks : No
Null samples used in CRC calculations : Yes
Used interface : Installed external ASPI interface
Gap handling : Appended to previous track

Used output format : User Defined Encoder
Selected bitrate : 1024 kBit/s
Quality : High
Add ID3 tag : No
Command line compressor : C:\Program Files (x86)\FLAC Frontend\tools\flac.exe
Additional command line options : -8 -V -T "ARTIST=%artist%" -T "TITLE=%title%" -T "ALBUM=%albumtitle%" -T "DATE=%year%" -T "TRACKNUMBER=%tracknr%" -T "TOTALTRACKS=%numtracks%" -T "GENRE=%genre%" -T "ALBUMARTIST=%albumartist%" -T "ALBUM ARTIST=%albumartist%" -T "COMMENT=EAC Secure Mode, Test & Copy, AccurateRip, FLAC -8" %source%


TOC of the extracted CD

Track | Start | Length | Start sector | End sector
––––––––––––––––––––––––––––-
1 | 0:00.00 | 6:56.41 | 0 | 31240
2 | 6:56.41 | 10:23.22 | 31241 | 77987
3 | 17:19.63 | 7:04.09 | 77988 | 109796
4 | 24:23.72 | 9:24.50 | 109797 | 152146
5 | 33:48.47 | 9:16.52 | 152147 | 193898
6 | 43:05.24 | 10:43.53 | 193899 | 242176
7 | 53:49.02 | 7:36.08 | 242177 | 276384
8 | 61:25.10 | 8:09.22 | 276385 | 313081


Track 1

Filename M:\_EAC\John Coltrane - Fearless Leader (2006) [FLAC] {6CD Set Prestige PRCD6-30059-6}\CD5\01 - Spring Is Here.wav

Pre-gap length 0:00:02.00

Peak level 94.4 %
Extraction speed 1.2 X
Track quality 100.0 %
Test CRC 2B614195
Copy CRC 2B614195
Accurately ripped (confidence 10) [2107DB60] (AR v2)
Copy OK

Track 2

Filename M:\_EAC\John Coltrane - Fearless Leader (2006) [FLAC] {6CD Set Prestige PRCD6-30059-6}\CD5\02 - Invitation.wav

Peak level 94.4 %
Extraction speed 1.5 X
Track quality 100.0 %
Test CRC A928B380
Copy CRC A928B380
Accurately ripped (confidence 10) [85C87AF2] (AR v2)
Copy OK

Track 3

Filename M:\_EAC\John Coltrane - Fearless Leader (2006) [FLAC] {6CD Set Prestige PRCD6-30059-6}\CD5\03 - I'm A Dreamer, Aren't We All.wav

Peak level 94.4 %
Extraction speed 1.6 X
Track quality 100.0 %
Test CRC 7996B036
Copy CRC 7996B036
Accurately ripped (confidence 10) [F837626D] (AR v2)
Copy OK

Track 4

Filename M:\_EAC\John Coltrane - Fearless Leader (2006) [FLAC] {6CD Set Prestige PRCD6-30059-6}\CD5\04 - Love Thy Neighbor.wav

Peak level 94.4 %
Extraction speed 1.7 X
Track quality 100.0 %
Test CRC 8BDCEBD6
Copy CRC 8BDCEBD6
Accurately ripped (confidence 10) [25CF4BA8] (AR v2)
Copy OK

Track 5

Filename M:\_EAC\John Coltrane - Fearless Leader (2006) [FLAC] {6CD Set Prestige PRCD6-30059-6}\CD5\05 - Don't Take Your Love From Me.wav

Peak level 94.4 %
Extraction speed 1.8 X
Track quality 100.0 %
Test CRC 0C5DA82F
Copy CRC 0C5DA82F
Accurately ripped (confidence 10) [EC8339CC] (AR v2)
Copy OK

Track 6

Filename M:\_EAC\John Coltrane - Fearless Leader (2006) [FLAC] {6CD Set Prestige PRCD6-30059-6}\CD5\06 - Stardust.wav

Peak level 94.4 %
Extraction speed 2.0 X
Track quality 100.0 %
Test CRC 42E03087
Copy CRC 42E03087
Accurately ripped (confidence 10) [96F98B3E] (AR v2)
Copy OK

Track 7

Filename M:\_EAC\John Coltrane - Fearless Leader (2006) [FLAC] {6CD Set Prestige PRCD6-30059-6}\CD5\07 - My Ideal.wav

Peak level 94.4 %
Extraction speed 2.0 X
Track quality 100.0 %
Test CRC 00BC5A76
Copy CRC 00BC5A76
Accurately ripped (confidence 10) [E5108227] (AR v2)
Copy OK

Track 8

Filename M:\_EAC\John Coltrane - Fearless Leader (2006) [FLAC] {6CD Set Prestige PRCD6-30059-6}\CD5\08 - I'll Get By.wav

Peak level 84.1 %
Extraction speed 2.1 X
Track quality 100.0 %
Test CRC 9A9E8E6D
Copy CRC 9A9E8E6D
Accurately ripped (confidence 9) [5D6A62D4] (AR v2)
Copy OK


All tracks accurately ripped

No errors occurred

End of status report

==== Log checksum 07ADD82345C3CD97A5801B0EC12D74740925506BE970AFEAFE09C22F63BE56B9 ====

Exact Audio Copy V1.1 from 23. June 2015

EAC extraction logfile from 1. December 2015, 22:12

John Coltrane / Fearless Leader (CD6)

Used drive : TSSTcorpCDDVDW SE-208DB Adapter: 7 ID: 0

Read mode : Secure
Utilize accurate stream : Yes
Defeat audio cache : Yes
Make use of C2 pointers : No

Read offset correction : 6
Overread into Lead-In and Lead-Out : No
Fill up missing offset samples with silence : Yes
Delete leading and trailing silent blocks : No
Null samples used in CRC calculations : Yes
Used interface : Installed external ASPI interface
Gap handling : Appended to previous track

Used output format : User Defined Encoder
Selected bitrate : 1024 kBit/s
Quality : High
Add ID3 tag : No
Command line compressor : C:\Program Files (x86)\FLAC Frontend\tools\flac.exe
Additional command line options : -8 -V -T "ARTIST=%artist%" -T "TITLE=%title%" -T "ALBUM=%albumtitle%" -T "DATE=%year%" -T "TRACKNUMBER=%tracknr%" -T "TOTALTRACKS=%numtracks%" -T "GENRE=%genre%" -T "ALBUMARTIST=%albumartist%" -T "ALBUM ARTIST=%albumartist%" -T "COMMENT=EAC Secure Mode, Test & Copy, AccurateRip, FLAC -8" %source%


TOC of the extracted CD

Track | Start | Length | Start sector | End sector
––––––––––––––––––––––––––––-
1 | 0:00.00 | 5:14.34 | 0 | 23583
2 | 5:14.34 | 9:30.41 | 23584 | 66374
3 | 14:45.00 | 10:51.35 | 66375 | 115234
4 | 25:36.35 | 6:17.50 | 115235 | 143559
5 | 31:54.10 | 4:46.27 | 143560 | 165036
6 | 36:40.37 | 7:43.34 | 165037 | 199795


Track 1

Filename M:\_EAC\John Coltrane - Fearless Leader (2006) [FLAC] {6CD Set Prestige PRCD6-30059-6}\CD6\01 - Do I Love You Because You're Beautiful.wav

Pre-gap length 0:00:02.00

Peak level 89.1 %
Extraction speed 1.2 X
Track quality 100.0 %
Test CRC 0819F31D
Copy CRC 0819F31D
Accurately ripped (confidence 10) [1E8D7798] (AR v2)
Copy OK

Track 2

Filename M:\_EAC\John Coltrane - Fearless Leader (2006) [FLAC] {6CD Set Prestige PRCD6-30059-6}\CD6\02 - Then I'll Be Tired Of You.wav

Peak level 89.1 %
Extraction speed 1.4 X
Track quality 100.0 %
Test CRC 80CCEFFE
Copy CRC 80CCEFFE
Accurately ripped (confidence 10) [566BDFD6] (AR v2)
Copy OK

Track 3

Filename M:\_EAC\John Coltrane - Fearless Leader (2006) [FLAC] {6CD Set Prestige PRCD6-30059-6}\CD6\03 - Something I Dreamed Last Night.wav

Peak level 100.0 %
Extraction speed 1.6 X
Track quality 100.0 %
Test CRC 58AF215F
Copy CRC 58AF215F
Accurately ripped (confidence 10) [A0683695] (AR v2)
Copy OK

Track 4

Filename M:\_EAC\John Coltrane - Fearless Leader (2006) [FLAC] {6CD Set Prestige PRCD6-30059-6}\CD6\04 - Bahia.wav

Peak level 100.0 %
Extraction speed 1.7 X
Track quality 100.0 %
Test CRC 0A064113
Copy CRC 0A064113
Accurately ripped (confidence 10) [D7C69742] (AR v2)
Copy OK

Track 5

Filename M:\_EAC\John Coltrane - Fearless Leader (2006) [FLAC] {6CD Set Prestige PRCD6-30059-6}\CD6\05 - Goldsboro Express.wav

Peak level 100.0 %
Extraction speed 1.7 X
Track quality 100.0 %
Test CRC ED3CD16C
Copy CRC ED3CD16C
Accurately ripped (confidence 10) [EDE8F1A3] (AR v2)
Copy OK

Track 6

Filename M:\_EAC\John Coltrane - Fearless Leader (2006) [FLAC] {6CD Set Prestige PRCD6-30059-6}\CD6\06 - Time After Time.wav

Peak level 100.0 %
Extraction speed 1.7 X
Track quality 99.9 %
Test CRC 782011EB
Copy CRC 782011EB
Accurately ripped (confidence 10) [0E5791D0] (AR v2)
Copy OK


All tracks accurately ripped

No errors occurred

End of status report

==== Log checksum 3B84C98AA309D1B28E65A7FEA312D4044E6867E3DFA8C840DA4BAC078CF37DC8 ====


John Coltrane - Fearless Leader (2006) {6CD Box Set Prestige PRCD6-30059-6 rec 1957-1958}

John Coltrane - Fearless Leader (2006) {6CD Box Set Prestige PRCD6-30059-6 rec 1957-1958}

John Coltrane - Fearless Leader (2006) {6CD Box Set Prestige PRCD6-30059-6 rec 1957-1958}


NEXT -> John Coltrane - Interplay (2007) {5CD Box Set Prestige PRCD5-30204 rec 1956-58}


===