Subcategories

John Ellis - One Foot In The Swamp (2005)

Posted By: Bezz
John Ellis - One Foot In The Swamp (2005)

John Ellis - One Foot In The Swamp (2005)
EAC rip | FLAC + CUE + LOG | Full Scans | 390 Mb (Incl. Recovery)
Genre ~Modern Jazz, Saxophone Jazz | Label ~ Hyena Records

John Ellis is one of jazz music’s youngest rising stars, having already received raves from publications like The New York Times, Down Beat and All Music Guide, while placing 2nd in the Thelonious Monk International Jazz Saxophonist Competition in 2002. Currently, Ellis is the saxophonist in Ropeadope recording artist Charlie Hunter’s widely celebrated and hard touring trio where his compositions have become staples of Hunter’s albums and live sets. With his own group, Ellis combines his affinity for New Orleans’ music (a city that he considers a second home) with the edge and urgency of modern jazz in New York City (his current home). On his full length HYENA debut entitled, One Foot In The Swamp, cuts like “Happy” and “One For The Helpers” make clear that Ellis is on the verge of worldwide jazz acclaim. He’s joined by special guests including John Scofield, Nicholas Payton and Jason Marsalis.


Tracklist

01 - Intro (Ellis) 0:10
02 - Happy (Ellis) 6:30
03 - Work in Progress (Ellis) 6:38
04 - Country Girls (Ellis) 2:30
05 - Bonus Round (Ellis) 7:09
06 - Seeing Mice (Ellis) 9:09
07 - One for the Kelpers (Ellis) 7:13
08 - Ostinato (Ellis) 6:45
09 - Michael Finnegan 2:51
10 - Chalmette Shawarma 8:17
11 - Sippin' Cider (Ellis) 8:43


Personel

John Ellis (ocarina, bass clarinet, soprano saxophone, tenor saxophone);
Grégoire Maret (harmonica);
Nicholas Payton (trumpet, flugelhorn, sound effects);
Aaron Goldberg (Fender Rhodes piano, Wurlitzer piano, sound effects);
Roland Guerin (acoustic bass, double bass);
John Scofield (guitar);
Jason Marsalis (drums, cymbals, tambourine).


Exact Audio Copy V0.99 prebeta 5 from 4. May 2009

EAC extraction logfile from 21. March 2010, 13:16

John Ellis / One Foot In The Swamp

Used drive : HL-DT-STDVD-RAM GSA-H55N Adapter: 0 ID: 2

Read mode : Secure
Utilize accurate stream : Yes
Defeat audio cache : Yes
Make use of C2 pointers : No

Read offset correction : 102
Overread into Lead-In and Lead-Out : Yes
Fill up missing offset samples with silence : Yes
Delete leading and trailing silent blocks : No
Null samples used in CRC calculations : Yes
Used interface : Installed external ASPI interface
Gap handling : Appended to previous track

Used output format : User Defined Encoder
Selected bitrate : 128 kBit/s
Quality : High
Add ID3 tag : No
Command line compressor : G:\Program Files\Exact Audio Copy\Encoder\flac.exe
Additional command line options : -V -8 -T "Genre=%m" -T "Artist=%a" -T "Title=%t" -T "Album=%g" -T "Year=%y" -T "Tracknumber=%n" -T "Comment=EACpb5 -8" %s


TOC of the extracted CD

Track | Start | Length | Start sector | End sector
––––––––––––––––––––––––––––-
1 | 0:00.00 | 0:10.15 | 0 | 764
2 | 0:10.15 | 6:30.72 | 765 | 30086
3 | 6:41.12 | 6:38.55 | 30087 | 59991
4 | 13:19.67 | 2:30.38 | 59992 | 71279
5 | 15:50.30 | 7:09.42 | 71280 | 103496
6 | 22:59.72 | 9:09.65 | 103497 | 144736
7 | 32:09.62 | 7:13.43 | 144737 | 177254
8 | 39:23.30 | 6:45.07 | 177255 | 207636
9 | 46:08.37 | 2:51.08 | 207637 | 220469
10 | 48:59.45 | 8:17.15 | 220470 | 257759
11 | 57:16.60 | 8:43.22 | 257760 | 297006


Track 1

Filename F:\WAV\01 - Intro.wav

Pre-gap length 0:00:02.00

Peak level 70.5 %
Track quality 100.0 %
Test CRC 7CA1C3DE
Copy CRC 7CA1C3DE
Cannot be verified as accurate (confidence 1) [B9D52DCC], AccurateRip returned [190D5E8C]
Copy OK

Track 2

Filename F:\WAV\02 - Happy.wav

Peak level 99.8 %
Track quality 100.0 %
Test CRC 58019B38
Copy CRC 58019B38
Cannot be verified as accurate (confidence 1) [6B749EB7], AccurateRip returned [3BD1B707]
Copy OK

Track 3

Filename F:\WAV\03 - Work In Progress.wav

Pre-gap length 0:00:01.15

Peak level 96.6 %
Track quality 100.0 %
Test CRC D809E5E7
Copy CRC D809E5E7
Cannot be verified as accurate (confidence 1) [7F169D55], AccurateRip returned [57D41055]
Copy OK

Track 4

Filename F:\WAV\04 - Country Girls.wav

Pre-gap length 0:00:01.72

Peak level 95.4 %
Track quality 100.0 %
Test CRC 295B64E2
Copy CRC 295B64E2
Cannot be verified as accurate (confidence 1) [8712AC8F], AccurateRip returned [2E681E8F]
Copy OK

Track 5

Filename F:\WAV\05 - Bonus Round.wav

Pre-gap length 0:00:01.18

Peak level 96.3 %
Track quality 100.0 %
Test CRC C0AEAB6B
Copy CRC C0AEAB6B
Cannot be verified as accurate (confidence 1) [C53DBF41], AccurateRip returned [F3996929]
Copy OK

Track 6

Filename F:\WAV\06 - Seeing Mice.wav

Pre-gap length 0:00:01.15

Peak level 99.8 %
Track quality 100.0 %
Test CRC 9D998101
Copy CRC 9D998101
Cannot be verified as accurate (confidence 1) [728672E5], AccurateRip returned [EBC468ED]
Copy OK

Track 7

Filename F:\WAV\07 - One For The Helpers.wav

Pre-gap length 0:00:01.60

Peak level 99.0 %
Track quality 100.0 %
Test CRC EA475CCA
Copy CRC EA475CCA
Cannot be verified as accurate (confidence 1) [899900B1], AccurateRip returned [CF0E05C9]
Copy OK

Track 8

Filename F:\WAV\08 - Ostinato.wav

Pre-gap length 0:00:01.65

Peak level 97.0 %
Track quality 99.9 %
Test CRC EE9218B5
Copy CRC EE9218B5
Cannot be verified as accurate (confidence 1) [DB665B94], AccurateRip returned [7C76F754]
Copy OK

Track 9

Filename F:\WAV\09 - Michael Finnegan.wav

Pre-gap length 0:00:01.25

Peak level 96.1 %
Track quality 100.0 %
Test CRC 40A4C32C
Copy CRC 40A4C32C
Cannot be verified as accurate (confidence 1) [23882EA6], AccurateRip returned [6D26F1C6]
Copy OK

Track 10

Filename F:\WAV\10 - Chalmette Shawarma.wav

Pre-gap length 0:00:01.30

Peak level 97.0 %
Track quality 100.0 %
Test CRC 8FA5DBDB
Copy CRC 8FA5DBDB
Cannot be verified as accurate (confidence 1) [98885BBE], AccurateRip returned [26DC1F4E]
Copy OK

Track 11

Filename F:\WAV\11 - Sippin' Cider.wav

Pre-gap length 0:00:01.38

Peak level 97.9 %
Track quality 100.0 %
Test CRC 0574C47A
Copy CRC 0574C47A
Cannot be verified as accurate (confidence 1) [70D2660A], AccurateRip returned [0EDAB692]
Copy OK


No tracks could be verified as accurate
You may have a different pressing from the one(s) in the database

No errors occurred

End of status report



John Ellis - One Foot In The Swamp (2005)


John Ellis - One Foot In The Swamp (2005)



Special thanks to the original uploader, Obelix!