Subcategories

John McLaughlin - After The Rain (1995) {Verve 314 527 467-2}

Posted By: ruskaval
John McLaughlin - After The Rain (1995) {Verve 314 527 467-2}

John McLaughlin - After The Rain (1995) {Verve 314 527 467-2}
EAC rip (secure mode) | FLAC+CUE+LOG -> 375 Mb | MP3 @320 -> 133 Mb
Full Artwork @ 300dpi (png) -> 52 Mb
Polydor / PolyGram / Verve | 314 527 467-2


British guitarist John McLaughlin's spiritual initiation into the American jazz scene came as a member of drummer Tony Williams' Lifetime–as futuristic an organ trio as you'd ever want to hear. During their two years together, Williams, McLaughlin … Full Descriptionand organist Larry Young scandalized the jazz and rock communities alike, yet what they documented on EMERGENCY and TURN IT OVER endures as a visionary paradigm of collective improvisation.

On AFTER THE RAIN, McLaughlin reintroduces the trio format (with Hammond organ wizard Joey DeFrancesco), and pays homage to one of his major influences, John Coltrane, by collaborating with Trane's legendary drummer, Elvin Jones. In "Afro Blue," McLaughlin's single-note phrasing and sudden rhythmic outbursts reflect his affinity for Trane's approach, while he performs the ballad "Naima" with tender understatement. The whole band really comes together on "Tones for Elvin Jones." DeFrancesco's voluble solo sets the pace, and McLaughlin responds with patient thematic development, until he finally whips out some trademark runs, rousing Jones to a fine emotional lather.

Recorded at Clinton Studios, New York on October 4-5, 1994.

Personnel: John McLaughlin (guitar); Joey DeFrancesco (Hammond B-3 organ); Elvin Jones (drums).

tracklist

1. Take The Coltrane
2. My Favorite Things
3. Sing Me Softly The Blues
4. Encuentros
5. Naima
6. Tones For Elvin Jones
7. Crescent
8. Afro Blue
9. After The Rain

John McLaughlin - After The Rain (1995) {Verve 314 527 467-2}


EAC extraction logfile from 17. May 2006, 17:45 for CD
John McLaughlin / After The Rain

Used drive : LITEON DVD-ROM LTD163 Adapter: 0 ID: 2
Read mode : Secure with NO C2, accurate stream, disable cache
Read offset correction : 594
Overread into Lead-In and Lead-Out : No

Used output format : Internal WAV Routines
44.100 Hz; 16 Bit; Stereo

Other options :
Fill up missing offset samples with silence : Yes
Delete leading and trailing silent blocks : No
Native Win32 interface for Win NT & 2000


Track 1
Filename E:\Temp\01 - Take The Coltrane.wav

Pre-gap length 0:00:02.42

Peak level 100.0 %
Track quality 100.0 %
Test CRC 93981C47
Copy CRC 93981C47
Copy OK

Track 2
Filename E:\Temp\02 - My Favorite Things.wav

Pre-gap length 0:00:00.69

Peak level 100.0 %
Track quality 100.0 %
Test CRC F666C322
Copy CRC F666C322
Copy OK

Track 3
Filename E:\Temp\03 - Sing Me Softly Of The Blues.wav

Pre-gap length 0:00:00.53

Peak level 100.0 %
Track quality 100.0 %
Test CRC 1FC27304
Copy CRC 1FC27304
Copy OK

Track 4
Filename E:\Temp\04 - Encuentros.wav

Peak level 100.0 %
Track quality 100.0 %
Test CRC 357F295E
Copy CRC 357F295E
Copy OK

Track 5
Filename E:\Temp\05 - Naima.wav

Pre-gap length 0:00:00.93

Peak level 97.6 %
Track quality 100.0 %
Test CRC 812D80C8
Copy CRC 812D80C8
Copy OK

Track 6
Filename E:\Temp\06 - Tones For Elvin Jones.wav

Pre-gap length 0:00:01.54

Peak level 100.0 %
Track quality 100.0 %
Test CRC AA210ED8
Copy CRC AA210ED8
Copy OK

Track 7
Filename E:\Temp\07 - Crescent.wav

Pre-gap length 0:00:02.10

Peak level 100.0 %
Track quality 100.0 %
Test CRC 5B01E990
Copy CRC 5B01E990
Copy OK

Track 8
Filename E:\Temp\08 - Afro Blue.wav

Pre-gap length 0:00:00.82

Peak level 100.0 %
Track quality 100.0 %
Test CRC 81CA5BAD
Copy CRC 81CA5BAD
Copy OK

Track 9
Filename E:\Temp\09 - After The Rain.wav

Peak level 89.4 %
Track quality 99.9 %
Test CRC 54377A55
Copy CRC 54377A55
Copy OK

No errors occured


End of status report