Subcategories
Tags
Language
Tags

John Pizzarelli Trio - For Centennial Reasons: 100 Year Salute to Nat King Cole (2019)

Posted By: delpotro
John Pizzarelli Trio - For Centennial Reasons: 100 Year Salute to Nat King Cole (2019)

John Pizzarelli Trio - For Centennial Reasons: 100 Year Salute to Nat King Cole (2019)
XLD Rip | FLAC (tracks+log+.cue) - 211 Mb | MP3 CBR 320 kbps - 119 Mb | 00:52:05
Vocal Jazz, Swing | Label: Ghostlight Records

Ghostlight Deluxe, an imprint of Ghostlight Records, will release For Centennial Reasons: 100 Year Salute to Nat King Cole – the new album from the John Pizzarelli Trio – in physical, digital and streaming formats on Friday, February 8. Following high-profile collaborations with Sir Paul McCartney and Michael McDonald, Pizzarelli returns to his roots to honor his hero, the legendary jazz/pop vocalist and pianist Nat King Cole, whose centennial is being celebrated around the world this year with various concerts, books and recordings. For Centennial Reasons… completes an epic trio of Pizzarelli albums saluting Cole, starting with Dear Mr. Cole, which helped put Pizzarelli on the map as an influential jazz guitarist and singer in 1994, and continuing with P.S. Mr. Cole, which cemented his legacy five years later.

or Centennial Reasons… – featuring John Pizzarelli on guitar and vocals, Mike Karn on double bass, and Konrad Paszkudzki on piano – is produced by John Pizzarelli and co-produced by Jessica Molaskey. National tour dates are available at JohnPizzarelli.com.

"Nat King Cole is the reason why I do what I do," comments Pizzarelli. "The joy that he brought me has never faded and the musicality of his group remains fresh and vibrant to this day. I even got to work with Natalie Cole, Nat's daughter, meet Nat's wife Maria Cole, and become friends with and play with Freddy Cole, Nat's brother. We are lucky to have lived in a world that gave us Nat Cole, the man and the music."

For Centennial Reasons… features several songs Pizzarelli hasn't previously recorded, from timeless well-known ballads ("When I Fall in Love," "Body and Soul," "The Very Thought of You") to idiosyncratic jazz classics (Bobby Troup's "I'm Such a Hungry Man," "Save the Bones for Henry Jones"). The album also revisits and updates several numbers that Pizzarelli recorded earlier in his career. "After years of performing live," he explains, "the trio has developed and refined these songs and, over time, figured out what we feel have become the definitive versions. Some arrangements, like 'Route 66,' have gotten much faster. But 'Straighten Up and Fly Right,' which I recorded for my first album way back in 1983, has settled into more of a mellow tone. After all this time, I can slow down and savor it. These songs never get old."

In addition to these original takes on recognized Cole standards, this album introduces two new songs inspired by Cole's spirit. "Nat King Cool," written by Pizzarelli, is a sophisticated homage to the Cole Trio's famous instrumental tracks. With his wife, singer Jessica Molaskey, he penned "A Hundred Years from Now," which craftily uses oft-cited jazz phrases to express the essence of long-term romance.
Tracklist:
1. Straighten Up and Fly Right (04:32)
2. A Hundred Years from Now (02:36)
3. The Very Thought of You (03:22)
4. (I Would Do) Anything for You (03:18)
5. I'm Such a Hungry Man (04:52)
6. It's Only a Paper Moon (04:46)
7. Body and Soul (03:39)
8. Nat King Cool (03:22)
9. When I Fall in Love (04:03)
10. Save the Bones for Henry Jones ('Cause Henry Don't Eat Meat) (02:35)
11. Hit That Jive, Jack! (03:55)
12. Could-'Ja (03:06)
13. Red Sails in the Sunset (03:20)
14. (Get Your Kicks On) Route 66 (04:32)

X Lossless Decoder version 20161007 (149.3)

XLD extraction logfile from 2021-04-10 13:27:58 -0500

John Pizzarelli Trio / For Centennial Reasons: 100 Year Salute To Nat King Cole

Used drive : HL-DT-ST DVDRAM GP75N (revision 1.00)
Media type : Pressed CD

Ripper mode : XLD Secure Ripper
Disable audio cache : OK for the drive with a cache less than 1375KiB
Make use of C2 pointers : NO
Read offset correction : 102
Max retry count : 20
Gap status : Analyzed, Appended (except HTOA)

TOC of the extracted CD
Track | Start | Length | Start sector | End sector
––––––––––––––––––––––––––––-
1 | 00:00:00 | 04:32:54 | 0 | 20453
2 | 04:32:54 | 02:36:49 | 20454 | 32202
3 | 07:09:28 | 03:22:02 | 32203 | 47354
4 | 10:31:30 | 03:18:49 | 47355 | 62253
5 | 13:50:04 | 04:52:30 | 62254 | 84183
6 | 18:42:34 | 04:46:21 | 84184 | 105654
7 | 23:28:55 | 03:39:34 | 105655 | 122113
8 | 27:08:14 | 03:22:24 | 122114 | 137287
9 | 30:30:38 | 04:03:09 | 137288 | 155521
10 | 34:33:47 | 02:35:55 | 155522 | 167201
11 | 37:09:27 | 03:55:65 | 167202 | 184891
12 | 41:05:17 | 03:06:09 | 184892 | 198850
13 | 44:11:26 | 03:20:51 | 198851 | 213901
14 | 47:32:02 | 04:33:41 | 213902 | 234417

List of alternate offset correction values
# | Absolute | Relative | Confidence
–––––––––––––––––––––
1 | 6 | -96 | 4

AccurateRip Summary (DiscID: 001af396-011eef1c-a20c350e)
Track 01 : OK (v2, confidence 4/4, with different offset)
Track 02 : OK (v2, confidence 4/4, with different offset)
Track 03 : OK (v2, confidence 4/4, with different offset)
Track 04 : OK (v2, confidence 4/4, with different offset)
Track 05 : OK (v2, confidence 4/4, with different offset)
Track 06 : OK (v2, confidence 4/4, with different offset)
Track 07 : OK (v2, confidence 4/4, with different offset)
Track 08 : OK (v2, confidence 4/4, with different offset)
Track 09 : OK (v2, confidence 4/4, with different offset)
Track 10 : OK (v2, confidence 4/4, with different offset)
Track 11 : OK (v2, confidence 4/4, with different offset)
Track 12 : OK (v2, confidence 4/4, with different offset)
Track 13 : OK (v2, confidence 4/4, with different offset)
Track 14 : OK (v2, confidence 4/4, with different offset)
->All tracks accurately ripped.

All Tracks
Album gain : -7.21 dB
Peak : 0.987030
Statistics
Read error : 0
Jitter error (maybe fixed) : 0
Retry sector count : 0
Damaged sector count : 0

Track 01
Filename : /Users/davincisbrush/Downloads/John Pizzarelli Trio - For Centennial Reasons: 100 Year Salute To Nat King Cole (2019) [FLAC]/01 Straighten Up and Fly Right.flac
Pre-gap length : 00:02:00

Track gain : -7.21 dB
Peak : 0.986359
CRC32 hash (test run) : 18A6D5F9
CRC32 hash : 18A6D5F9
CRC32 hash (skip zero) : 2478A71F
AccurateRip v1 signature : 5914EF80
AccurateRip v2 signature : 72B659DA (81194F52 w/correction)
->Accurately ripped with different offset (v2, confidence 4/4, offset -96)
Statistics
Read error : 0
Jitter error (maybe fixed) : 0
Retry sector count : 0
Damaged sector count : 0

Track 02
Filename : /Users/davincisbrush/Downloads/John Pizzarelli Trio - For Centennial Reasons: 100 Year Salute To Nat King Cole (2019) [FLAC]/02 A Hundred Yars From Now.flac

Track gain : -6.73 dB
Peak : 0.986389
CRC32 hash (test run) : 50346A30
CRC32 hash : 50346A30
CRC32 hash (skip zero) : 93E0D154
AccurateRip v1 signature : 5F517026
AccurateRip v2 signature : FD8B86E7 (3301B70A w/correction)
->Accurately ripped with different offset (v2, confidence 4/4, offset -96)
Statistics
Read error : 0
Jitter error (maybe fixed) : 0
Retry sector count : 0
Damaged sector count : 0

Track 03
Filename : /Users/davincisbrush/Downloads/John Pizzarelli Trio - For Centennial Reasons: 100 Year Salute To Nat King Cole (2019) [FLAC]/03 The Very Thought of You.flac

Track gain : -5.62 dB
Peak : 0.986084
CRC32 hash (test run) : 209CE7BB
CRC32 hash : 209CE7BB
CRC32 hash (skip zero) : BE5B97B0
AccurateRip v1 signature : B5520BBD
AccurateRip v2 signature : 760CB178 (CD57B823 w/correction)
->Accurately ripped with different offset (v2, confidence 4/4, offset -96)
Statistics
Read error : 0
Jitter error (maybe fixed) : 0
Retry sector count : 0
Damaged sector count : 0

Track 04
Filename : /Users/davincisbrush/Downloads/John Pizzarelli Trio - For Centennial Reasons: 100 Year Salute To Nat King Cole (2019) [FLAC]/04 (I Would Do) Anthing for You.flac

Track gain : -8.17 dB
Peak : 0.987000
CRC32 hash (test run) : 2357FBDD
CRC32 hash : 2357FBDD
CRC32 hash (skip zero) : 7206C904
AccurateRip v1 signature : 22ACC403
AccurateRip v2 signature : 11E6588C (F81CEC96 w/correction)
->Accurately ripped with different offset (v2, confidence 4/4, offset -96)
Statistics
Read error : 0
Jitter error (maybe fixed) : 0
Retry sector count : 0
Damaged sector count : 0

Track 05
Filename : /Users/davincisbrush/Downloads/John Pizzarelli Trio - For Centennial Reasons: 100 Year Salute To Nat King Cole (2019) [FLAC]/05 I’m Such a Hungry Man.flac

Track gain : -6.64 dB
Peak : 0.986267
CRC32 hash (test run) : 3B642F0A
CRC32 hash : 3B642F0A
CRC32 hash (skip zero) : 28BD696E
AccurateRip v1 signature : C4BD2E32
AccurateRip v2 signature : 94E6D899 (F7349E9E w/correction)
->Accurately ripped with different offset (v2, confidence 4/4, offset -96)
Statistics
Read error : 0
Jitter error (maybe fixed) : 0
Retry sector count : 0
Damaged sector count : 0

Track 06
Filename : /Users/davincisbrush/Downloads/John Pizzarelli Trio - For Centennial Reasons: 100 Year Salute To Nat King Cole (2019) [FLAC]/06 It’s Only a Paper Moon.flac

Track gain : -7.79 dB
Peak : 0.986481
CRC32 hash (test run) : 6ADFF3B0
CRC32 hash : 6ADFF3B0
CRC32 hash (skip zero) : 033CBD6A
AccurateRip v1 signature : 606D7FA4
AccurateRip v2 signature : 6473093C (3A8C53F6 w/correction)
->Accurately ripped with different offset (v2, confidence 4/4, offset -96)
Statistics
Read error : 0
Jitter error (maybe fixed) : 0
Retry sector count : 0
Damaged sector count : 0

Track 07
Filename : /Users/davincisbrush/Downloads/John Pizzarelli Trio - For Centennial Reasons: 100 Year Salute To Nat King Cole (2019) [FLAC]/07 Body and Soul.flac

Track gain : -6.74 dB
Peak : 0.986145
CRC32 hash (test run) : C9B357F5
CRC32 hash : C9B357F5
CRC32 hash (skip zero) : 2CD0DFC4
AccurateRip v1 signature : DAA26352
AccurateRip v2 signature : 7353D717 (B03F6687 w/correction)
->Accurately ripped with different offset (v2, confidence 4/4, offset -96)
Statistics
Read error : 0
Jitter error (maybe fixed) : 0
Retry sector count : 0
Damaged sector count : 0

Track 08
Filename : /Users/davincisbrush/Downloads/John Pizzarelli Trio - For Centennial Reasons: 100 Year Salute To Nat King Cole (2019) [FLAC]/08 Nat King Cool.flac

Track gain : -7.41 dB
Peak : 0.986633
CRC32 hash (test run) : A7B87822
CRC32 hash : A7B87822
CRC32 hash (skip zero) : CD26D78B
AccurateRip v1 signature : 67DC8BD3
AccurateRip v2 signature : E85A2743 (71E5413A w/correction)
->Accurately ripped with different offset (v2, confidence 4/4, offset -96)
Statistics
Read error : 0
Jitter error (maybe fixed) : 0
Retry sector count : 0
Damaged sector count : 0

Track 09
Filename : /Users/davincisbrush/Downloads/John Pizzarelli Trio - For Centennial Reasons: 100 Year Salute To Nat King Cole (2019) [FLAC]/09 When I Fall in Love.flac

Track gain : -6.37 dB
Peak : 0.986206
CRC32 hash (test run) : E7CD125D
CRC32 hash : E7CD125D
CRC32 hash (skip zero) : ACF17175
AccurateRip v1 signature : AAD8C756
AccurateRip v2 signature : 987CE4FC (88F95B7E w/correction)
->Accurately ripped with different offset (v2, confidence 4/4, offset -96)
Statistics
Read error : 0
Jitter error (maybe fixed) : 0
Retry sector count : 0
Damaged sector count : 0

Track 10
Filename : /Users/davincisbrush/Downloads/John Pizzarelli Trio - For Centennial Reasons: 100 Year Salute To Nat King Cole (2019) [FLAC]/10 Save the Bones for Henry Jones (’Cause Henry Don’t Eat No Meat).flac

Track gain : -7.25 dB
Peak : 0.987030
CRC32 hash (test run) : DB217646
CRC32 hash : DB217646
CRC32 hash (skip zero) : 5963CD9D
AccurateRip v1 signature : 739B2498
AccurateRip v2 signature : 129B2061 (1B342212 w/correction)
->Accurately ripped with different offset (v2, confidence 4/4, offset -96)
Statistics
Read error : 0
Jitter error (maybe fixed) : 0
Retry sector count : 0
Damaged sector count : 0

Track 11
Filename : /Users/davincisbrush/Downloads/John Pizzarelli Trio - For Centennial Reasons: 100 Year Salute To Nat King Cole (2019) [FLAC]/11 Hit That Jive, Jack!.flac

Track gain : -7.69 dB
Peak : 0.986786
CRC32 hash (test run) : BA489F27
CRC32 hash : BA489F27
CRC32 hash (skip zero) : 2B51873A
AccurateRip v1 signature : A7D99B01
AccurateRip v2 signature : 7558C5AA (F63E8906 w/correction)
->Accurately ripped with different offset (v2, confidence 4/4, offset -96)
Statistics
Read error : 0
Jitter error (maybe fixed) : 0
Retry sector count : 0
Damaged sector count : 0

Track 12
Filename : /Users/davincisbrush/Downloads/John Pizzarelli Trio - For Centennial Reasons: 100 Year Salute To Nat King Cole (2019) [FLAC]/12 Could-’Ja.flac

Track gain : -6.40 dB
Peak : 0.986115
CRC32 hash (test run) : DEC31A76
CRC32 hash : DEC31A76
CRC32 hash (skip zero) : 92BB8BF2
AccurateRip v1 signature : 021BCB65
AccurateRip v2 signature : 6825A276 (BABEB38A w/correction)
->Accurately ripped with different offset (v2, confidence 4/4, offset -96)
Statistics
Read error : 0
Jitter error (maybe fixed) : 0
Retry sector count : 0
Damaged sector count : 0

Track 13
Filename : /Users/davincisbrush/Downloads/John Pizzarelli Trio - For Centennial Reasons: 100 Year Salute To Nat King Cole (2019) [FLAC]/13 Red Sails in the Sunset.flac

Track gain : -7.55 dB
Peak : 0.986298
CRC32 hash (test run) : 94B1C909
CRC32 hash : 94B1C909
CRC32 hash (skip zero) : 50460917
AccurateRip v1 signature : 2CC23CF2
AccurateRip v2 signature : 5ACD8094 (F863D9D7 w/correction)
->Accurately ripped with different offset (v2, confidence 4/4, offset -96)
Statistics
Read error : 0
Jitter error (maybe fixed) : 0
Retry sector count : 0
Damaged sector count : 0

Track 14
Filename : /Users/davincisbrush/Downloads/John Pizzarelli Trio - For Centennial Reasons: 100 Year Salute To Nat King Cole (2019) [FLAC]/14 (Get Your Kicks on) Route 66.flac

Track gain : -7.08 dB
Peak : 0.986053
CRC32 hash (test run) : 95A046EC
CRC32 hash : 95A046EC
CRC32 hash (skip zero) : C457C223
AccurateRip v1 signature : DE0CCECB
AccurateRip v2 signature : 76366269 (3673E427 w/correction)
->Accurately ripped with different offset (v2, confidence 4/4, offset -96)
Statistics
Read error : 0
Jitter error (maybe fixed) : 0
Retry sector count : 0
Damaged sector count : 0

No errors occurred

End of status report

––-BEGIN XLD SIGNATURE––-
kf7KEicJ7GaP8QiSYdysBKJsgri72fNDJ5XtP3zP4PFfgp9B3BFNaVtU4wMiKQmEygu7r85.42xMZNCV3deCuvKBER3_Y4jNhJILb3O
––-END XLD SIGNATURE––-

Thanks to the Original ripper !