Subcategories
Tags
Language
Tags

John Prine - Crooked Piece Of Time: The Atlantic & Asylum Albums 1971-1980 (2020)

Posted By: delpotro
John Prine - Crooked Piece Of Time: The Atlantic & Asylum Albums 1971-1980 (2020)

John Prine - Crooked Piece Of Time: The Atlantic & Asylum Albums 1971-1980 (2020)
EAC Rip | FLAC (tracks+log+.cue) | 04:17:44 | 1,56 Gb
Folk, Singer-Songwriter | Label: Rhino Entertainment, Atlantic Records

One of the most celebrated singer/songwriters of his generation – and recipient of the Grammy’s 2020 Lifetime Achievement Award – John Prine was a master storyteller whose work was often witty and always heartfelt, frequently offering a sly but sincere reflection of his Midwestern American roots. While Prine's songs were often rooted in folk and country flavors, he was no stranger to rock & roll, R&B, and rockabilly, and he readily adapted his rough but expressive voice to his musical surroundings. His songs were recorded by a long list of well-respected artists, including Joan Baez, Johnny Cash, Bonnie Raitt, Kris Kristofferson, Carly Simon, George Strait, Norah Jones, John Denver, Miranda Lambert, The Everly Brothers, Bette Midler, Paul Westerberg, Tammy Wynette and Dwight Yoakam. John Prine’s Atlantic and Asylum albums are being released here in one 7-CD boxed set – John Prine (1971), Diamonds In The Rough (1972), Sweet Revenge (1973), Common Sense (1975), Bruised Orange (1978), Pink Cadillac (1979) and Storm Windows (1980) – that encompasses an essential and timeless American songbook.
Tracklist:
Disc 1 (44:38)
1. Illegal Smile (2020 Remaster) (03:13)
2. Spanish Pipedream (2020 Remaster) (02:40)
3. Hello in There (2020 Remaster) (04:31)
4. Sam Stone (2020 Remaster) (04:16)
5. Paradise (2020 Remaster) (03:13)
6. Pretty Good (2020 Remaster) (03:39)
7. Your Flag Decal Won't Get You into Heaven Anymore (2020 Remaster) (02:52)
8. Far from Me (2020 Remaster) (03:42)
9. Angel from Montgomery (2020 Remaster) (03:46)
10. Quiet Man (2020 Remaster) (02:53)
11. Donald and Lydia (2020 Remaster) (04:29)
12. Six O'Clock News (2020 Remaster) (02:52)
13. Flashback Blues (2020 Remaster) (02:32)

Disc 2 (38:34)
1. Everybody (2020 Remaster) (02:47)
2. The Torch Singer (2020 Remaster) (02:56)
3. Souvenirs (2020 Remaster) (03:37)
4. The Late John Garfield Blues (2020 Remaster) (03:03)
5. Sour Grapes (2020 Remaster) (02:05)
6. Billy the Bum (2020 Remaster) (04:44)
7. The Frying Pan (2020 Remaster) (01:53)
8. Yes I Guess They Oughta Name a Drink After You (2020 Remaster) (02:09)
9. Take the Star Out of the Window (2020 Remaster) (02:10)
10. The Great Compromise (2020 Remaster) (04:54)
11. Clocks and Spoons (2020 Remaster) (03:14)
12. Rocky Mountain Time (2020 Remaster) (03:09)
13. Diamonds in the Rough (2020 Remaster) (01:53)

Disc 3 (38:54)
1. Sweet Revenge (2020 Remaster) (02:41)
2. Please Don't Bury Me (2020 Remaster) (02:51)
3. Christmas in Prison (2020 Remaster) (03:13)
4. Dear Abby (2020 Remaster) (04:22)
5. Blue Umbrella (2020 Remaster) (03:29)
6. Often Is a Word I Seldom Use (2020 Remaster) (03:04)
7. Onomatopoeia (2020 Remaster) (02:22)
8. Grandpa Was a Carpenter (2020 Remaster) (02:13)
9. The Accident (Things Could Be Worse) (2020 Remaster) (03:24)
10. Mexican Home (2020 Remaster) (04:41)
11. A Good Time (2020 Remaster) (03:31)
12. Nine Pound Hammer (2020 Remaster) (03:03)

Disc 4 (32:01)
1. Middle Man (2020 Remaster) (02:32)
2. Common Sense (2020 Remaster) (03:12)
3. Come Back to Us Barbara Lewis Hare Krisna Beauregard (2020 Remaster) (03:19)
4. Wedding Day in Funeralville (2020 Remaster) (02:31)
5. Way Down (2020 Remaster) (02:24)
6. My Own Best Friend (2020 Remaster) (03:16)
7. Forbidden Jimmy (2020 Remaster) (02:55)
8. Saddle in the Rain (2020 Remaster) (03:34)
9. That Close to You (2020 Remaster) (02:47)
10. He Was in Heaven Before He Died (2020 Remaster) (02:15)
11. You Never Can Tell (2020 Remaster) (03:16)

Disc 5 (32:46)
1. Fish and Whistle (2020 Remaster) (03:13)
2. There She Goes (2020 Remaster) (03:23)
3. If You Don't Want My Love (2020 Remaster) (03:05)
4. That's the Way That the World Goes 'Round (2020 Remaster) (03:21)
5. Bruised Orange (Chain of Sorrow) (2020 Remaster) (05:23)
6. Sabu Visits the Twin Cities Alone (2020 Remaster) (02:54)
7. Aw Heck (2020 Remaster) (02:21)
8. Crooked Piece of Time (2020 Remaster) (02:53)
9. Iron Ore Betty (2020 Remaster) (02:42)
10. The Hobo Song (2020 Remaster) (03:31)

Disc 6 (37:21)
1. Chinatown (2020 Remaster) (02:25)
2. Automobile (2020 Remaster) (04:23)
3. Killing the Blues (2020 Remaster) (04:36)
4. No Name Girl (2020 Remaster) (03:31)
5. Saigon (2020 Remaster) (03:19)
6. Cold War (This Cold War with You) (2020 Remaster) (04:13)
7. Baby Let's Play House (2020 Remaster) (03:32)
8. Down by the Side of the Road (2020 Remaster) (05:03)
9. How Lucky (2020 Remaster) (03:39)
10. Ubangi Stomp (2020 Remaster) (02:40)

Disc 7 (32:53)
1. Shop Talk (2020 Remaster) (03:14)
2. Living in the Future (2020 Remaster) (03:28)
3. It's Happening to You (2020 Remaster) (02:18)
4. Sleepy Eyed Boy (2020 Remaster) (02:53)
5. All Night Blue (2020 Remaster) (02:47)
6. Just Wanna Be with You (2020 Remaster) (03:09)
7. Storm Windows (2020 Remaster) (05:05)
8. Baby Ruth (2020 Remaster) (03:10)
9. One Red Rose (2020 Remaster) (03:17)
10. I Had a Dream (2020 Remaster) (03:32)

Exact Audio Copy V1.3 from 2. September 2016

EAC extraction logfile from 23. November 2020, 15:51

John Prine / Bruised Orange

Used drive : hp DVD A DH16ACSHR Adapter: 1 ID: 0

Read mode : Secure
Utilize accurate stream : Yes
Defeat audio cache : Yes
Make use of C2 pointers : No

Read offset correction : 6
Overread into Lead-In and Lead-Out : No
Fill up missing offset samples with silence : Yes
Delete leading and trailing silent blocks : No
Null samples used in CRC calculations : Yes
Used interface : Native Win32 interface for Win NT & 2000
Gap handling : Appended to previous track

Used output format : User Defined Encoder
Selected bitrate : 128 kBit/s
Quality : High
Add ID3 tag : No
Command line compressor : C:\Program Files (x86)\Exact Audio Copy\Flac\flac.exe
Additional command line options : -8 -V -T "ARTIST=%artist%" -T "TITLE=%title%" -T "ALBUM=%albumtitle%" -T "DATE=%year%" -T "TRACKNUMBER=%tracknr%" -T "GENRE=%genre%" -T "PERFORMER=%albuminterpret%" -T "COMPOSER=%composer%" %haslyrics%–tag-from-file=LYRICS="%lyricsfile%"%haslyrics% -T "ALBUMARTIST=%albumartist%" -T "DISCNUMBER=%cdnumber%" -T "TOTALDISCS=%totalcds%" -T "TOTALTRACKS=%numtracks%" -T "COMMENT=%comment%" %source% -o %dest%


TOC of the extracted CD

Track | Start | Length | Start sector | End sector
––––––––––––––––––––––––––––-
1 | 0:00.00 | 3:13.65 | 0 | 14539
2 | 3:13.65 | 3:23.69 | 14540 | 29833
3 | 6:37.59 | 3:05.18 | 29834 | 43726
4 | 9:43.02 | 3:21.06 | 43727 | 58807
5 | 13:04.08 | 5:23.46 | 58808 | 83078
6 | 18:27.54 | 2:54.39 | 83079 | 96167
7 | 21:22.18 | 2:21.57 | 96168 | 106799
8 | 23:44.00 | 2:53.17 | 106800 | 119791
9 | 26:37.17 | 2:42.21 | 119792 | 131962
10 | 29:19.38 | 3:31.03 | 131963 | 147790


Track 1

Filename D:\EAC Rips (No Backup)\Bruised Orange\01 - Fish and Whistle.wav

Pre-gap length 0:00:02.00

Peak level 99.0 %
Extraction speed 1.3 X
Track quality 99.9 %
Test CRC 3FBEF77C
Copy CRC 3FBEF77C
Accurately ripped (confidence 1) [4474613A] (AR v2)
Copy OK

Track 2

Filename D:\EAC Rips (No Backup)\Bruised Orange\02 - There She Goes.wav

Peak level 98.9 %
Extraction speed 2.0 X
Track quality 100.0 %
Test CRC 905D64F6
Copy CRC 905D64F6
Accurately ripped (confidence 1) [E4064CD1] (AR v2)
Copy OK

Track 3

Filename D:\EAC Rips (No Backup)\Bruised Orange\03 - If You Don't Want My Love.wav

Peak level 99.2 %
Extraction speed 1.5 X
Track quality 99.9 %
Test CRC C11F2A6F
Copy CRC C11F2A6F
Accurately ripped (confidence 1) [55EA82D0] (AR v2)
Copy OK

Track 4

Filename D:\EAC Rips (No Backup)\Bruised Orange\04 - That's the Way the World Goes 'Round.wav

Peak level 98.9 %
Extraction speed 2.3 X
Track quality 100.0 %
Test CRC F8F18DA5
Copy CRC F8F18DA5
Accurately ripped (confidence 1) [62FDB5A8] (AR v2)
Copy OK

Track 5

Filename D:\EAC Rips (No Backup)\Bruised Orange\05 - Bruised Orange (Chain of Sorrow).wav

Peak level 100.0 %
Extraction speed 2.6 X
Track quality 100.0 %
Test CRC 969840F4
Copy CRC 969840F4
Accurately ripped (confidence 1) [F6945FE4] (AR v2)
Copy OK

Track 6

Filename D:\EAC Rips (No Backup)\Bruised Orange\06 - Sabu Visits the Twin Cities Alone.wav

Peak level 94.2 %
Extraction speed 2.5 X
Track quality 100.0 %
Test CRC A5DB4CCC
Copy CRC A5DB4CCC
Accurately ripped (confidence 1) [C7341A6B] (AR v2)
Copy OK

Track 7

Filename D:\EAC Rips (No Backup)\Bruised Orange\07 - Aw Heck.wav

Peak level 98.0 %
Extraction speed 1.6 X
Track quality 99.9 %
Test CRC D370AB8E
Copy CRC D370AB8E
Accurately ripped (confidence 1) [9424379E] (AR v2)
Copy OK

Track 8

Filename D:\EAC Rips (No Backup)\Bruised Orange\08 - Crooked Piece of Time.wav

Peak level 99.9 %
Extraction speed 2.7 X
Track quality 100.0 %
Test CRC EC9C4056
Copy CRC EC9C4056
Accurately ripped (confidence 1) [3B5A60E3] (AR v2)
Copy OK

Track 9

Filename D:\EAC Rips (No Backup)\Bruised Orange\09 - Iron Ore Betty.wav

Peak level 99.2 %
Extraction speed 2.8 X
Track quality 100.0 %
Test CRC F5060BF8
Copy CRC F5060BF8
Accurately ripped (confidence 1) [EA86843E] (AR v2)
Copy OK

Track 10

Filename D:\EAC Rips (No Backup)\Bruised Orange\10 - The Hobo Song.wav

Peak level 94.3 %
Extraction speed 3.0 X
Track quality 100.0 %
Test CRC 1518A057
Copy CRC 1518A057
Accurately ripped (confidence 1) [99B1FB6A] (AR v2)
Copy OK


All tracks accurately ripped

No errors occurred

End of status report

–– CUETools DB Plugin V2.1.6

[CTDB TOCID: DvoHqDZbCjmCTL_hFPR5QdCoxLg-] found
Submit result: DvoHqDZbCjmCTL_hFPR5QdCoxLg- has been confirmed
Track | CTDB Status
1 | (17/17) Accurately ripped
2 | (17/17) Accurately ripped
3 | (17/17) Accurately ripped
4 | (17/17) Accurately ripped
5 | (17/17) Accurately ripped
6 | (17/17) Accurately ripped
7 | (17/17) Accurately ripped
8 | (17/17) Accurately ripped
9 | (17/17) Accurately ripped
10 | (17/17) Accurately ripped


==== Log checksum 46308D3F64C9477DFC5BD43098519F7614ED9797C63DFE3C7C2D04AFB8A83155 ====
Exact Audio Copy V1.3 from 2. September 2016

EAC extraction logfile from 23. November 2020, 15:03

John Prine / Common Sense

Used drive : hp DVD A DH16ACSHR Adapter: 1 ID: 0

Read mode : Secure
Utilize accurate stream : Yes
Defeat audio cache : Yes
Make use of C2 pointers : No

Read offset correction : 6
Overread into Lead-In and Lead-Out : No
Fill up missing offset samples with silence : Yes
Delete leading and trailing silent blocks : No
Null samples used in CRC calculations : Yes
Used interface : Native Win32 interface for Win NT & 2000
Gap handling : Appended to previous track

Used output format : User Defined Encoder
Selected bitrate : 128 kBit/s
Quality : High
Add ID3 tag : No
Command line compressor : C:\Program Files (x86)\Exact Audio Copy\Flac\flac.exe
Additional command line options : -8 -V -T "ARTIST=%artist%" -T "TITLE=%title%" -T "ALBUM=%albumtitle%" -T "DATE=%year%" -T "TRACKNUMBER=%tracknr%" -T "GENRE=%genre%" -T "PERFORMER=%albuminterpret%" -T "COMPOSER=%composer%" %haslyrics%–tag-from-file=LYRICS="%lyricsfile%"%haslyrics% -T "ALBUMARTIST=%albumartist%" -T "DISCNUMBER=%cdnumber%" -T "TOTALDISCS=%totalcds%" -T "TOTALTRACKS=%numtracks%" -T "COMMENT=%comment%" %source% -o %dest%


TOC of the extracted CD

Track | Start | Length | Start sector | End sector
––––––––––––––––––––––––––––-
1 | 0:00.00 | 2:32.72 | 0 | 11471
2 | 2:32.72 | 3:12.39 | 11472 | 25910
3 | 5:45.36 | 3:19.49 | 25911 | 40884
4 | 9:05.10 | 2:31.24 | 40885 | 52233
5 | 11:36.34 | 2:24.63 | 52234 | 63096
6 | 14:01.22 | 3:16.04 | 63097 | 77800
7 | 17:17.26 | 2:55.08 | 77801 | 90933
8 | 20:12.34 | 3:34.33 | 90934 | 107016
9 | 23:46.67 | 2:47.07 | 107017 | 119548
10 | 26:33.74 | 2:15.07 | 119549 | 129680
11 | 28:49.06 | 3:16.58 | 129681 | 144438


Track 1

Filename D:\EAC Rips (No Backup)\Common Sense\01 - Middleman.wav

Pre-gap length 0:00:02.00

Peak level 100.0 %
Extraction speed 1.7 X
Track quality 100.0 %
Test CRC BF247123
Copy CRC BF247123
Accurately ripped (confidence 1) [21A9AA35] (AR v2)
Copy OK

Track 2

Filename D:\EAC Rips (No Backup)\Common Sense\02 - Common Sense.wav

Peak level 100.0 %
Extraction speed 1.9 X
Track quality 100.0 %
Test CRC 082F9101
Copy CRC 082F9101
Accurately ripped (confidence 1) [3E28E491] (AR v2)
Copy OK

Track 3

Filename D:\EAC Rips (No Backup)\Common Sense\03 - Come Back to Us Barbara Lewis Hare Krishna Beauregard.wav

Peak level 98.9 %
Extraction speed 2.1 X
Track quality 100.0 %
Test CRC 4E7E04C9
Copy CRC 4E7E04C9
Accurately ripped (confidence 1) [C3D558DD] (AR v2)
Copy OK

Track 4

Filename D:\EAC Rips (No Backup)\Common Sense\04 - Wedding Day in Funeralville.wav

Peak level 99.6 %
Extraction speed 2.1 X
Track quality 100.0 %
Test CRC 5222E9FF
Copy CRC 5222E9FF
Accurately ripped (confidence 1) [9D151A4A] (AR v2)
Copy OK

Track 5

Filename D:\EAC Rips (No Backup)\Common Sense\05 - Way Down.wav

Peak level 99.0 %
Extraction speed 2.2 X
Track quality 100.0 %
Test CRC 43181A29
Copy CRC 43181A29
Accurately ripped (confidence 1) [AF5372AF] (AR v2)
Copy OK

Track 6

Filename D:\EAC Rips (No Backup)\Common Sense\06 - My Own Best Friend.wav

Peak level 100.0 %
Extraction speed 2.4 X
Track quality 100.0 %
Test CRC AC373A7B
Copy CRC AC373A7B
Accurately ripped (confidence 1) [C1DED6F1] (AR v2)
Copy OK

Track 7

Filename D:\EAC Rips (No Backup)\Common Sense\07 - Forbidden Jimmy.wav

Peak level 100.0 %
Extraction speed 2.5 X
Track quality 100.0 %
Test CRC 7678F30E
Copy CRC 7678F30E
Accurately ripped (confidence 1) [6E0A1B12] (AR v2)
Copy OK

Track 8

Filename D:\EAC Rips (No Backup)\Common Sense\08 - Saddle in the Rain.wav

Peak level 100.0 %
Extraction speed 1.9 X
Track quality 99.9 %
Test CRC C2F97F0C
Copy CRC C2F97F0C
Accurately ripped (confidence 1) [9484BA17] (AR v2)
Copy OK

Track 9

Filename D:\EAC Rips (No Backup)\Common Sense\09 - That Close to You.wav

Peak level 100.0 %
Extraction speed 2.7 X
Track quality 100.0 %
Test CRC BB8091EE
Copy CRC BB8091EE
Accurately ripped (confidence 1) [DC1E8FD7] (AR v2)
Copy OK

Track 10

Filename D:\EAC Rips (No Backup)\Common Sense\10 - He Was in Heaven Before He Died.wav

Peak level 98.9 %
Extraction speed 1.7 X
Track quality 99.9 %
Test CRC 67143D93
Copy CRC 67143D93
Accurately ripped (confidence 1) [F13992EA] (AR v2)
Copy OK

Track 11

Filename D:\EAC Rips (No Backup)\Common Sense\11 - You Never Can Tell.wav

Peak level 100.0 %
Extraction speed 3.0 X
Track quality 100.0 %
Test CRC A78BD289
Copy CRC A78BD289
Accurately ripped (confidence 1) [61D35BDD] (AR v2)
Copy OK


All tracks accurately ripped

No errors occurred

End of status report

–– CUETools DB Plugin V2.1.6

[CTDB TOCID: eUXOsxQ8aukMe4zvj40kcK_W4tc-] found
Submit result: eUXOsxQ8aukMe4zvj40kcK_W4tc- has been confirmed
Track | CTDB Status
1 | (17/17) Accurately ripped
2 | (17/17) Accurately ripped
3 | (17/17) Accurately ripped
4 | (17/17) Accurately ripped
5 | (17/17) Accurately ripped
6 | (17/17) Accurately ripped
7 | (17/17) Accurately ripped
8 | (17/17) Accurately ripped
9 | (17/17) Accurately ripped
10 | (17/17) Accurately ripped
11 | (17/17) Accurately ripped


==== Log checksum 0B3D2EE4F0977FB9C7E29C18BBF01BF2AAB277F9BB973BD5B8C6F49BCA32C475 ====
Exact Audio Copy V1.3 from 2. September 2016

EAC extraction logfile from 22. November 2020, 16:45

John Prine / Diamonds in the Rough

Used drive : hp DVD A DH16ACSHR Adapter: 1 ID: 0

Read mode : Secure
Utilize accurate stream : Yes
Defeat audio cache : Yes
Make use of C2 pointers : No

Read offset correction : 6
Overread into Lead-In and Lead-Out : No
Fill up missing offset samples with silence : Yes
Delete leading and trailing silent blocks : No
Null samples used in CRC calculations : Yes
Used interface : Native Win32 interface for Win NT & 2000
Gap handling : Appended to previous track

Used output format : User Defined Encoder
Selected bitrate : 128 kBit/s
Quality : High
Add ID3 tag : No
Command line compressor : C:\Program Files (x86)\Exact Audio Copy\Flac\flac.exe
Additional command line options : -8 -V -T "ARTIST=%artist%" -T "TITLE=%title%" -T "ALBUM=%albumtitle%" -T "DATE=%year%" -T "TRACKNUMBER=%tracknr%" -T "GENRE=%genre%" -T "PERFORMER=%albuminterpret%" -T "COMPOSER=%composer%" %haslyrics%–tag-from-file=LYRICS="%lyricsfile%"%haslyrics% -T "ALBUMARTIST=%albumartist%" -T "DISCNUMBER=%cdnumber%" -T "TOTALDISCS=%totalcds%" -T "TOTALTRACKS=%numtracks%" -T "COMMENT=%comment%" %source% -o %dest%


TOC of the extracted CD

Track | Start | Length | Start sector | End sector
––––––––––––––––––––––––––––-
1 | 0:00.00 | 2:47.01 | 0 | 12525
2 | 2:47.01 | 2:56.33 | 12526 | 25758
3 | 5:43.34 | 3:37.50 | 25759 | 42083
4 | 9:21.09 | 3:03.73 | 42084 | 55881
5 | 12:25.07 | 2:05.34 | 55882 | 65290
6 | 14:30.41 | 4:44.35 | 65291 | 86625
7 | 19:15.01 | 1:53.67 | 86626 | 95167
8 | 21:08.68 | 2:09.05 | 95168 | 104847
9 | 23:17.73 | 2:10.33 | 104848 | 114630
10 | 25:28.31 | 4:54.49 | 114631 | 136729
11 | 30:23.05 | 3:14.29 | 136730 | 151308
12 | 33:37.34 | 3:09.67 | 151309 | 165550
13 | 36:47.26 | 1:53.29 | 165551 | 174054


Track 1

Filename D:\EAC Rips (No Backup)\Diamonds in the Rough\01 - Everybody.wav

Pre-gap length 0:00:02.00

Peak level 97.7 %
Extraction speed 1.7 X
Track quality 100.0 %
Test CRC 11961A21
Copy CRC 11961A21
Accurately ripped (confidence 1) [0AB6BFAC] (AR v2)
Copy OK

Track 2

Filename D:\EAC Rips (No Backup)\Diamonds in the Rough\02 - The Torch Singer.wav

Peak level 92.9 %
Extraction speed 1.9 X
Track quality 100.0 %
Test CRC AFBE6F8B
Copy CRC AFBE6F8B
Accurately ripped (confidence 1) [57028976] (AR v2)
Copy OK

Track 3

Filename D:\EAC Rips (No Backup)\Diamonds in the Rough\03 - Souvenirs.wav

Peak level 81.5 %
Extraction speed 2.1 X
Track quality 100.0 %
Test CRC 72A875A3
Copy CRC 72A875A3
Accurately ripped (confidence 1) [1FDA6936] (AR v2)
Copy OK

Track 4

Filename D:\EAC Rips (No Backup)\Diamonds in the Rough\04 - The Late John Garfield Blues.wav

Peak level 96.3 %
Extraction speed 2.2 X
Track quality 100.0 %
Test CRC 98102BB5
Copy CRC 98102BB5
Accurately ripped (confidence 1) [A7622629] (AR v2)
Copy OK

Track 5

Filename D:\EAC Rips (No Backup)\Diamonds in the Rough\05 - Sour Grapes.wav

Peak level 91.8 %
Extraction speed 2.2 X
Track quality 100.0 %
Test CRC 19608665
Copy CRC 19608665
Accurately ripped (confidence 1) [715BEB02] (AR v2)
Copy OK

Track 6

Filename D:\EAC Rips (No Backup)\Diamonds in the Rough\06 - Billy the Bum.wav

Peak level 97.7 %
Extraction speed 2.6 X
Track quality 100.0 %
Test CRC 4A4C2D01
Copy CRC 4A4C2D01
Accurately ripped (confidence 1) [CE50D7CB] (AR v2)
Copy OK

Track 7

Filename D:\EAC Rips (No Backup)\Diamonds in the Rough\07 - The Frying Pan.wav

Peak level 94.9 %
Extraction speed 2.3 X
Track quality 100.0 %
Test CRC 1A8F424B
Copy CRC 1A8F424B
Accurately ripped (confidence 1) [21A4199A] (AR v2)
Copy OK

Track 8

Filename D:\EAC Rips (No Backup)\Diamonds in the Rough\08 - Yes I Guess They Oughta Name a Drink After You.wav

Peak level 93.0 %
Extraction speed 2.5 X
Track quality 100.0 %
Test CRC DE98090E
Copy CRC DE98090E
Accurately ripped (confidence 1) [BA0AB284] (AR v2)
Copy OK

Track 9

Filename D:\EAC Rips (No Backup)\Diamonds in the Rough\09 - Take the Star Out of the Window.wav

Peak level 96.5 %
Extraction speed 1.6 X
Track quality 99.9 %
Test CRC 23A6A328
Copy CRC 23A6A328
Accurately ripped (confidence 1) [488E6868] (AR v2)
Copy OK

Track 10

Filename D:\EAC Rips (No Backup)\Diamonds in the Rough\10 - The Great Compromise.wav

Peak level 98.8 %
Extraction speed 3.0 X
Track quality 100.0 %
Test CRC 28FDCCE5
Copy CRC 28FDCCE5
Accurately ripped (confidence 1) [55F22053] (AR v2)
Copy OK

Track 11

Filename D:\EAC Rips (No Backup)\Diamonds in the Rough\11 - Clocks and Spoons.wav

Peak level 82.9 %
Extraction speed 3.0 X
Track quality 100.0 %
Test CRC 9CE50BC7
Copy CRC 9CE50BC7
Accurately ripped (confidence 1) [D5561C46] (AR v2)
Copy OK

Track 12

Filename D:\EAC Rips (No Backup)\Diamonds in the Rough\12 - Rocky Mountain Time.wav

Peak level 100.0 %
Extraction speed 2.1 X
Track quality 99.9 %
Test CRC E7409BF5
Copy CRC E7409BF5
Accurately ripped (confidence 1) [50050DEE] (AR v2)
Copy OK

Track 13

Filename D:\EAC Rips (No Backup)\Diamonds in the Rough\13 - Diamonds in the Rough.wav

Peak level 92.0 %
Extraction speed 2.8 X
Track quality 100.0 %
Test CRC EF359EBA
Copy CRC EF359EBA
Accurately ripped (confidence 1) [EC41D368] (AR v2)
Copy OK


All tracks accurately ripped

No errors occurred

End of status report

–– CUETools DB Plugin V2.1.6

[CTDB TOCID: aBrndawdAZ_ZUkId04ia9g0Q.2M-] found
Submit result: aBrndawdAZ_ZUkId04ia9g0Q.2M- has been confirmed
Track | CTDB Status
1 | (17/17) Accurately ripped
2 | (17/17) Accurately ripped
3 | (17/17) Accurately ripped
4 | (17/17) Accurately ripped
5 | (17/17) Accurately ripped
6 | (17/17) Accurately ripped
7 | (17/17) Accurately ripped
8 | (17/17) Accurately ripped
9 | (17/17) Accurately ripped
10 | (17/17) Accurately ripped
11 | (17/17) Accurately ripped
12 | (17/17) Accurately ripped
13 | (17/17) Accurately ripped


==== Log checksum 0A96920AB3F1F89045135E17341F491971E5B8EF33EB35D79F02A01724009480 ====
Exact Audio Copy V1.3 from 2. September 2016

EAC extraction logfile from 22. November 2020, 15:59

John Prine / John Prine

Used drive : hp DVD A DH16ACSHR Adapter: 1 ID: 0

Read mode : Secure
Utilize accurate stream : Yes
Defeat audio cache : Yes
Make use of C2 pointers : No

Read offset correction : 6
Overread into Lead-In and Lead-Out : No
Fill up missing offset samples with silence : Yes
Delete leading and trailing silent blocks : No
Null samples used in CRC calculations : Yes
Used interface : Native Win32 interface for Win NT & 2000
Gap handling : Appended to previous track

Used output format : User Defined Encoder
Selected bitrate : 128 kBit/s
Quality : High
Add ID3 tag : No
Command line compressor : C:\Program Files (x86)\Exact Audio Copy\Flac\flac.exe
Additional command line options : -8 -V -T "ARTIST=%artist%" -T "TITLE=%title%" -T "ALBUM=%albumtitle%" -T "DATE=%year%" -T "TRACKNUMBER=%tracknr%" -T "GENRE=%genre%" -T "PERFORMER=%albuminterpret%" -T "COMPOSER=%composer%" %haslyrics%–tag-from-file=LYRICS="%lyricsfile%"%haslyrics% -T "ALBUMARTIST=%albumartist%" -T "DISCNUMBER=%cdnumber%" -T "TOTALDISCS=%totalcds%" -T "TOTALTRACKS=%numtracks%" -T "COMMENT=%comment%" %source% -o %dest%


TOC of the extracted CD

Track | Start | Length | Start sector | End sector
––––––––––––––––––––––––––––-
1 | 0:00.00 | 3:13.06 | 0 | 14480
2 | 3:13.06 | 2:40.69 | 14481 | 26549
3 | 5:54.00 | 4:31.47 | 26550 | 46921
4 | 10:25.47 | 4:16.40 | 46922 | 66161
5 | 14:42.12 | 3:13.62 | 66162 | 80698
6 | 17:55.74 | 3:39.62 | 80699 | 97185
7 | 21:35.61 | 2:52.27 | 97186 | 110112
8 | 24:28.13 | 3:42.24 | 110113 | 126786
9 | 28:10.37 | 3:46.42 | 126787 | 143778
10 | 31:57.04 | 2:53.10 | 143779 | 156763
11 | 34:50.14 | 4:29.69 | 156764 | 177007
12 | 39:20.08 | 2:52.00 | 177008 | 189907
13 | 42:12.08 | 2:32.66 | 189908 | 201373


Track 1

Filename D:\EAC Rips (No Backup)\John Prine\01 - Illegal Smile.wav

Pre-gap length 0:00:02.00

Peak level 98.9 %
Extraction speed 1.8 X
Track quality 100.0 %
Test CRC 58212444
Copy CRC 58212444
Accurately ripped (confidence 1) [ED3F66DD] (AR v2)
Copy OK

Track 2

Filename D:\EAC Rips (No Backup)\John Prine\02 - Spanish Pipedream.wav

Peak level 100.0 %
Extraction speed 1.9 X
Track quality 100.0 %
Test CRC 8A4F7933
Copy CRC 8A4F7933
Accurately ripped (confidence 1) [6F93706B] (AR v2)
Copy OK

Track 3

Filename D:\EAC Rips (No Backup)\John Prine\03 - Hello in There.wav

Peak level 100.0 %
Extraction speed 2.2 X
Track quality 100.0 %
Test CRC BF386E73
Copy CRC BF386E73
Accurately ripped (confidence 1) [0F27E509] (AR v2)
Copy OK

Track 4

Filename D:\EAC Rips (No Backup)\John Prine\04 - Sam Stone.wav

Peak level 97.7 %
Extraction speed 2.4 X
Track quality 100.0 %
Test CRC 8CE8618E
Copy CRC 8CE8618E
Accurately ripped (confidence 1) [0067F6B2] (AR v2)
Copy OK

Track 5

Filename D:\EAC Rips (No Backup)\John Prine\05 - Paradise.wav

Peak level 99.2 %
Extraction speed 2.4 X
Track quality 100.0 %
Test CRC AB1DE271
Copy CRC AB1DE271
Accurately ripped (confidence 1) [FB7C44A8] (AR v2)
Copy OK

Track 6

Filename D:\EAC Rips (No Backup)\John Prine\06 - Pretty Good.wav

Peak level 100.0 %
Extraction speed 2.6 X
Track quality 100.0 %
Test CRC A57FA21E
Copy CRC A57FA21E
Accurately ripped (confidence 1) [05EBB9C0] (AR v2)
Copy OK

Track 7

Filename D:\EAC Rips (No Backup)\John Prine\07 - Your Flag Decal Won’t Get You Into Heaven Anymore.wav

Peak level 100.0 %
Extraction speed 2.7 X
Track quality 100.0 %
Test CRC A7BC717D
Copy CRC A7BC717D
Accurately ripped (confidence 1) [FC80D3D1] (AR v2)
Copy OK

Track 8

Filename D:\EAC Rips (No Backup)\John Prine\08 - Far From Me.wav

Peak level 99.4 %
Extraction speed 2.9 X
Track quality 100.0 %
Test CRC CD96CD5F
Copy CRC CD96CD5F
Accurately ripped (confidence 1) [CF9B105D] (AR v2)
Copy OK

Track 9

Filename D:\EAC Rips (No Backup)\John Prine\09 - Angel From Montgomery.wav

Peak level 100.0 %
Extraction speed 3.0 X
Track quality 100.0 %
Test CRC 2E5D51B1
Copy CRC 2E5D51B1
Accurately ripped (confidence 1) [D7AE6C8C] (AR v2)
Copy OK

Track 10

Filename D:\EAC Rips (No Backup)\John Prine\10 - Quiet Man.wav

Peak level 100.0 %
Extraction speed 3.0 X
Track quality 100.0 %
Test CRC 1587837B
Copy CRC 1587837B
Accurately ripped (confidence 1) [8E0E4A62] (AR v2)
Copy OK

Track 11

Filename D:\EAC Rips (No Backup)\John Prine\11 - Donald and Lydia.wav

Peak level 99.6 %
Extraction speed 2.5 X
Track quality 99.9 %
Test CRC BDD19F0F
Copy CRC BDD19F0F
Accurately ripped (confidence 1) [F78E5F69] (AR v2)
Copy OK

Track 12

Filename D:\EAC Rips (No Backup)\John Prine\12 - Six O’Clock News.wav

Peak level 96.6 %
Extraction speed 2.2 X
Track quality 99.9 %
Test CRC 464CCEE2
Copy CRC 464CCEE2
Accurately ripped (confidence 1) [37210719] (AR v2)
Copy OK

Track 13

Filename D:\EAC Rips (No Backup)\John Prine\13 - Flashback Blues.wav

Peak level 99.7 %
Extraction speed 3.2 X
Track quality 100.0 %
Test CRC 2978F180
Copy CRC 2978F180
Accurately ripped (confidence 1) [B121684A] (AR v2)
Copy OK


All tracks accurately ripped

No errors occurred

End of status report

–– CUETools DB Plugin V2.1.6

[CTDB TOCID: 41aGRLQXkC4zjBRxF5D13_QXfCY-] found
Submit result: 41aGRLQXkC4zjBRxF5D13_QXfCY- has been confirmed
Track | CTDB Status
1 | (17/17) Accurately ripped
2 | (17/17) Accurately ripped
3 | (17/17) Accurately ripped
4 | (17/17) Accurately ripped
5 | (17/17) Accurately ripped
6 | (17/17) Accurately ripped
7 | (17/17) Accurately ripped
8 | (17/17) Accurately ripped
9 | (17/17) Accurately ripped
10 | (17/17) Accurately ripped
11 | (17/17) Accurately ripped
12 | (17/17) Accurately ripped
13 | (17/17) Accurately ripped


==== Log checksum 0491D00EBEC03EE16B227A100BEC04F8C67C5DE3522B23EC34ACEB7F72F915F3 ====
Exact Audio Copy V1.3 from 2. September 2016

EAC extraction logfile from 23. November 2020, 16:27

John Prine / Pink Cadillac

Used drive : hp DVD A DH16ACSHR Adapter: 1 ID: 0

Read mode : Secure
Utilize accurate stream : Yes
Defeat audio cache : Yes
Make use of C2 pointers : No

Read offset correction : 6
Overread into Lead-In and Lead-Out : No
Fill up missing offset samples with silence : Yes
Delete leading and trailing silent blocks : No
Null samples used in CRC calculations : Yes
Used interface : Native Win32 interface for Win NT & 2000
Gap handling : Appended to previous track

Used output format : User Defined Encoder
Selected bitrate : 128 kBit/s
Quality : High
Add ID3 tag : No
Command line compressor : C:\Program Files (x86)\Exact Audio Copy\Flac\flac.exe
Additional command line options : -8 -V -T "ARTIST=%artist%" -T "TITLE=%title%" -T "ALBUM=%albumtitle%" -T "DATE=%year%" -T "TRACKNUMBER=%tracknr%" -T "GENRE=%genre%" -T "PERFORMER=%albuminterpret%" -T "COMPOSER=%composer%" %haslyrics%–tag-from-file=LYRICS="%lyricsfile%"%haslyrics% -T "ALBUMARTIST=%albumartist%" -T "DISCNUMBER=%cdnumber%" -T "TOTALDISCS=%totalcds%" -T "TOTALTRACKS=%numtracks%" -T "COMMENT=%comment%" %source% -o %dest%


TOC of the extracted CD

Track | Start | Length | Start sector | End sector
––––––––––––––––––––––––––––-
1 | 0:00.00 | 2:25.46 | 0 | 10920
2 | 2:25.46 | 4:23.71 | 10921 | 30716
3 | 6:49.42 | 4:36.51 | 30717 | 51467
4 | 11:26.18 | 3:31.45 | 51468 | 67337
5 | 14:57.63 | 3:19.41 | 67338 | 82303
6 | 18:17.29 | 4:13.30 | 82304 | 101308
7 | 22:30.59 | 3:32.54 | 101309 | 117262
8 | 26:03.38 | 5:02.74 | 117263 | 139986
9 | 31:06.37 | 3:39.31 | 139987 | 156442
10 | 34:45.68 | 2:40.17 | 156443 | 168459


Track 1

Filename D:\EAC Rips (No Backup)\Pink Cadillac\01 - Chinatown.wav

Pre-gap length 0:00:02.00

Peak level 100.0 %
Extraction speed 1.7 X
Track quality 100.0 %
Test CRC 21A28B32
Copy CRC 21A28B32
Accurately ripped (confidence 1) [ABEBF028] (AR v2)
Copy OK

Track 2

Filename D:\EAC Rips (No Backup)\Pink Cadillac\02 - Automobile.wav

Peak level 100.0 %
Extraction speed 1.5 X
Track quality 99.9 %
Test CRC A5846547
Copy CRC A5846547
Accurately ripped (confidence 1) [512A3B22] (AR v2)
Copy OK

Track 3

Filename D:\EAC Rips (No Backup)\Pink Cadillac\03 - Killing The Blues.wav

Peak level 100.0 %
Extraction speed 2.3 X
Track quality 100.0 %
Test CRC C3A9B820
Copy CRC C3A9B820
Accurately ripped (confidence 1) [A3456801] (AR v2)
Copy OK

Track 4

Filename D:\EAC Rips (No Backup)\Pink Cadillac\04 - No Name Girl.wav

Peak level 99.2 %
Extraction speed 2.4 X
Track quality 100.0 %
Test CRC 04AD85EC
Copy CRC 04AD85EC
Accurately ripped (confidence 1) [01A678BC] (AR v2)
Copy OK

Track 5

Filename D:\EAC Rips (No Backup)\Pink Cadillac\05 - Saigon.wav

Peak level 100.0 %
Extraction speed 1.8 X
Track quality 99.9 %
Test CRC 2B9E5824
Copy CRC 2B9E5824
Accurately ripped (confidence 1) [EFDFC260] (AR v2)
Copy OK

Track 6

Filename D:\EAC Rips (No Backup)\Pink Cadillac\06 - Cold War (This Cold War With You).wav

Peak level 97.8 %
Extraction speed 2.7 X
Track quality 100.0 %
Test CRC 3331BEDF
Copy CRC 3331BEDF
Accurately ripped (confidence 1) [3BC15BB7] (AR v2)
Copy OK

Track 7

Filename D:\EAC Rips (No Backup)\Pink Cadillac\07 - Baby Let's Play House.wav

Peak level 100.0 %
Extraction speed 2.8 X
Track quality 100.0 %
Test CRC 444FFE5C
Copy CRC 444FFE5C
Accurately ripped (confidence 1) [874F45F9] (AR v2)
Copy OK

Track 8

Filename D:\EAC Rips (No Backup)\Pink Cadillac\08 - Down By The Side Of The Road.wav

Peak level 99.5 %
Extraction speed 3.1 X
Track quality 100.0 %
Test CRC DDED6774
Copy CRC DDED6774
Accurately ripped (confidence 1) [E6C16314] (AR v2)
Copy OK

Track 9

Filename D:\EAC Rips (No Backup)\Pink Cadillac\09 - How Lucky.wav

Peak level 97.1 %
Extraction speed 3.1 X
Track quality 100.0 %
Test CRC 36D74194
Copy CRC 36D74194
Accurately ripped (confidence 1) [4866A481] (AR v2)
Copy OK

Track 10

Filename D:\EAC Rips (No Backup)\Pink Cadillac\10 - Ubangi Stomp.wav

Peak level 100.0 %
Extraction speed 3.0 X
Track quality 100.0 %
Test CRC 2F713D6D
Copy CRC 2F713D6D
Accurately ripped (confidence 1) [1B2A380E] (AR v2)
Copy OK


All tracks accurately ripped

No errors occurred

End of status report

–– CUETools DB Plugin V2.1.6

[CTDB TOCID: qwIL_T..TRqxBCmgSF2AR9wsZHU-] found
Submit result: qwIL_T..TRqxBCmgSF2AR9wsZHU- has been confirmed
Track | CTDB Status
1 | (17/17) Accurately ripped
2 | (17/17) Accurately ripped
3 | (17/17) Accurately ripped
4 | (17/17) Accurately ripped
5 | (17/17) Accurately ripped
6 | (17/17) Accurately ripped
7 | (17/17) Accurately ripped
8 | (17/17) Accurately ripped
9 | (17/17) Accurately ripped
10 | (17/17) Accurately ripped


==== Log checksum 72142E81E385F8725CD3A3D4A87AC1D6779C43CB9C7C14FFAFBD32651700282E ====
Exact Audio Copy V1.3 from 2. September 2016

EAC extraction logfile from 23. November 2020, 17:20

John Prine / Storm Windows

Used drive : hp DVD A DH16ACSHR Adapter: 1 ID: 0

Read mode : Secure
Utilize accurate stream : Yes
Defeat audio cache : Yes
Make use of C2 pointers : No

Read offset correction : 6
Overread into Lead-In and Lead-Out : No
Fill up missing offset samples with silence : Yes
Delete leading and trailing silent blocks : No
Null samples used in CRC calculations : Yes
Used interface : Native Win32 interface for Win NT & 2000
Gap handling : Appended to previous track

Used output format : User Defined Encoder
Selected bitrate : 128 kBit/s
Quality : High
Add ID3 tag : No
Command line compressor : C:\Program Files (x86)\Exact Audio Copy\Flac\flac.exe
Additional command line options : -8 -V -T "ARTIST=%artist%" -T "TITLE=%title%" -T "ALBUM=%albumtitle%" -T "DATE=%year%" -T "TRACKNUMBER=%tracknr%" -T "GENRE=%genre%" -T "PERFORMER=%albuminterpret%" -T "COMPOSER=%composer%" %haslyrics%–tag-from-file=LYRICS="%lyricsfile%"%haslyrics% -T "ALBUMARTIST=%albumartist%" -T "DISCNUMBER=%cdnumber%" -T "TOTALDISCS=%totalcds%" -T "TOTALTRACKS=%numtracks%" -T "COMMENT=%comment%" %source% -o %dest%


TOC of the extracted CD

Track | Start | Length | Start sector | End sector
––––––––––––––––––––––––––––-
1 | 0:00.00 | 3:13.72 | 0 | 14546
2 | 3:13.72 | 3:28.07 | 14547 | 30153
3 | 6:42.04 | 2:18.00 | 30154 | 40503
4 | 9:00.04 | 2:53.14 | 40504 | 53492
5 | 11:53.18 | 2:47.40 | 53493 | 66057
6 | 14:40.58 | 3:09.01 | 66058 | 80233
7 | 17:49.59 | 5:05.49 | 80234 | 103157
8 | 22:55.33 | 3:10.10 | 103158 | 117417
9 | 26:05.43 | 3:17.18 | 117418 | 132210
10 | 29:22.61 | 3:32.24 | 132211 | 148134


Track 1

Filename D:\EAC Rips (No Backup)\Storm Windows\01 - Shop Talk.wav

Pre-gap length 0:00:02.00

Peak level 99.5 %
Extraction speed 1.8 X
Track quality 100.0 %
Test CRC E4382AF3
Copy CRC E4382AF3
Accurately ripped (confidence 1) [FC4261D0] (AR v2)
Copy OK

Track 2

Filename D:\EAC Rips (No Backup)\Storm Windows\02 - Living in the Future.wav

Peak level 98.7 %
Extraction speed 2.0 X
Track quality 100.0 %
Test CRC E163C11C
Copy CRC E163C11C
Accurately ripped (confidence 1) [3AF7FF11] (AR v2)
Copy OK

Track 3

Filename D:\EAC Rips (No Backup)\Storm Windows\03 - It's Happening to You.wav

Peak level 97.5 %
Extraction speed 2.0 X
Track quality 100.0 %
Test CRC B5406E32
Copy CRC B5406E32
Accurately ripped (confidence 1) [5910F11B] (AR v2)
Copy OK

Track 4

Filename D:\EAC Rips (No Backup)\Storm Windows\04 - Sleepy Eyed Boy.wav

Peak level 92.0 %
Extraction speed 2.2 X
Track quality 100.0 %
Test CRC 3ECD3897
Copy CRC 3ECD3897
Accurately ripped (confidence 1) [3F7A4BDB] (AR v2)
Copy OK

Track 5

Filename D:\EAC Rips (No Backup)\Storm Windows\05 - All Night Blue.wav

Peak level 97.5 %
Extraction speed 2.3 X
Track quality 100.0 %
Test CRC F5A1C1A4
Copy CRC F5A1C1A4
Accurately ripped (confidence 1) [DDD86489] (AR v2)
Copy OK

Track 6

Filename D:\EAC Rips (No Backup)\Storm Windows\06 - Just Wanna Be With You.wav

Peak level 94.6 %
Extraction speed 2.4 X
Track quality 100.0 %
Test CRC 1A890F50
Copy CRC 1A890F50
Accurately ripped (confidence 1) [49A0EA51] (AR v2)
Copy OK

Track 7

Filename D:\EAC Rips (No Backup)\Storm Windows\07 - Storm Windows.wav

Peak level 100.0 %
Extraction speed 2.8 X
Track quality 100.0 %
Test CRC 32462B46
Copy CRC 32462B46
Accurately ripped (confidence 1) [892A530C] (AR v2)
Copy OK

Track 8

Filename D:\EAC Rips (No Backup)\Storm Windows\08 - Baby Ruth.wav

Peak level 97.8 %
Extraction speed 2.8 X
Track quality 100.0 %
Test CRC CB08E982
Copy CRC CB08E982
Accurately ripped (confidence 1) [5925EF39] (AR v2)
Copy OK

Track 9

Filename D:\EAC Rips (No Backup)\Storm Windows\09 - One Red Rose.wav

Peak level 96.4 %
Extraction speed 2.9 X
Track quality 100.0 %
Test CRC 26515A21
Copy CRC 26515A21
Accurately ripped (confidence 1) [D8533BFC] (AR v2)
Copy OK

Track 10

Filename D:\EAC Rips (No Backup)\Storm Windows\10 - I Had a Dream.wav

Peak level 98.8 %
Extraction speed 3.0 X
Track quality 100.0 %
Test CRC 1727FFA4
Copy CRC 1727FFA4
Accurately ripped (confidence 1) [19402D86] (AR v2)
Copy OK


All tracks accurately ripped

No errors occurred

End of status report

–– CUETools DB Plugin V2.1.6

[CTDB TOCID: 1Z3fBg5uw1aUTTXNIrWLu5_jtmY-] found
Submit result: 1Z3fBg5uw1aUTTXNIrWLu5_jtmY- has been confirmed
Track | CTDB Status
1 | (18/18) Accurately ripped
2 | (18/18) Accurately ripped
3 | (18/18) Accurately ripped
4 | (18/18) Accurately ripped
5 | (18/18) Accurately ripped
6 | (18/18) Accurately ripped
7 | (18/18) Accurately ripped
8 | (18/18) Accurately ripped
9 | (18/18) Accurately ripped
10 | (18/18) Accurately ripped


==== Log checksum 30BA7C15AAF00C807BB7187856213E50A5C9709208B6F3FFB0DEC60945465A76 ====
Exact Audio Copy V1.3 from 2. September 2016

EAC extraction logfile from 23. November 2020, 14:16

John Prine / Sweet Revenge

Used drive : hp DVD A DH16ACSHR Adapter: 1 ID: 0

Read mode : Secure
Utilize accurate stream : Yes
Defeat audio cache : Yes
Make use of C2 pointers : No

Read offset correction : 6
Overread into Lead-In and Lead-Out : No
Fill up missing offset samples with silence : Yes
Delete leading and trailing silent blocks : No
Null samples used in CRC calculations : Yes
Used interface : Native Win32 interface for Win NT & 2000
Gap handling : Appended to previous track

Used output format : User Defined Encoder
Selected bitrate : 128 kBit/s
Quality : High
Add ID3 tag : No
Command line compressor : C:\Program Files (x86)\Exact Audio Copy\Flac\flac.exe
Additional command line options : -8 -V -T "ARTIST=%artist%" -T "TITLE=%title%" -T "ALBUM=%albumtitle%" -T "DATE=%year%" -T "TRACKNUMBER=%tracknr%" -T "GENRE=%genre%" -T "PERFORMER=%albuminterpret%" -T "COMPOSER=%composer%" %haslyrics%–tag-from-file=LYRICS="%lyricsfile%"%haslyrics% -T "ALBUMARTIST=%albumartist%" -T "DISCNUMBER=%cdnumber%" -T "TOTALDISCS=%totalcds%" -T "TOTALTRACKS=%numtracks%" -T "COMMENT=%comment%" %source% -o %dest%


TOC of the extracted CD

Track | Start | Length | Start sector | End sector
––––––––––––––––––––––––––––-
1 | 0:00.00 | 2:41.51 | 0 | 12125
2 | 2:41.51 | 2:51.11 | 12126 | 24961
3 | 5:32.62 | 3:13.41 | 24962 | 39477
4 | 8:46.28 | 4:22.29 | 39478 | 59156
5 | 13:08.57 | 3:29.52 | 59157 | 74883
6 | 16:38.34 | 3:04.53 | 74884 | 88736
7 | 19:43.12 | 2:22.49 | 88737 | 99435
8 | 22:05.61 | 2:13.69 | 99436 | 109479
9 | 24:19.55 | 3:24.24 | 109480 | 124803
10 | 27:44.04 | 4:41.59 | 124804 | 145937
11 | 32:25.63 | 3:31.57 | 145938 | 161819
12 | 35:57.45 | 3:03.41 | 161820 | 175585


Track 1

Filename D:\EAC Rips (No Backup)\Sweet Revenge\01 - Sweet Revenge.wav

Pre-gap length 0:00:02.00

Peak level 100.0 %
Extraction speed 1.1 X
Track quality 99.9 %
Test CRC EC10067C
Copy CRC EC10067C
Accurately ripped (confidence 1) [71BE3A02] (AR v2)
Copy OK

Track 2

Filename D:\EAC Rips (No Backup)\Sweet Revenge\02 - Please Don't Bury Me.wav

Peak level 91.8 %
Extraction speed 1.9 X
Track quality 100.0 %
Test CRC 5F53CDFB
Copy CRC 5F53CDFB
Accurately ripped (confidence 1) [65209E04] (AR v2)
Copy OK

Track 3

Filename D:\EAC Rips (No Backup)\Sweet Revenge\03 - Christmas in Prison.wav

Peak level 97.3 %
Extraction speed 1.4 X
Track quality 99.9 %
Test CRC E4519B8F
Copy CRC E4519B8F
Accurately ripped (confidence 1) [A16E0E5C] (AR v2)
Copy OK

Track 4

Filename D:\EAC Rips (No Backup)\Sweet Revenge\04 - Dear Abby.wav

Peak level 95.7 %
Extraction speed 2.3 X
Track quality 100.0 %
Test CRC B1DBD110
Copy CRC B1DBD110
Accurately ripped (confidence 1) [B851753F] (AR v2)
Copy OK

Track 5

Filename D:\EAC Rips (No Backup)\Sweet Revenge\05 - Blue Umbrella.wav

Peak level 96.8 %
Extraction speed 2.4 X
Track quality 100.0 %
Test CRC 7C375DAE
Copy CRC 7C375DAE
Accurately ripped (confidence 1) [AD6EA9FA] (AR v2)
Copy OK

Track 6

Filename D:\EAC Rips (No Backup)\Sweet Revenge\06 - Often Is a Word I Seldom Use.wav

Peak level 100.0 %
Extraction speed 2.5 X
Track quality 100.0 %
Test CRC 648FB2A2
Copy CRC 648FB2A2
Accurately ripped (confidence 1) [027566B4] (AR v2)
Copy OK

Track 7

Filename D:\EAC Rips (No Backup)\Sweet Revenge\07 - Onomatopoeia.wav

Peak level 98.0 %
Extraction speed 2.5 X
Track quality 100.0 %
Test CRC 4815505C
Copy CRC 4815505C
Accurately ripped (confidence 1) [155C6678] (AR v2)
Copy OK

Track 8

Filename D:\EAC Rips (No Backup)\Sweet Revenge\08 - Grandpa Was a Carpenter.wav

Peak level 94.0 %
Extraction speed 2.5 X
Track quality 100.0 %
Test CRC 7156778E
Copy CRC 7156778E
Accurately ripped (confidence 1) [4F7DA9EE] (AR v2)
Copy OK

Track 9

Filename D:\EAC Rips (No Backup)\Sweet Revenge\09 - The Accident (Things Could Be Worse).wav

Peak level 97.0 %
Extraction speed 2.8 X
Track quality 100.0 %
Test CRC 14545B27
Copy CRC 14545B27
Accurately ripped (confidence 1) [55447905] (AR v2)
Copy OK

Track 10

Filename D:\EAC Rips (No Backup)\Sweet Revenge\10 - Mexican Home.wav

Peak level 100.0 %
Extraction speed 3.1 X
Track quality 100.0 %
Test CRC FBFD3A29
Copy CRC FBFD3A29
Accurately ripped (confidence 1) [BFFD8E2D] (AR v2)
Copy OK

Track 11

Filename D:\EAC Rips (No Backup)\Sweet Revenge\11 - A Good Time.wav

Peak level 97.0 %
Extraction speed 3.1 X
Track quality 100.0 %
Test CRC C89E95DC
Copy CRC C89E95DC
Accurately ripped (confidence 1) [FCBBE27B] (AR v2)
Copy OK

Track 12

Filename D:\EAC Rips (No Backup)\Sweet Revenge\12 - Nine Pound Hammer.wav

Peak level 100.0 %
Extraction speed 3.1 X
Track quality 100.0 %
Test CRC 441552BA
Copy CRC 441552BA
Accurately ripped (confidence 1) [A1F26BA2] (AR v2)
Copy OK


All tracks accurately ripped

No errors occurred

End of status report

–– CUETools DB Plugin V2.1.6

[CTDB TOCID: kVev60H8fafkIzj4yC8TxorTu7Q-] found
Submit result: kVev60H8fafkIzj4yC8TxorTu7Q- has been confirmed
Track | CTDB Status
1 | (17/17) Accurately ripped
2 | (17/17) Accurately ripped
3 | (17/17) Accurately ripped
4 | (17/17) Accurately ripped
5 | (17/17) Accurately ripped
6 | (17/17) Accurately ripped
7 | (17/17) Accurately ripped
8 | (17/17) Accurately ripped
9 | (17/17) Accurately ripped
10 | (17/17) Accurately ripped
11 | (17/17) Accurately ripped
12 | (17/17) Accurately ripped


==== Log checksum 885223DA3611B2EACFDD70EC32195575745CEE6352088BE633805DE5BE679B2D ====

Thanks to the Original ripper !