Subcategories

John Waite - Wooden Heart, Vol. 2: Acoustic Anthology (2017)

Posted By: delpotro
John Waite - Wooden Heart, Vol. 2: Acoustic Anthology (2017)

John Waite - Wooden Heart, Vol. 2: Acoustic Anthology (2017)
EAC Rip | FLAC (tracks+log+.cue) | 00:47:00 | 302 Mb
Pop Rock, Acoustic | Label: No Brakes Records

One would be hard pressed to come up with a vocalist that sprung out of the ‘70s or ‘80s that is better than ever in 2018. John Waite is one of those rare artists possessing a voice of extraordinary power and emotion that by some miraculous twist of fate and God given gift, has somehow managed to have gotten stronger over time. That commanding vocal prowess is displayed on his new release, Wooden Heart: Acoustic Anthology Volume Two; also out at the same time is a newly reconfigured version of his greatest hits album, BEST. We sat down with John who shared the back story behind his acoustic flavored artistic endeavors, how to circumnavigate changes in the music industry and what legendary artist he wished he could have watched record in the studio.
Tracklist:
1. Catch the Wind (03:21)
2. Missing You (04:02)
3. Isn’t It Time (03:48)
4. Downtown (04:43)
5. In God’s Shadow (05:05)
6. Masterpiece of Loneliness (04:06)
7. Head First (03:09)
8. Bluebird Café (03:56)
9. More (04:09)
10. Valentine (03:45)
11. Girl from the North Country (03:30)
12. Hanging Tree (03:21)

Exact Audio Copy V1.3 from 2. September 2016

EAC extraction logfile from 1. October 2019, 7:54

John Waite / Wooden Heart, Vol. 2 (Acoustic Anthology)

Used drive : PLEXTOR PX-891SAF Adapter: 1 ID: 0

Read mode : Secure
Utilize accurate stream : Yes
Defeat audio cache : Yes
Make use of C2 pointers : No

Read offset correction : 6
Overread into Lead-In and Lead-Out : No
Fill up missing offset samples with silence : Yes
Delete leading and trailing silent blocks : No
Null samples used in CRC calculations : Yes
Used interface : Native Win32 interface for Win NT & 2000
Gap handling : Appended to previous track

Used output format : User Defined Encoder
Selected bitrate : 1024 kBit/s
Quality : High
Add ID3 tag : No
Command line compressor : C:\Program Files (x86)\Exact Audio Copy\Flac\flac.exe
Additional command line options : -8 -V -T "ARTIST=%artist%" -T "TITLE=%title%" -T "ALBUM=%albumtitle%" -T "DATE=%year%" -T "TRACKNUMBER=%tracknr%" -T "GENRE=%genre%" -T "PERFORMER=%albuminterpret%" -T "COMPOSER=%composer%" %haslyrics%–tag-from-file=LYRICS="%lyricsfile%"%haslyrics% -T "ALBUMARTIST=%albumartist%" -T "DISCNUMBER=%cdnumber%" -T "TOTALDISCS=%totalcds%" -T "TOTALTRACKS=%numtracks%" -T "COMMENT=%comment%" %source% -o %dest%


TOC of the extracted CD

Track | Start | Length | Start sector | End sector
––––––––––––––––––––––––––––-
1 | 0:00.00 | 3:21.55 | 0 | 15129
2 | 3:21.55 | 4:02.40 | 15130 | 33319
3 | 7:24.20 | 3:48.09 | 33320 | 50428
4 | 11:12.29 | 4:43.55 | 50429 | 71708
5 | 15:56.09 | 5:05.08 | 71709 | 94591
6 | 21:01.17 | 4:06.26 | 94592 | 113067
7 | 25:07.43 | 3:09.60 | 113068 | 127302
8 | 28:17.28 | 3:56.44 | 127303 | 145046
9 | 32:13.72 | 4:09.45 | 145047 | 163766
10 | 36:23.42 | 3:45.08 | 163767 | 180649
11 | 40:08.50 | 3:30.32 | 180650 | 196431
12 | 43:39.07 | 3:21.09 | 196432 | 211515


Track 1

Filename D:\#cdr\#wav+flac\John Waite - Wooden Heart, Vol. 2 (Acoustic Anthology)\01. John Waite - Catch The Wind.wav

Pre-gap length 0:00:02.00

Peak level 95.7 %
Extraction speed 4.8 X
Track quality 100.0 %
Test CRC 0ADDF020
Copy CRC 0ADDF020
Accurately ripped (confidence 4) [8424E85F] (AR v2)
Copy OK

Track 2

Filename D:\#cdr\#wav+flac\John Waite - Wooden Heart, Vol. 2 (Acoustic Anthology)\02. John Waite - Missing You.wav

Peak level 90.8 %
Extraction speed 5.4 X
Track quality 100.0 %
Test CRC C609BEFE
Copy CRC C609BEFE
Accurately ripped (confidence 4) [C2627B2F] (AR v2)
Copy OK

Track 3

Filename D:\#cdr\#wav+flac\John Waite - Wooden Heart, Vol. 2 (Acoustic Anthology)\03. John Waite - Isn’t It Time.wav

Peak level 94.9 %
Extraction speed 5.9 X
Track quality 100.0 %
Test CRC C71CAA37
Copy CRC C71CAA37
Accurately ripped (confidence 4) [200C4D43] (AR v2)
Copy OK

Track 4

Filename D:\#cdr\#wav+flac\John Waite - Wooden Heart, Vol. 2 (Acoustic Anthology)\04. John Waite - Downtown.wav

Peak level 98.7 %
Extraction speed 6.5 X
Track quality 100.0 %
Test CRC 2A410475
Copy CRC 2A410475
Accurately ripped (confidence 4) [598366B7] (AR v2)
Copy OK

Track 5

Filename D:\#cdr\#wav+flac\John Waite - Wooden Heart, Vol. 2 (Acoustic Anthology)\05. John Waite - In God’s Shadow.wav

Peak level 97.0 %
Extraction speed 6.0 X
Track quality 99.9 %
Test CRC 69452308
Copy CRC 69452308
Accurately ripped (confidence 4) [6E7C267E] (AR v2)
Copy OK

Track 6

Filename D:\#cdr\#wav+flac\John Waite - Wooden Heart, Vol. 2 (Acoustic Anthology)\06. John Waite - Masterpiece Of Loneliness.wav

Peak level 97.1 %
Extraction speed 6.0 X
Track quality 99.9 %
Test CRC 4AE7C37B
Copy CRC 4AE7C37B
Accurately ripped (confidence 4) [AE274D09] (AR v2)
Copy OK

Track 7

Filename D:\#cdr\#wav+flac\John Waite - Wooden Heart, Vol. 2 (Acoustic Anthology)\07. John Waite - Head First.wav

Peak level 97.5 %
Extraction speed 7.3 X
Track quality 100.0 %
Test CRC E2CFF1A4
Copy CRC E2CFF1A4
Accurately ripped (confidence 4) [EA5194AE] (AR v2)
Copy OK

Track 8

Filename D:\#cdr\#wav+flac\John Waite - Wooden Heart, Vol. 2 (Acoustic Anthology)\08. John Waite - Bluebird Café.wav

Peak level 97.5 %
Extraction speed 7.9 X
Track quality 100.0 %
Test CRC 5410307B
Copy CRC 5410307B
Accurately ripped (confidence 4) [B7939DCE] (AR v2)
Copy OK

Track 9

Filename D:\#cdr\#wav+flac\John Waite - Wooden Heart, Vol. 2 (Acoustic Anthology)\09. John Waite - More.wav

Peak level 94.3 %
Extraction speed 8.3 X
Track quality 100.0 %
Test CRC 9167FF4A
Copy CRC 9167FF4A
Accurately ripped (confidence 4) [8E98275C] (AR v2)
Copy OK

Track 10

Filename D:\#cdr\#wav+flac\John Waite - Wooden Heart, Vol. 2 (Acoustic Anthology)\10. John Waite - Valentine.wav

Peak level 96.7 %
Extraction speed 6.8 X
Track quality 99.9 %
Test CRC 3DEFF455
Copy CRC 3DEFF455
Accurately ripped (confidence 4) [D9DB0C87] (AR v2)
Copy OK

Track 11

Filename D:\#cdr\#wav+flac\John Waite - Wooden Heart, Vol. 2 (Acoustic Anthology)\11. John Waite - Girl From The North Country.wav

Peak level 93.4 %
Extraction speed 8.6 X
Track quality 100.0 %
Test CRC D2EF744A
Copy CRC D2EF744A
Accurately ripped (confidence 4) [CB49F94F] (AR v2)
Copy OK

Track 12

Filename D:\#cdr\#wav+flac\John Waite - Wooden Heart, Vol. 2 (Acoustic Anthology)\12. John Waite - Hanging Tree.wav

Peak level 89.9 %
Extraction speed 8.7 X
Track quality 100.0 %
Test CRC 54422BD7
Copy CRC 54422BD7
Accurately ripped (confidence 4) [85134B57] (AR v2)
Copy OK


All tracks accurately ripped

No errors occurred

End of status report

–– CUETools DB Plugin V2.1.6

[CTDB TOCID: 9ElHGWDGUFlgvsnNy3CFvvKtbC8-] found
Submit result: 9ElHGWDGUFlgvsnNy3CFvvKtbC8- has been confirmed
Track | CTDB Status
1 | (6/6) Accurately ripped
2 | (6/6) Accurately ripped
3 | (6/6) Accurately ripped
4 | (6/6) Accurately ripped
5 | (6/6) Accurately ripped
6 | (6/6) Accurately ripped
7 | (6/6) Accurately ripped
8 | (6/6) Accurately ripped
9 | (6/6) Accurately ripped
10 | (6/6) Accurately ripped
11 | (6/6) Accurately ripped
12 | (6/6) Accurately ripped


==== Log checksum CD04365B412B38FF9FBE8A4116395809766FFA92AC1E6EF3A40FBDEB4EA41993 ====

––––––––––––––––––––––––––––––

Exact Audio Copy V1.3 from 2. September 2016

EAC extraction logfile from 1. October 2019, 7:55

John Waite / Wooden Heart, Vol. 2 (Acoustic Anthology)

Used drive : PLEXTOR PX-891SAF Adapter: 1 ID: 0

Read mode : Secure
Utilize accurate stream : Yes
Defeat audio cache : Yes
Make use of C2 pointers : No

Read offset correction : 6
Overread into Lead-In and Lead-Out : No
Fill up missing offset samples with silence : Yes
Delete leading and trailing silent blocks : No
Null samples used in CRC calculations : Yes
Used interface : Native Win32 interface for Win NT & 2000
Gap handling : Appended to previous track

Used output format : User Defined Encoder
Selected bitrate : 1024 kBit/s
Quality : High
Add ID3 tag : No
Command line compressor : C:\Program Files (x86)\Exact Audio Copy\Flac\flac.exe
Additional command line options : -8 -V -T "ARTIST=%artist%" -T "TITLE=%title%" -T "ALBUM=%albumtitle%" -T "DATE=%year%" -T "TRACKNUMBER=%tracknr%" -T "GENRE=%genre%" -T "PERFORMER=%albuminterpret%" -T "COMPOSER=%composer%" %haslyrics%–tag-from-file=LYRICS="%lyricsfile%"%haslyrics% -T "ALBUMARTIST=%albumartist%" -T "DISCNUMBER=%cdnumber%" -T "TOTALDISCS=%totalcds%" -T "TOTALTRACKS=%numtracks%" -T "COMMENT=%comment%" %source% -o %dest%


TOC of the extracted CD

Track | Start | Length | Start sector | End sector
––––––––––––––––––––––––––––-
1 | 0:00.00 | 3:21.55 | 0 | 15129
2 | 3:21.55 | 4:02.40 | 15130 | 33319
3 | 7:24.20 | 3:48.09 | 33320 | 50428
4 | 11:12.29 | 4:43.55 | 50429 | 71708
5 | 15:56.09 | 5:05.08 | 71709 | 94591
6 | 21:01.17 | 4:06.26 | 94592 | 113067
7 | 25:07.43 | 3:09.60 | 113068 | 127302
8 | 28:17.28 | 3:56.44 | 127303 | 145046
9 | 32:13.72 | 4:09.45 | 145047 | 163766
10 | 36:23.42 | 3:45.08 | 163767 | 180649
11 | 40:08.50 | 3:30.32 | 180650 | 196431
12 | 43:39.07 | 3:21.09 | 196432 | 211515


Track 1

Filename D:\#cdr\#wav+flac\John Waite - Wooden Heart, Vol. 2 (Acoustic Anthology)\01. John Waite - Catch The Wind.wav

Pre-gap length 0:00:02.00

Peak level 95.7 %
Extraction speed 4.8 X
Track quality 100.0 %
Test CRC 0ADDF020
Copy CRC 0ADDF020
Accurately ripped (confidence 4) [8424E85F] (AR v2)
Copy OK

Track 2

Filename D:\#cdr\#wav+flac\John Waite - Wooden Heart, Vol. 2 (Acoustic Anthology)\02. John Waite - Missing You.wav

Peak level 90.8 %
Extraction speed 5.4 X
Track quality 100.0 %
Test CRC C609BEFE
Copy CRC C609BEFE
Accurately ripped (confidence 4) [C2627B2F] (AR v2)
Copy OK

Track 3

Filename D:\#cdr\#wav+flac\John Waite - Wooden Heart, Vol. 2 (Acoustic Anthology)\03. John Waite - Isn’t It Time.wav

Peak level 94.9 %
Extraction speed 5.9 X
Track quality 100.0 %
Test CRC C71CAA37
Copy CRC C71CAA37
Accurately ripped (confidence 4) [200C4D43] (AR v2)
Copy OK

Track 4

Filename D:\#cdr\#wav+flac\John Waite - Wooden Heart, Vol. 2 (Acoustic Anthology)\04. John Waite - Downtown.wav

Peak level 98.7 %
Extraction speed 6.5 X
Track quality 100.0 %
Test CRC 2A410475
Copy CRC 2A410475
Accurately ripped (confidence 4) [598366B7] (AR v2)
Copy OK

Track 5

Filename D:\#cdr\#wav+flac\John Waite - Wooden Heart, Vol. 2 (Acoustic Anthology)\05. John Waite - In God’s Shadow.wav

Peak level 97.0 %
Extraction speed 6.0 X
Track quality 99.9 %
Test CRC 69452308
Copy CRC 69452308
Accurately ripped (confidence 4) [6E7C267E] (AR v2)
Copy OK

Track 6

Filename D:\#cdr\#wav+flac\John Waite - Wooden Heart, Vol. 2 (Acoustic Anthology)\06. John Waite - Masterpiece Of Loneliness.wav

Peak level 97.1 %
Extraction speed 6.0 X
Track quality 99.9 %
Test CRC 4AE7C37B
Copy CRC 4AE7C37B
Accurately ripped (confidence 4) [AE274D09] (AR v2)
Copy OK

Track 7

Filename D:\#cdr\#wav+flac\John Waite - Wooden Heart, Vol. 2 (Acoustic Anthology)\07. John Waite - Head First.wav

Peak level 97.5 %
Extraction speed 7.3 X
Track quality 100.0 %
Test CRC E2CFF1A4
Copy CRC E2CFF1A4
Accurately ripped (confidence 4) [EA5194AE] (AR v2)
Copy OK

Track 8

Filename D:\#cdr\#wav+flac\John Waite - Wooden Heart, Vol. 2 (Acoustic Anthology)\08. John Waite - Bluebird Café.wav

Peak level 97.5 %
Extraction speed 7.9 X
Track quality 100.0 %
Test CRC 5410307B
Copy CRC 5410307B
Accurately ripped (confidence 4) [B7939DCE] (AR v2)
Copy OK

Track 9

Filename D:\#cdr\#wav+flac\John Waite - Wooden Heart, Vol. 2 (Acoustic Anthology)\09. John Waite - More.wav

Peak level 94.3 %
Extraction speed 8.3 X
Track quality 100.0 %
Test CRC 9167FF4A
Copy CRC 9167FF4A
Accurately ripped (confidence 4) [8E98275C] (AR v2)
Copy OK

Track 10

Filename D:\#cdr\#wav+flac\John Waite - Wooden Heart, Vol. 2 (Acoustic Anthology)\10. John Waite - Valentine.wav

Peak level 96.7 %
Extraction speed 6.8 X
Track quality 99.9 %
Test CRC 3DEFF455
Copy CRC 3DEFF455
Accurately ripped (confidence 4) [D9DB0C87] (AR v2)
Copy OK

Track 11

Filename D:\#cdr\#wav+flac\John Waite - Wooden Heart, Vol. 2 (Acoustic Anthology)\11. John Waite - Girl From The North Country.wav

Peak level 93.4 %
Extraction speed 8.6 X
Track quality 100.0 %
Test CRC D2EF744A
Copy CRC D2EF744A
Accurately ripped (confidence 4) [CB49F94F] (AR v2)
Copy OK

Track 12

Filename D:\#cdr\#wav+flac\John Waite - Wooden Heart, Vol. 2 (Acoustic Anthology)\12. John Waite - Hanging Tree.wav

Peak level 89.9 %
Extraction speed 8.7 X
Track quality 100.0 %
Test CRC 54422BD7
Copy CRC 54422BD7
Accurately ripped (confidence 4) [85134B57] (AR v2)
Copy OK


All tracks accurately ripped

No errors occurred

End of status report

–– CUETools DB Plugin V2.1.6

[CTDB TOCID: 9ElHGWDGUFlgvsnNy3CFvvKtbC8-] found
Submit result: 9ElHGWDGUFlgvsnNy3CFvvKtbC8- has been confirmed
Track | CTDB Status
1 | (6/6) Accurately ripped
2 | (6/6) Accurately ripped
3 | (6/6) Accurately ripped
4 | (6/6) Accurately ripped
5 | (6/6) Accurately ripped
6 | (6/6) Accurately ripped
7 | (6/6) Accurately ripped
8 | (6/6) Accurately ripped
9 | (6/6) Accurately ripped
10 | (6/6) Accurately ripped
11 | (6/6) Accurately ripped
12 | (6/6) Accurately ripped


==== Log checksum 4B8C21AE0A72D02E4A936DE1B3E1A52E898485F687F8190DCC034B3194B5DAF2 ====

Thanks to the Original ripper !