Tags
Language
Tags

Johnny Cash & Royal Philharmonic Orchestra - Johnny Cash and The Royal Philharmonic Orchestra (2020)

Posted By:
Johnny Cash & Royal Philharmonic Orchestra - Johnny Cash and The Royal Philharmonic Orchestra (2020)

Johnny Cash & Royal Philharmonic Orchestra - Johnny Cash and The Royal Philharmonic Orchestra (2020)
EAC Rip | FLAC (tracks+log+.cue) - 240 Mb | MP3 CBR 320 kbps - 90 Mb | 00:39:12
Country | Label: Sony Music

This career-spanning collection reimagines 12 classic Johnny Cash performances via new symphonic arrangements recorded at the fabled Abbey Road Studio 2 with The Royal Philharmonic Orchestra. Performances range from archetypal Cash classics like “Man In Black” and “Ring Of Fire” to essential musical collaborations including “Girl From The North Country” (Bob Dylan with Johnny Cash), “The Loving Gift” (with June Carter Cash) and “Highwayman” (with Willie Nelson, Waylon Jennings, Kris Kristofferson and Johnny Cash).

The recordings of “I Walk The Line” and “Flesh and Blood” used in making Johnny Cash and The Royal Philharmonic Orchestra are both previously unreleased alternate takes from Johnny Cash’s soundtrack sessions for I Walk The Line, a 1970 film starring Gregory Peck and Tuesday Weld.

“I remember when my father introduced me to the RPO,” writes John Carter Cash in his liner notes for the album. “I was around ten years old and he and I went to see three films from the James Bond saga at a festival in New York. When the theme for Goldfinger began, he leaned over to me. ‘That’s the finest orchestra in the world, son, he said. ‘That’s the Royal Philharmonic.’ … He knew the music of the RPO. He respected them all throughout his life.”
Tracklist:
1. Johnny Cash & Royal Philharmonic Orchestra – Man In Black (with The Royal Philharmonic Orchestra) (03:19)
2. Johnny Cash & Royal Philharmonic Orchestra – Galway Bay (with The Royal Philharmonic Orchestra) (03:01)
3. Bob Dylan, Johnny Cash & Royal Philharmonic Orchestra – Girl from the North Country (with The Royal Philharmonic Orchestra) (04:44)
4. Johnny Cash & Royal Philharmonic Orchestra – I Came to Believe (with The Royal Philharmonic Orchestra) (03:42)
5. Johnny Cash & Royal Philharmonic Orchestra – A Thing Called Love (with The Royal Philharmonic Orchestra) (02:33)
6. Johnny Cash, June Carter Cash & Royal Philharmonic Orchestra – The Loving Gift (with The Royal Philharmonic Orchestra) (02:24)
7. Johnny Cash & Royal Philharmonic Orchestra – I Walk the Line (with The Royal Philharmonic Orchestra) (03:10)
8. Johnny Cash & Royal Philharmonic Orchestra – Farther Along (feat. Duane Eddy) [with The Royal Philharmonic Orchestra] (03:55)
9. Johnny Cash & Royal Philharmonic Orchestra – Flesh and Blood (with The Royal Philharmonic Orchestra) (02:27)
10. Johnny Cash & Royal Philharmonic Orchestra – The Gambler (with The Royal Philharmonic Orchestra) (03:41)
11. Johnny Cash & Royal Philharmonic Orchestra – Ring of Fire (with The Royal Philharmonic Orchestra) (02:45)
12. Willie Nelson, Waylon Jennings, Kris Kristofferson, Johnny Cash & Royal Philharmonic Orchestra – The Highway Man (with The Royal Philharmonic Orchestra) (03:24)

Exact Audio Copy V1.3 from 2. September 2016

EAC extraction logfile from 21. December 2020, 14:26

Johnny Cash, Royal Philharmonic Orchestra / Johnny Cash and The Royal Philharmonic Orchestra

Used drive : HL-DT-STDVDRAM GP55EX70 Adapter: 1 ID: 0

Read mode : Secure
Utilize accurate stream : Yes
Defeat audio cache : Yes
Make use of C2 pointers : No

Read offset correction : 6
Overread into Lead-In and Lead-Out : No
Fill up missing offset samples with silence : Yes
Delete leading and trailing silent blocks : No
Null samples used in CRC calculations : Yes
Used interface : Native Win32 interface for Win NT & 2000
Gap handling : Appended to previous track

Used output format : User Defined Encoder
Selected bitrate : 1024 kBit/s
Quality : High
Add ID3 tag : No
Command line compressor : C:\Program Files (x86)\Exact Audio Copy\Flac\flac.exe
Additional command line options : -8 -e -p -V -T "ARTIST=%artist%" -T "TITLE=%title%" -T "ALBUM=%albumtitle%" -T "DATE=%year%" -T "TRACKNUMBER=%tracknr%" -T "GENRE=%genre%" -T "PERFORMER=%albuminterpret%" -T "COMPOSER=%composer%" %haslyrics%–tag-from-file=LYRICS="%lyricsfile%"%haslyrics% -T "ALBUMARTIST=%albumartist%" -T "DISCNUMBER=%cdnumber%" -T "TOTALDISCS=%totalcds%" -T "TOTALTRACKS=%numtracks%" -T "COMMENT=%comment%" %source% -o %dest%


TOC of the extracted CD

Track | Start | Length | Start sector | End sector
––––––––––––––––––––––––––––-
1 | 0:00.00 | 3:19.44 | 0 | 14968
2 | 3:19.44 | 3:01.72 | 14969 | 28615
3 | 6:21.41 | 4:44.55 | 28616 | 49970
4 | 11:06.21 | 3:42.50 | 49971 | 66670
5 | 14:48.71 | 2:33.52 | 66671 | 78197
6 | 17:22.48 | 2:24.63 | 78198 | 89060
7 | 19:47.36 | 3:10.06 | 89061 | 103316
8 | 22:57.42 | 3:55.59 | 103317 | 121000
9 | 26:53.26 | 2:27.24 | 121001 | 132049
10 | 29:20.50 | 3:41.38 | 132050 | 148662
11 | 33:02.13 | 2:45.58 | 148663 | 161095
12 | 35:47.71 | 3:24.27 | 161096 | 176422


Track 1

Filename D:\EACRips\Johnny Cash and The Royal Philharmonic Orchestra (2020) [FLAC] {Colombia 19075994162}\01 - Johnny Cash - Man In Black (with The Royal Philharmonic Orchestra).wav

Pre-gap length 0:00:02.00

Peak level 98.8 %
Extraction speed 1.8 X
Track quality 100.0 %
Test CRC DF483A3D
Copy CRC DF483A3D
Track not present in AccurateRip database
Copy OK

Track 2

Filename D:\EACRips\Johnny Cash and The Royal Philharmonic Orchestra (2020) [FLAC] {Colombia 19075994162}\02 - Johnny Cash - Galway Bay (with The Royal Philharmonic Orchestra).wav

Peak level 98.0 %
Extraction speed 1.9 X
Track quality 100.0 %
Test CRC 1B3CE4B8
Copy CRC 1B3CE4B8
Track not present in AccurateRip database
Copy OK

Track 3

Filename D:\EACRips\Johnny Cash and The Royal Philharmonic Orchestra (2020) [FLAC] {Colombia 19075994162}\03 - Johnny Cash - Girl from the North Country (with The Royal Philharmonic Orchestra).wav

Peak level 99.4 %
Extraction speed 2.2 X
Track quality 100.0 %
Test CRC A7486AF7
Copy CRC A7486AF7
Track not present in AccurateRip database
Copy OK

Track 4

Filename D:\EACRips\Johnny Cash and The Royal Philharmonic Orchestra (2020) [FLAC] {Colombia 19075994162}\04 - Johnny Cash - I Came to Believe (with The Royal Philharmonic Orchestra).wav

Peak level 98.4 %
Extraction speed 2.4 X
Track quality 100.0 %
Test CRC 6B01B875
Copy CRC 6B01B875
Track not present in AccurateRip database
Copy OK

Track 5

Filename D:\EACRips\Johnny Cash and The Royal Philharmonic Orchestra (2020) [FLAC] {Colombia 19075994162}\05 - Johnny Cash - A Thing Called Love (with The Royal Philharmonic Orchestra).wav

Peak level 100.0 %
Extraction speed 1.6 X
Track quality 99.9 %
Test CRC 030A8501
Copy CRC 030A8501
Track not present in AccurateRip database
Copy OK

Track 6

Filename D:\EACRips\Johnny Cash and The Royal Philharmonic Orchestra (2020) [FLAC] {Colombia 19075994162}\06 - Johnny Cash - The Loving Gift (with The Royal Philharmonic Orchestra).wav

Peak level 98.5 %
Extraction speed 2.4 X
Track quality 100.0 %
Test CRC C19A5490
Copy CRC C19A5490
Track not present in AccurateRip database
Copy OK

Track 7

Filename D:\EACRips\Johnny Cash and The Royal Philharmonic Orchestra (2020) [FLAC] {Colombia 19075994162}\07 - Johnny Cash - I Walk the Line (with The Royal Philharmonic Orchestra).wav

Peak level 99.1 %
Extraction speed 2.6 X
Track quality 100.0 %
Test CRC 45BA2A7A
Copy CRC 45BA2A7A
Track not present in AccurateRip database
Copy OK

Track 8

Filename D:\EACRips\Johnny Cash and The Royal Philharmonic Orchestra (2020) [FLAC] {Colombia 19075994162}\08 - Johnny Cash feat. Duane Eddy - Farther Along (with The Royal Philharmonic Orchestra).wav

Peak level 99.4 %
Extraction speed 2.8 X
Track quality 100.0 %
Test CRC FFC1252E
Copy CRC FFC1252E
Track not present in AccurateRip database
Copy OK

Track 9

Filename D:\EACRips\Johnny Cash and The Royal Philharmonic Orchestra (2020) [FLAC] {Colombia 19075994162}\09 - Johnny Cash - Flesh and Blood (with The Royal Philharmonic Orchestra).wav

Peak level 98.1 %
Extraction speed 2.7 X
Track quality 100.0 %
Test CRC 19660713
Copy CRC 19660713
Track not present in AccurateRip database
Copy OK

Track 10

Filename D:\EACRips\Johnny Cash and The Royal Philharmonic Orchestra (2020) [FLAC] {Colombia 19075994162}\10 - Johnny Cash - The Gambler (with The Royal Philharmonic Orchestra).wav

Peak level 98.6 %
Extraction speed 3.0 X
Track quality 100.0 %
Test CRC 8A097E27
Copy CRC 8A097E27
Track not present in AccurateRip database
Copy OK

Track 11

Filename D:\EACRips\Johnny Cash and The Royal Philharmonic Orchestra (2020) [FLAC] {Colombia 19075994162}\11 - Johnny Cash - Ring of Fire (with The Royal Philharmonic Orchestra).wav

Peak level 100.0 %
Extraction speed 3.0 X
Track quality 100.0 %
Test CRC CFA8CA6B
Copy CRC CFA8CA6B
Track not present in AccurateRip database
Copy OK

Track 12

Filename D:\EACRips\Johnny Cash and The Royal Philharmonic Orchestra (2020) [FLAC] {Colombia 19075994162}\12 - Johnny Cash - The Highway Man (with The Royal Philharmonic Orchestra).wav

Peak level 100.0 %
Extraction speed 3.1 X
Track quality 100.0 %
Test CRC 58AEB5C0
Copy CRC 58AEB5C0
Track not present in AccurateRip database
Copy OK


None of the tracks are present in the AccurateRip database

No errors occurred

End of status report

–– CUETools DB Plugin V2.1.6

[CTDB TOCID: NLe0TrPAHmwRU3gOwziltHGGB5Y-] found
Submit result: NLe0TrPAHmwRU3gOwziltHGGB5Y- has been confirmed
Track | CTDB Status
1 | (12/12) Accurately ripped
2 | (12/12) Accurately ripped
3 | (12/12) Accurately ripped
4 | (12/12) Accurately ripped
5 | (12/12) Accurately ripped
6 | (12/12) Accurately ripped
7 | (12/12) Accurately ripped
8 | (12/12) Accurately ripped
9 | (12/12) Accurately ripped
10 | (12/12) Accurately ripped
11 | (12/12) Accurately ripped
12 | (12/12) Accurately ripped


==== Log checksum F14A223FAAA6916CFBC8711B8BC4F94BF4A6E1206EEC03CA3A58670B899CFA25 ====

Thanks to the Original ripper !