Subcategories

Johnny Hodges & Wild Bill Davis - Joe's Blues (1965) {Lone Hill Jazz LHJ10284 rel 2007}

Posted By: ruskaval
Johnny Hodges & Wild Bill Davis - Joe's Blues (1965) {Lone Hill Jazz LHJ10284 rel 2007}

Johnny Hodges & Wild Bill Davis - Joe's Blues (1965) {Lone Hill Jazz LHJ10284 rel 2007}
EAC rip (secure mode) | FLAC (tracks)+CUE+LOG -> 409 Mb | MP3 @320 -> 170 Mb
Full Artwork @ 300 dpi (jpg) -> 25 Mb | 5% repair rar
© 1965, 2007 Verve / Lone Hill Jazz | LHJ10284
Jazz / Blues / Jazz Blues / Saxophone / Organ / Guitar

Altoist Johnny Hodges and organist Wild Bill Davis made quite a few records together during the 1960s, although each of their efforts had slightly different personnel. In the case of this long out-of-print Verve LP, they are assisted by trombonist Lawrence Brown, guitarist Grant Green, bassist Richard Davis, drummer Ben Dixon and, on three numbers, pianist Hank Jones. With the exception of "Take the 'A' Train" and the two ballads "The Nearness of You" and "Peg O' My Heart," the material (including three Hodges originals and Duke Ellington's "Imbo") is quite obscure. The group always swings, and it is interesting to hear Hodges in this setting; pity that this LP's music has not yet been reissued on CD.
Johnny Hodges & Wild Bill Davis - Joe's Blues (1965) {Lone Hill Jazz LHJ10284 rel 2007}


Musicians
Saxophone Johnny Hodges
Organ Wild Bill Davis
Guitar Grant Green
Trombone Lawrence Brown
Bass Bob Bushnell
Bass Bob Cranshaw
Drums Grady Tate
Piano Hank Jones
Bass Richard Davis
Drums Ben Dixon

tracklist:
Joe's Blues (Verve V/V6-8617)

01 Joe's Blues 06:08
02 I'll Walk Alone 04:29
03 Harmony In Harlem 03:20
04 Warm Valley 04:30
05 Wild Bill Blues 05:22
06 Somrbody Loves Me 04:50
07 Solitude 05:01
08 Clementine 03:11

Wings And Things (Verve V/V6-8630)
09 Wings And Things 07:16
10 Spotted Dog 07:48
11 Casanova 02:43
12 Dow De Dow Dow Dow 03:24
13 Peg O' My Heart 03:27
14 The Nearness Of You 03:16
15 Imbo 03:57
16 Take The "A" Train 03:59

Exact Audio Copy V0.99 prebeta 5 from 4. May 2009

EAC extraction logfile from 18. August 2010, 23:18

Johnny Hodges & Wild Bill Davis / Joe's Blues

Used drive : TSSTcorpCDDVDW SH-S203N Adapter: 0 ID: 2

Read mode : Secure
Utilize accurate stream : Yes
Defeat audio cache : Yes
Make use of C2 pointers : No

Read offset correction : 6
Overread into Lead-In and Lead-Out : No
Fill up missing offset samples with silence : Yes
Delete leading and trailing silent blocks : No
Null samples used in CRC calculations : Yes
Used interface : Installed external ASPI interface
Gap handling : Appended to previous track

Used output format : User Defined Encoder
Selected bitrate : 768 kBit/s
Quality : High
Add ID3 tag : No
Command line compressor : C:\Program Files\Exact Audio Copy\Flac\flac.exe
Additional command line options : -8 -V -T "ARTIST=%a" -T "TITLE=%t" -T "ALBUM=%g" -T "DATE=%y" -T "TRACKNUMBER=%n" -T "TOTALTRACKS=%x" -T "GENRE=%m" -T "ALBUMARTIST=%v" -T "ALBUM ARTIST=%v" -T "COMMENT=EAC V0.99 pb5, Secure Mode, Test & Copy, AccurateRip,


TOC of the extracted CD

Track | Start | Length | Start sector | End sector
––––––––––––––––––––––––––––-
1 | 0:00.00 | 6:07.61 | 0 | 27585
2 | 6:07.61 | 4:29.27 | 27586 | 47787
3 | 10:37.13 | 3:19.67 | 47788 | 62779
4 | 13:57.05 | 4:29.52 | 62780 | 83006
5 | 18:26.57 | 5:22.28 | 83007 | 107184
6 | 23:49.10 | 4:49.42 | 107185 | 128901
7 | 28:38.52 | 5:01.13 | 128902 | 151489
8 | 33:39.65 | 3:11.18 | 151490 | 165832
9 | 36:51.08 | 7:16.05 | 165833 | 198537
10 | 44:07.13 | 7:47.64 | 198538 | 233626
11 | 51:55.02 | 2:43.14 | 233627 | 245865
12 | 54:38.16 | 3:24.34 | 245866 | 261199
13 | 58:02.50 | 3:26.66 | 261200 | 276715
14 | 61:29.41 | 3:16.02 | 276716 | 291417
15 | 64:45.43 | 3:56.60 | 291418 | 309177
16 | 68:42.28 | 3:58.56 | 309178 | 327083


Track 1

Filename J:\New Rips\Johnny Hodges & Wild Bill Davis - Joe's Blues (2007) [FLAC] {Lonehill Jazz LHJ10284 rec 1965}\01 - Joe's Blues.wav

Pre-gap length 0:00:02.00

Peak level 87.0 %
Track quality 100.0 %
Test CRC BA3D037F
Copy CRC BA3D037F
Track not present in AccurateRip database
Copy OK

Track 2

Filename J:\New Rips\Johnny Hodges & Wild Bill Davis - Joe's Blues (2007) [FLAC] {Lonehill Jazz LHJ10284 rec 1965}\02 - I'll Walk Alone.wav

Peak level 90.4 %
Track quality 100.0 %
Test CRC 6223791F
Copy CRC 6223791F
Track not present in AccurateRip database
Copy OK

Track 3

Filename J:\New Rips\Johnny Hodges & Wild Bill Davis - Joe's Blues (2007) [FLAC] {Lonehill Jazz LHJ10284 rec 1965}\03 - Harmony In Harlem.wav

Peak level 99.4 %
Track quality 99.9 %
Test CRC 4BC280E2
Copy CRC 4BC280E2
Track not present in AccurateRip database
Copy OK

Track 4

Filename J:\New Rips\Johnny Hodges & Wild Bill Davis - Joe's Blues (2007) [FLAC] {Lonehill Jazz LHJ10284 rec 1965}\04 - Warm Valley.wav

Peak level 86.3 %
Track quality 100.0 %
Test CRC F7139CA3
Copy CRC F7139CA3
Track not present in AccurateRip database
Copy OK

Track 5

Filename J:\New Rips\Johnny Hodges & Wild Bill Davis - Joe's Blues (2007) [FLAC] {Lonehill Jazz LHJ10284 rec 1965}\05 - Wild Bill Blues.wav

Peak level 94.8 %
Track quality 100.0 %
Test CRC B532E2C0
Copy CRC B532E2C0
Track not present in AccurateRip database
Copy OK

Track 6

Filename J:\New Rips\Johnny Hodges & Wild Bill Davis - Joe's Blues (2007) [FLAC] {Lonehill Jazz LHJ10284 rec 1965}\06 - Somrbody Loves Me.wav

Peak level 100.0 %
Track quality 99.9 %
Test CRC 3506AECC
Copy CRC 3506AECC
Track not present in AccurateRip database
Copy OK

Track 7

Filename J:\New Rips\Johnny Hodges & Wild Bill Davis - Joe's Blues (2007) [FLAC] {Lonehill Jazz LHJ10284 rec 1965}\07 - Solitude.wav

Peak level 85.0 %
Track quality 99.9 %
Test CRC CAC4103E
Copy CRC CAC4103E
Track not present in AccurateRip database
Copy OK

Track 8

Filename J:\New Rips\Johnny Hodges & Wild Bill Davis - Joe's Blues (2007) [FLAC] {Lonehill Jazz LHJ10284 rec 1965}\08 - Clementine.wav

Peak level 88.7 %
Track quality 99.9 %
Test CRC 921077DB
Copy CRC 921077DB
Track not present in AccurateRip database
Copy OK

Track 9

Filename J:\New Rips\Johnny Hodges & Wild Bill Davis - Joe's Blues (2007) [FLAC] {Lonehill Jazz LHJ10284 rec 1965}\09 - Wings And Things.wav

Peak level 100.0 %
Track quality 100.0 %
Test CRC F13E3EFD
Copy CRC F13E3EFD
Track not present in AccurateRip database
Copy OK

Track 10

Filename J:\New Rips\Johnny Hodges & Wild Bill Davis - Joe's Blues (2007) [FLAC] {Lonehill Jazz LHJ10284 rec 1965}\10 - Spotted Dog.wav

Peak level 96.4 %
Track quality 99.8 %
Test CRC 9A0FF7C7
Copy CRC 9A0FF7C7
Track not present in AccurateRip database
Copy OK

Track 11

Filename J:\New Rips\Johnny Hodges & Wild Bill Davis - Joe's Blues (2007) [FLAC] {Lonehill Jazz LHJ10284 rec 1965}\11 - Casanova.wav

Peak level 96.6 %
Track quality 99.8 %
Test CRC 7D5C69EA
Copy CRC 7D5C69EA
Track not present in AccurateRip database
Copy OK

Track 12

Filename J:\New Rips\Johnny Hodges & Wild Bill Davis - Joe's Blues (2007) [FLAC] {Lonehill Jazz LHJ10284 rec 1965}\12 - Dow De Dow Dow Dow.wav

Peak level 99.8 %
Track quality 99.6 %
Test CRC 07865F92
Copy CRC 07865F92
Track not present in AccurateRip database
Copy OK

Track 13

Filename J:\New Rips\Johnny Hodges & Wild Bill Davis - Joe's Blues (2007) [FLAC] {Lonehill Jazz LHJ10284 rec 1965}\13 - Peg O' My Heart.wav

Peak level 95.8 %
Track quality 99.6 %
Test CRC 0C83DECA
Copy CRC 0C83DECA
Track not present in AccurateRip database
Copy OK

Track 14

Filename J:\New Rips\Johnny Hodges & Wild Bill Davis - Joe's Blues (2007) [FLAC] {Lonehill Jazz LHJ10284 rec 1965}\14 - The Nearness Of You.wav

Peak level 93.2 %
Track quality 99.8 %
Test CRC 944E087A
Copy CRC 944E087A
Track not present in AccurateRip database
Copy OK

Track 15

Filename J:\New Rips\Johnny Hodges & Wild Bill Davis - Joe's Blues (2007) [FLAC] {Lonehill Jazz LHJ10284 rec 1965}\15 - Imbo.wav

Peak level 100.0 %
Track quality 99.8 %
Test CRC C9C6DE81
Copy CRC C9C6DE81
Track not present in AccurateRip database
Copy OK

Track 16

Filename J:\New Rips\Johnny Hodges & Wild Bill Davis - Joe's Blues (2007) [FLAC] {Lonehill Jazz LHJ10284 rec 1965}\16 - Take The A Train.wav

Peak level 96.6 %
Track quality 99.9 %
Test CRC C0115CD3
Copy CRC C0115CD3
Track not present in AccurateRip database
Copy OK


None of the tracks are present in the AccurateRip database

No errors occurred

End of status report


Johnny Hodges & Wild Bill Davis - Joe's Blues (1965) {Lone Hill Jazz LHJ10284 rel 2007}

Johnny Hodges & Wild Bill Davis - Joe's Blues (1965) {Lone Hill Jazz LHJ10284 rel 2007}


All thanks goes to the original releaser!


===